osu file format v14

[General]
AudioFilename: The Chainsmokers - Sick Boy.mp3
AudioLeadIn: 0
PreviewTime: -1
Countdown: 1
SampleSet: None
StackLeniency: 0.7
Mode: 0
LetterboxInBreaks: 1
WidescreenStoryboard: 0

[Editor]
DistanceSpacing: 1.7
BeatDivisor: 4
GridSize: 4
TimelineZoom: 2.3

[Metadata]
Title:Sick Boy
TitleUnicode:Sick Boy
Artist:The Chainsmokers
ArtistUnicode:The Chainsmokers
Creator:Daniello666
Version:Insane
Source:
Tags:
BeatmapID:1555693
BeatmapSetID:737164

[Difficulty]
HPDrainRate:6
CircleSize:5
OverallDifficulty:7
ApproachRate:8
SliderMultiplier:1.4
SliderTickRate:1

[Events]
//Background and Video events
0,0,"ready.jpg",0,0
//Break Periods
2,86864,106915
//Storyboard Layer 0 (Background)
//Storyboard Layer 1 (Fail)
//Storyboard Layer 2 (Pass)
//Storyboard Layer 3 (Foreground)
//Storyboard Sound Samples

[TimingPoints]
333,333.331712707183,4,1,0,100,1,0

[HitObjects]
156,276,22332,5,0,0:0:0:0:
232,120,23332,1,0,0:0:0:0:
336,188,23666,1,0,0:0:0:0:
376,276,24999,5,0,0:0:0:0:
264,172,26332,5,0,0:0:0:0:
272,96,27666,1,0,0:0:0:0:
224,272,28666,1,0,0:0:0:0:
376,244,28999,1,0,0:0:0:0:
388,184,29666,5,0,0:0:0:0:
240,256,29999,1,0,0:0:0:0:
244,120,30332,1,0,0:0:0:0:
120,184,30999,5,0,0:0:0:0:
336,288,31332,1,0,0:0:0:0:
244,88,31666,1,0,0:0:0:0:
164,192,32332,5,0,0:0:0:0:
196,268,32666,1,0,0:0:0:0:
336,152,33666,5,0,0:0:0:0:
128,120,34332,5,0,0:0:0:0:
268,192,34999,5,0,0:0:0:0:
368,276,35332,1,0,0:0:0:0:
164,160,36332,5,0,0:0:0:0:
164,232,36666,1,0,0:0:0:0:
160,96,36999,1,0,0:0:0:0:
360,220,37332,2,0,P|432:224|420:204,2,140
431,222,38332,1,0,0:0:0:0:
240,216,39332,5,0,0:0:0:0:
216,156,40332,5,0,0:0:0:0:
400,132,40666,1,0,0:0:0:0:
352,228,40999,1,0,0:0:0:0:
112,48,41666,5,0,0:0:0:0:
244,232,41999,1,0,0:0:0:0:
360,324,42332,1,0,0:0:0:0:
212,100,42999,5,0,0:0:0:0:
388,124,43332,1,0,0:0:0:0:
120,288,43666,2,0,P|392:284|440:168,1,420
332,100,44999,2,0,P|128:268|156:300,1,420
180,264,46332,1,0,0:0:0:0:
256,192,46666,1,0,0:0:0:0:
324,116,46999,1,0,0:0:0:0:
176,116,47332,1,0,0:0:0:0:
316,260,47666,1,0,0:0:0:0:
252,276,47999,1,0,0:0:0:0:
84,168,48332,2,0,L|128:168|132:168,6,35
84,168,48999,1,0,0:0:0:0:
480,232,49666,5,0,0:0:0:0:
216,84,50332,1,0,0:0:0:0:
152,296,50999,1,0,0:0:0:0:
160,108,51666,1,0,0:0:0:0:
368,272,51999,1,0,0:0:0:0:
224,272,52332,1,0,0:0:0:0:
320,88,52666,1,0,0:0:0:0:
252,300,52749,1,0,0:0:0:0:
252,300,52832,1,0,0:0:0:0:
252,300,52916,1,0,0:0:0:0:
252,300,52999,1,0,0:0:0:0:
252,300,53082,1,0,0:0:0:0:
252,300,53166,1,0,0:0:0:0:
252,300,53249,1,0,0:0:0:0:
252,300,53332,1,0,0:0:0:0:
252,300,53416,1,0,0:0:0:0:
252,300,53499,1,0,0:0:0:0:
276,92,53999,1,0,0:0:0:0:
176,100,54582,2,0,L|284:100,1,105
281,100,55332,2,0,L|281:260|281:248,1,140
281,240,55999,2,0,L|281:80,1,140
284,172,56666,1,0,0:0:0:0:
108,180,56999,2,0,P|132:228|188:164,1,140
272,152,57666,2,0,P|224:132|208:212,1,140
400,88,58332,2,0,B|192:228|140:148|464:220,1,420
48,160,59666,1,0,0:0:0:0:
160,80,60166,5,0,0:0:0:0:
408,224,60332,1,0,0:0:0:0:
108,224,60499,1,0,0:0:0:0:
360,84,60666,1,0,0:0:0:0:
240,336,60832,1,0,0:0:0:0:
160,80,60999,1,0,0:0:0:0:
408,224,61166,1,0,0:0:0:0:
108,224,61332,1,0,0:0:0:0:
356,80,61499,1,0,0:0:0:0:
256,192,61666,12,0,64999,0:0:0:0:
472,232,65666,5,0,0:0:0:0:
296,296,65999,1,0,0:0:0:0:
232,204,66332,2,0,L|92:272,2,140
236,276,67332,1,0,0:0:0:0:
408,120,67666,1,0,0:0:0:0:
352,120,67832,1,0,0:0:0:0:
188,184,68332,1,0,0:0:0:0:
300,212,68666,1,0,0:0:0:0:
240,344,69332,6,0,B|488:340|464:284|328:96,1,420
280,44,70665,5,0,0:0:0:0:
360,228,70999,1,0,0:0:0:0:
180,264,71332,1,0,0:0:0:0:
208,124,71665,2,0,B|304:252|200:120|416:52,1,280
116,176,72665,1,0,0:0:0:0:
468,156,72999,2,0,B|320:60|428:84|188:148,1,280
60,56,73999,1,0,0:0:0:0:
192,292,74332,2,0,B|380:308|184:152|352:256|428:64|36:280|444:68|68:172,1,420
180,92,75665,1,0,0:0:0:0:
424,56,75999,2,0,L|288:152,2,140
148,316,76999,2,0,B|364:316|180:380|404:224,1,280
288,284,77999,2,0,B|420:284|416:308|156:260,1,280
264,192,78999,5,0,0:0:0:0:
264,192,79165,1,0,0:0:0:0:
264,192,79332,1,0,0:0:0:0:
264,192,79499,1,0,0:0:0:0:
264,192,79665,1,0,0:0:0:0:
264,192,79832,1,0,0:0:0:0:
264,192,79999,1,0,0:0:0:0:
264,192,80165,1,0,0:0:0:0:
264,192,80332,1,0,0:0:0:0:
264,192,80499,1,0,0:0:0:0:
264,192,80665,1,0,0:0:0:0:
264,192,80999,6,0,P|380:204|392:240,1,140
172,100,81665,1,0,0:0:0:0:
172,100,81749,1,0,0:0:0:0:
172,100,81832,1,0,0:0:0:0:
104,48,81999,1,0,0:0:0:0:
88,136,82332,1,0,0:0:0:0:
112,228,82665,1,0,0:0:0:0:
184,132,82999,6,0,B|312:232|336:116|488:48|180:280,1,420
184,132,84332,2,0,B|312:232|336:116|488:48|180:280,1,420
184,132,85665,2,0,B|312:232|336:116|488:48|180:280,1,420
180,128,107665,6,0,L|416:292,1,280
372,336,108665,2,0,L|120:160,1,280
396,248,109665,1,0,0:0:0:0:
256,284,109999,1,0,0:0:0:0:
400,112,110165,1,0,0:0:0:0:
184,172,110332,1,0,0:0:0:0:
416,188,110499,1,0,0:0:0:0:
248,108,110999,1,0,0:0:0:0:
416,188,111332,1,0,0:0:0:0:
256,284,111665,1,0,0:0:0:0:
432,296,111999,5,0,0:0:0:0:
432,296,112082,1,0,0:0:0:0:
432,296,112165,1,0,0:0:0:0:
372,220,112331,1,0,0:0:0:0:
372,220,112415,1,0,0:0:0:0:
372,220,112498,1,0,0:0:0:0:
320,300,112665,1,0,0:0:0:0:
320,300,112749,1,0,0:0:0:0:
320,300,112832,1,0,0:0:0:0:
176,268,113332,6,0,B|360:272|224:188|268:232,1,140
156,144,113999,2,0,B|332:188|156:112|200:204,1,140
320,168,114665,2,0,B|76:188|332:92|228:156|228:128,1,140
80,184,115332,1,0,0:0:0:0:
200,272,115665,1,0,0:0:0:0:
200,272,115832,1,0,0:0:0:0:
432,252,116332,1,0,0:0:0:0:
348,204,116665,1,0,0:0:0:0:
340,300,116999,1,0,0:0:0:0:
96,252,117332,5,0,0:0:0:0:
96,252,117416,1,0,0:0:0:0:
96,252,117499,1,0,0:0:0:0:
96,252,117666,1,0,0:0:0:0:
96,252,117749,1,0,0:0:0:0:
96,252,117832,1,0,0:0:0:0:
96,252,117999,1,0,0:0:0:0:
96,252,118082,1,0,0:0:0:0:
96,252,118166,1,0,0:0:0:0:
96,76,118332,5,0,0:0:0:0:
232,268,118665,1,0,0:0:0:0:
396,176,118999,5,0,0:0:0:0:
396,232,119165,1,0,0:0:0:0:
396,288,119332,1,0,0:0:0:0:
396,232,119499,1,0,0:0:0:0:
396,176,119665,1,0,0:0:0:0:
396,288,119832,1,0,0:0:0:0:
136,252,120332,1,0,0:0:0:0:
240,216,120665,1,0,0:0:0:0:
276,184,120999,2,0,L|216:232,2,70
240,240,121665,2,0,L|40:48,1,245
63,70,122332,2,0,B|368:120|60:244|260:192,1,280
168,132,123332,1,0,0:0:0:0:
372,304,123665,1,0,0:0:0:0:
248,212,123999,2,0,L|304:208,7,35
132,120,124832,5,0,0:0:0:0:
408,112,124999,1,0,0:0:0:0:
136,304,125165,1,0,0:0:0:0:
408,296,125332,1,0,0:0:0:0:
132,120,125499,1,0,0:0:0:0:
416,144,126332,1,0,0:0:0:0:
216,204,126498,1,0,0:0:0:0:
116,148,126999,2,0,L|352:244,2,245
248,136,128332,1,0,0:0:0:0:
92,232,128999,6,0,P|256:180|256:80,2,280
68,320,130665,1,0,0:0:0:0:
400,136,130999,2,0,B|116:244|272:104|120:184,2,280
420,284,132665,1,0,0:0:0:0:
136,116,132999,2,0,B|488:176|148:200|252:80,2,280
432,160,134665,1,0,0:0:0:0:
132,264,134999,2,0,B|116:212|280:216|0:60,2,280
352,312,136665,1,0,0:0:0:0:
448,88,136999,2,0,L|192:204,2,280
44,300,138665,1,0,0:0:0:0:
396,248,138998,2,0,P|228:124|132:108,2,280
440,340,140665,1,0,0:0:0:0:
208,160,140998,2,0,B|420:200|188:196|464:56,2,280
44,164,142665,1,0,0:0:0:0:
308,168,142998,2,0,B|224:232|432:96|96:68,2,280
496,116,144665,1,0,0:0:0:0:
164,140,144998,2,0,B|460:232|104:100|448:116|108:320|388:136|72:68|408:208|276:76|204:132,2,280
352,316,146665,1,0,0:0:0:0:
124,184,146998,2,0,B|420:172|204:72|300:280,1,280
256,192,147998,12,0,150332,0:0:0:0:
112,116,150998,5,0,0:0:0:0:
424,76,151332,1,0,0:0:0:0:
224,288,151665,1,0,0:0:0:0:
364,320,152332,1,0,0:0:0:0:
364,320,152415,1,0,0:0:0:0:
364,320,152498,1,0,0:0:0:0:
364,320,152582,1,0,0:0:0:0:
364,320,152665,1,0,0:0:0:0:
180,192,152998,5,0,0:0:0:0:
180,192,153082,1,0,0:0:0:0:
180,192,153165,1,0,0:0:0:0:
272,192,153332,1,0,0:0:0:0:
272,192,153415,1,0,0:0:0:0:
272,192,153498,1,0,0:0:0:0:
216,188,153665,1,0,0:0:0:0:
216,188,153748,1,0,0:0:0:0:
216,188,153832,1,0,0:0:0:0:
384,280,153998,1,0,0:0:0:0:
384,280,154082,1,0,0:0:0:0:
384,280,154165,1,0,0:0:0:0:
220,304,154332,1,0,0:0:0:0:
220,304,154415,1,0,0:0:0:0:
220,304,154498,1,0,0:0:0:0:
96,228,154665,1,0,0:0:0:0:
96,228,154748,1,0,0:0:0:0:
96,228,154832,1,0,0:0:0:0:
240,88,154998,1,0,0:0:0:0:
348,296,155332,1,0,0:0:0:0:
440,56,155665,1,0,0:0:0:0:
76,272,155998,2,0,B|444:144|100:40|76:184|152:308|476:140|64:96|444:260,1,560
76,160,157665,5,0,0:0:0:0:
76,160,157748,1,0,0:0:0:0:
76,160,157832,1,0,0:0:0:0:
76,160,157915,1,0,0:0:0:0:
76,160,157998,1,0,0:0:0:0:
232,296,158332,6,0,L|232:232,1,35
232,261,158582,2,0,L|232:217,1,35
232,226,158832,2,0,L|232:182,1,35
232,191,159082,2,0,L|276:171,1,35
263,176,159332,2,0,L|312:204,1,35
293,193,159582,2,0,L|293:237,1,35
293,228,159832,2,0,L|292:264,1,35
416,176,160248,2,0,P|348:100|216:216,1,315
52,176,161665,5,0,0:0:0:0:
60,176,161748,1,0,0:0:0:0:
68,176,161832,1,0,0:0:0:0:
76,176,161915,1,0,0:0:0:0:
84,176,161998,1,0,0:0:0:0:
92,176,162082,1,0,0:0:0:0:
104,176,162165,1,0,0:0:0:0:
112,176,162248,1,0,0:0:0:0:
120,176,162332,1,0,0:0:0:0:
132,176,162415,1,0,0:0:0:0:
140,176,162498,1,0,0:0:0:0:
148,176,162582,1,0,0:0:0:0:
156,176,162665,1,0,0:0:0:0:
164,176,162748,1,0,0:0:0:0:
172,184,162832,1,0,0:0:0:0:
180,192,162915,1,0,0:0:0:0:
188,204,162998,1,0,0:0:0:0:
196,216,163082,1,0,0:0:0:0:
204,228,163165,1,0,0:0:0:0:
212,236,163248,1,0,0:0:0:0:
216,244,163332,1,0,0:0:0:0:
224,132,163665,5,0,0:0:0:0:
296,136,163832,1,0,0:0:0:0:
120,288,164332,1,0,0:0:0:0:
416,240,164665,1,0,0:0:0:0:
80,124,164998,1,0,0:0:0:0:
152,80,165165,1,0,0:0:0:0:
316,288,165498,1,0,0:0:0:0:
216,312,165665,1,0,0:0:0:0:
288,104,165998,1,0,0:0:0:0:
444,136,166332,1,0,0:0:0:0:
124,136,166998,5,0,0:0:0:0:
440,296,167665,1,0,0:0:0:0:
124,304,168332,1,0,0:0:0:0:
448,72,168998,1,0,0:0:0:0:
344,72,169165,1,0,0:0:0:0:
92,132,169665,1,0,0:0:0:0:
360,260,170332,1,0,0:0:0:0:
184,272,170665,1,0,0:0:0:0:
396,136,170998,1,0,0:0:0:0:
124,64,171665,1,0,0:0:0:0:
408,264,172332,5,0,0:0:0:0:
252,108,172665,1,0,0:0:0:0:
136,260,172998,1,0,0:0:0:0:
256,260,173332,1,0,0:0:0:0:
408,264,173665,1,0,0:0:0:0:
136,260,173998,1,0,0:0:0:0:
364,112,174332,1,0,0:0:0:0:
364,112,174498,1,0,0:0:0:0:
392,200,174832,1,0,0:0:0:0:
392,200,174998,1,0,0:0:0:0:
392,200,175165,1,0,0:0:0:0:
48,64,175498,1,0,0:0:0:0:
48,72,175665,1,0,0:0:0:0:
48,80,175832,1,0,0:0:0:0:
184,72,176165,1,0,0:0:0:0:
184,76,176332,1,0,0:0:0:0:
328,188,176665,1,0,0:0:0:0:
384,108,176998,1,0,0:0:0:0:
80,220,177665,5,0,0:0:0:0:
288,120,177998,1,0,0:0:0:0:
472,240,178332,1,0,0:0:0:0:
476,120,178665,1,0,0:0:0:0:
264,196,178998,1,0,0:0:0:0:
264,196,179332,1,0,0:0:0:0:
224,312,179665,1,0,0:0:0:0:
136,312,179832,1,0,0:0:0:0:
296,220,180165,1,0,0:0:0:0:
392,164,180332,1,0,0:0:0:0:
220,124,180498,1,0,0:0:0:0:
132,224,180832,1,0,0:0:0:0:
256,80,180998,1,0,0:0:0:0:
360,224,181165,1,0,0:0:0:0:
248,296,181498,1,0,0:0:0:0:
160,136,181665,1,0,0:0:0:0:
428,184,181998,1,0,0:0:0:0:
80,288,182665,6,0,B|456:280|208:64|400:72,1,420
377,72,183998,2,0,B|133:296|81:184|365:204,1,420
456,196,185332,5,0,0:0:0:0:
412,252,185498,1,0,0:0:0:0:
116,280,185998,1,0,0:0:0:0:
84,140,186332,1,0,0:0:0:0:
176,200,186498,1,0,0:0:0:0:
368,108,186832,1,0,0:0:0:0:
408,192,186998,1,0,0:0:0:0:
284,300,187332,1,0,0:0:0:0:
52,344,187665,6,0,P|336:60|492:360,2,840
112,100,191998,5,0,0:0:0:0:
232,220,192165,1,0,0:0:0:0:
352,100,192332,1,0,0:0:0:0:
352,220,192498,1,0,0:0:0:0:
228,104,192665,1,0,0:0:0:0:
112,224,192998,1,0,0:0:0:0:
