osu file format v14

[General]
AudioFilename: The Chainsmokers - Closer ft. Halsey (T-Mass Remix).mp3
AudioLeadIn: 0
PreviewTime: -1
Countdown: 0
SampleSet: None
StackLeniency: 0.7
Mode: 0
LetterboxInBreaks: 1
WidescreenStoryboard: 0

[Editor]
DistanceSpacing: 2
BeatDivisor: 4
GridSize: 8
TimelineZoom: 1.4

[Metadata]
Title:Closer ft. Halsey (T-Mass Remix)
TitleUnicode:Closer ft. Halsey (T-Mass Remix)
Artist:The Chainsmokers
ArtistUnicode:The Chainsmokers
Creator:ohad1881
Version:extrad1881 (ar 10)
Source:
Tags:extra challenge challenges difficult 7 stars
BeatmapID:1181218
BeatmapSetID:558408

[Difficulty]
HPDrainRate:4
CircleSize:4
OverallDifficulty:9
ApproachRate:10
SliderMultiplier:1.9
SliderTickRate:1

[Events]
//Background and Video events
0,0,"closer.jpg",0,0
//Break Periods
//Storyboard Layer 0 (Background)
//Storyboard Layer 1 (Fail)
//Storyboard Layer 2 (Pass)
//Storyboard Layer 3 (Foreground)
//Storyboard Sound Samples

[TimingPoints]
136,315.789473684211,4,1,0,100,1,0
10241,-100,4,1,0,50,0,0
19004,-100,4,1,0,5,0,0
19083,-100,4,1,0,50,0,0
40557,-80,4,1,0,63,0,0
60767,-100,4,1,0,50,0,0
75925,-66.6666666666667,4,1,0,75,0,0
80978,-57.1428571428571,4,1,0,100,0,1
101188,-100,4,1,0,50,0,0
121399,-80,4,1,0,63,0,0
141609,-100,4,1,0,50,0,0
156767,-66.6666666666667,4,1,0,75,0,0
161820,-57.1428571428571,4,1,0,100,0,1
182030,-100,4,1,0,50,0,0
202241,-133.333333333333,4,1,0,40,0,0
212346,-100,4,1,0,50,0,0
217399,-80,4,1,0,63,0,0
222451,-57.1428571428571,4,1,0,100,0,1
242504,-57.1428571428571,4,1,0,100,0,0

[Colours]
Combo1 : 255,255,255
Combo2 : 255,255,255
Combo3 : 255,255,255

[HitObjects]
199,189,10241,6,0,P|236:221|212:148,1,190,8|0,0:0|0:0,0:0:0:0:
97,167,10714,1,0,0:0:0:0:
176,285,10872,2,0,P|225:302|270:300,1,95,8|0,0:0|0:0,0:0:0:0:
410,195,11188,2,0,B|390:251|390:251|409:382,1,190,0|8,0:0|0:0,0:0:0:0:
487,260,11662,1,0,0:0:0:0:
342,159,11820,2,0,P|288:152|240:161,1,95
176,285,12136,1,8,0:0:0:0:
173,143,12293,1,0,0:0:0:0:
252,331,12451,2,0,B|322:349|322:349|416:337,1,142.5
416,307,12767,6,0,P|395:245|416:116,1,190,8|0,0:0|0:0,0:0:0:0:
276,171,13241,1,0,0:0:0:0:
147,231,13399,2,0,P|87:242|31:222,1,95,8|0,0:0|0:0,0:0:0:0:
203,77,13714,2,0,P|259:96|394:78,1,190,0|8,0:0|0:0,0:0:0:0:
311,203,14188,1,0,0:0:0:0:
203,77,14346,2,0,L|198:183,1,95
34,151,14662,2,0,L|39:257,1,95,8|0,0:0|0:0,0:0:0:0:
105,30,14978,2,0,L|114:184,1,142.5
135,205,15293,6,0,P|182:196|240:211,1,95,8|0,0:0|0:0,0:0:0:0:
339,294,15609,2,0,B|323:243|323:243|344:95,1,190,0|8,0:0|0:0,0:0:0:0:
421,227,16083,1,0,0:0:0:0:
261,110,16241,2,0,B|241:245|241:245|257:296,1,190,0|8,0:0|0:0,0:0:0:0:
342,181,16714,1,0,0:0:0:0:
151,210,16872,6,0,P|104:217|44:207,1,95
143,96,17188,1,8,0:0:0:0:
151,210,17346,1,0,0:0:0:0:
225,13,17504,2,0,B|237:61|237:61|225:153,1,142.5
151,210,17820,6,0,P|195:246|316:184,1,190,8|0,0:0|0:0,0:0:0:0:
342,65,18293,1,0,0:0:0:0:
362,266,18451,2,0,P|370:326|388:367,1,95,8|0,0:0|0:0,0:0:0:0:
489,157,18767,2,0,P|490:211|452:293,1,142.5
425,317,19083,5,8,0:0:0:0:
383,180,19241,1,0,0:0:0:0:
236,334,19399,1,0,0:0:0:0:
362,266,19557,1,0,0:0:0:0:
134,227,19714,1,8,0:0:0:0:
271,268,19872,1,0,0:0:0:0:
136,78,20030,1,0,0:0:0:0:
203,203,20188,1,0,0:0:0:0:
256,1,20346,6,0,L|257:95,1,95,12|0,0:0|0:0,0:0:0:0:
419,68,20662,2,0,L|367:146,1,95
203,203,20978,1,8,0:0:0:0:
203,203,21293,1,0,0:0:0:0:
177,33,21451,1,0,0:0:0:0:
177,33,21925,6,0,P|123:43|75:30,1,95
238,111,22241,2,0,P|284:121|330:112,1,95,8|0,0:0|0:0,0:0:0:0:
477,23,22557,2,0,L|455:193,1,142.5
385,217,22872,2,0,P|364:163|460:178,1,190
370,311,23346,2,0,P|302:318|256:301,1,95,0|8,0:0|0:0,0:0:0:0:
151,193,23662,1,0,0:0:0:0:
190,359,23820,1,0,0:0:0:0:
208,113,23978,2,0,B|236:168|236:168|224:246|224:246|250:308,1,190
390,203,24451,2,0,P|338:221|289:220,1,95
393,77,24767,5,8,0:0:0:0:
477,225,24925,1,0,0:0:0:0:
393,77,25083,1,0,0:0:0:0:
388,293,25241,1,0,0:0:0:0:
473,31,25399,6,0,B|391:78|391:78|254:76,1,190
166,37,25872,2,0,P|159:84|177:127,1,95,0|8,0:0|0:0,0:0:0:0:
295,76,26188,1,0,0:0:0:0:
390,203,26346,2,0,P|381:278|278:342,1,190
305,169,26820,1,0,0:0:0:0:
185,291,26978,2,0,P|175:348|190:393,1,95
202,212,27293,5,8,0:0:0:0:
68,319,27451,1,0,0:0:0:0:
305,169,27609,1,0,0:0:0:0:
305,169,27925,6,0,B|298:84|323:24|323:24|344:84,1,190
388,228,28399,1,0,0:0:0:0:
221,187,28557,2,0,P|170:162|146:127,1,95,8|0,0:0|0:0,0:0:0:0:
216,288,28872,2,0,P|186:324|143:343,1,95
216,288,29504,6,0,P|271:323|407:326,1,190,0|8,0:0|0:0,0:0:0:0:
286,195,29978,1,0,0:0:0:0:
392,330,30136,1,0,0:0:0:0:
337,108,30293,1,0,0:0:0:0:
270,384,30451,6,0,P|198:383|156:362,1,95
53,276,30767,2,0,P|125:275|167:254,1,95
258,137,31083,1,8,0:0:0:0:
258,137,31399,1,0,0:0:0:0:
250,307,31557,1,0,0:0:0:0:
250,307,32030,2,0,B|266:231|266:231|254:161,1,142.5
258,137,32346,6,0,P|310:127|371:146,1,95,8|0,0:0|0:0,0:0:0:0:
210,35,32662,1,0,0:0:0:0:
180,203,32820,1,0,0:0:0:0:
321,13,32978,2,0,B|308:70|308:70|308:131|330:213,1,190
451,83,33451,1,0,0:0:0:0:
394,287,33609,6,0,P|320:310|222:236,1,190,8|0,0:0|0:0,0:0:0:0:
142,105,34083,2,0,B|128:164|128:164|160:332,1,190
304,144,34557,2,0,L|192:163,1,95
341,21,34872,1,8,0:0:0:0:
341,21,35030,2,0,L|343:117,1,95
480,12,35346,1,0,0:0:0:0:
327,227,35504,6,0,P|261:261|137:210,1,190
48,83,35978,1,0,0:0:0:0:
67,253,36136,2,0,L|86:358,1,95,8|0,0:0|0:0,0:0:0:0:
199,219,36451,2,0,L|215:125,1,95
302,274,36767,2,0,P|375:301|498:268,1,190
392,134,37241,1,0,0:0:0:0:
235,202,37399,2,0,P|172:214|118:195,1,95,8|0,0:0|0:0,0:0:0:0:
245,70,37714,2,0,P|208:123|157:147,1,95
472,105,38030,6,0,P|426:138|262:126,1,190
150,53,38504,1,0,0:0:0:0:
213,283,38662,1,8,0:0:0:0:
208,107,38978,1,0,0:0:0:0:
157,231,39136,1,0,0:0:0:0:
208,107,39609,6,0,L|202:210,1,95
302,61,39925,2,0,L|308:164,1,95,8|0,0:0|0:0,0:0:0:0:
193,26,40241,1,0,0:0:0:0:
400,97,40399,1,0,0:0:0:0:
189,206,40557,6,0,P|120:220|59:201,1,118.75,12|0,0:0|0:0,0:0:0:0:
309,244,40872,2,0,P|355:296|369:359,1,118.75
278,120,41188,2,0,P|300:53|347:9,1,118.75,8|0,0:0|0:0,0:0:0:0:
309,244,41504,1,0,0:0:0:0:
201,45,41662,1,0,0:0:0:0:
309,244,41820,6,0,L|427:283,1,118.75,8|0,0:0|0:0,0:0:0:0:
189,206,42136,2,0,L|96:288,1,118.75
278,120,42451,2,0,L|252:-1,1,118.75,8|0,0:0|0:0,0:0:0:0:
72,140,42767,2,0,L|47:256,1,118.75
174,67,43083,6,0,B|175:182|175:182|220:315,1,237.5,8|0,0:0|0:0,0:0:0:0:
278,120,43557,1,0,0:0:0:0:
396,267,43714,2,0,P|320:283|266:264,1,118.75,8|0,0:0|0:0,0:0:0:0:
397,120,44030,2,0,P|473:104|527:123,1,118.75
334,42,44346,5,8,0:0:0:0:
315,231,44504,1,0,0:0:0:0:
278,120,44662,2,0,P|202:104|148:123,1,118.75
89,290,44978,1,8,0:0:0:0:
163,114,45136,1,0,0:0:0:0:
160,348,45293,6,0,P|80:381|2:261,1,237.5,0|8,0:0|0:0,0:0:0:0:
60,96,45767,1,0,0:0:0:0:
181,242,45925,2,0,B|243:253|243:253|304:244,1,118.75
256,58,46241,1,8,0:0:0:0:
114,184,46399,1,0,0:0:0:0:
300,147,46557,2,0,B|355:138|355:138|417:149,1,118.75
447,178,46793,1,0,0:0:0:0:
469,212,46872,6,0,P|480:280|464:335,1,118.75,8|0,0:0|0:0,0:0:0:0:
300,147,47188,2,0,P|289:215|305:270,1,118.75
448,30,47504,2,0,P|378:63|208:20,1,237.5,8|0,0:0|0:0,0:0:0:0:
37,0,47978,1,0,0:0:0:0:
164,140,48136,2,0,P|176:202|161:259,1,118.75,8|0,0:0|0:0,0:0:0:0:
20,128,48451,1,0,0:0:0:0:
198,61,48609,2,0,L|316:47,1,118.75,0|8,0:0|0:0,0:0:0:0:
190,191,48925,1,0,0:0:0:0:
316,337,49083,2,0,L|198:323,1,118.75
337,192,49399,5,8,0:0:0:0:
316,337,49557,1,0,0:0:0:0:
270,117,49714,1,0,0:0:0:0:
418,286,49872,1,0,0:0:0:0:
192,269,50030,2,0,L|56:249,1,118.75,8|0,0:0|0:0,0:0:0:0:
337,192,50346,2,0,L|473:172,1,118.75
149,77,50662,6,0,B|153:146|126:194|126:194|152:236|153:339,1,237.5,8|0,0:0|0:0,0:0:0:0:
255,90,51136,1,0,0:0:0:0:
359,306,51293,2,0,B|359:236|386:194|386:194|359:146|363:77,1,237.5,8|0,0:0|0:0,0:0:0:0:
256,291,51767,1,0,0:0:0:0:
256,53,51925,2,0,L|256:296,1,237.5,8|0,0:0|0:0,0:0:0:0:
135,84,52399,1,0,0:0:0:0:
353,178,52557,2,0,P|424:190|482:175,1,118.75,8|0,0:0|0:0,0:0:0:0:
256,290,52872,2,0,P|185:302|127:287,1,118.75
38,149,53188,5,8,0:0:0:0:
31,302,53346,1,0,0:0:0:0:
184,85,53504,1,0,0:0:0:0:
120,224,53662,1,0,0:0:0:0:
259,0,53820,1,8,0:0:0:0:
256,154,53978,1,0,0:0:0:0:
371,51,54136,1,0,0:0:0:0:
435,190,54294,1,0,0:0:0:0:
256,154,54451,1,8,0:0:0:0:
450,99,54609,1,0,0:0:0:0:
256,154,54767,6,0,P|181:143|133:155,1,118.75
275,319,55083,2,0,P|350:330|398:318,1,118.75,8|0,0:0|0:0,0:0:0:0:
187,250,55399,1,0,0:0:0:0:
399,224,55557,1,0,0:0:0:0:
113,312,55714,6,0,B|94:233|85:140|85:140|112:72,1,237.5,8|0,0:0|0:0,0:0:0:0:
256,268,56188,1,0,0:0:0:0:
403,81,56346,2,0,B|427:140|427:140|418:233|399:312,1,237.5,8|0,0:0|0:0,0:0:0:0:
255,120,56820,1,0,0:0:0:0:
255,357,56978,2,0,B|245:312|255:268|255:268|203:213|170:121,1,237.5,8|0,0:0|0:0,0:0:0:0:
113,312,57451,1,0,0:0:0:0:
322,200,57609,6,0,P|396:183|448:190,1,118.75,8|0,0:0|0:0,0:0:0:0:
208,119,57925,2,0,P|134:102|82:109,1,118.75
328,71,58241,5,8,0:0:0:0:
232,207,58399,1,0,0:0:0:0:
261,7,58557,1,0,0:0:0:0:
312,164,58714,1,0,0:0:0:0:
127,13,58872,2,0,B|130:89|130:89|96:147|100:255,1,237.5,8|0,0:0|0:0,0:0:0:0:
208,119,59346,1,0,0:0:0:0:
156,351,59504,2,0,P|75:362|31:343,1,118.75,8|0,0:0|0:0,0:0:0:0:
269,277,59820,2,0,P|350:266|394:285,1,118.75
208,119,60136,5,8,0:0:0:0:
156,351,60293,1,0,0:0:0:0:
295,86,60451,1,0,0:0:0:0:
69,384,60608,1,0,0:0:0:0:
212,212,60767,6,0,P|260:191|355:288,1,190,2|0,0:0|0:0,0:0:0:0:
234,363,61241,1,0,0:0:0:0:
212,212,61399,1,0,0:0:0:0:
212,212,61714,6,0,B|135:226|61:206|61:206|92:249,1,190
151,326,62188,1,0,0:0:0:0:
151,326,62346,1,0,0:0:0:0:
212,212,62662,2,0,L|238:97,1,95
335,141,62978,2,0,L|361:26,1,95
168,82,63293,5,2,0:0:0:0:
168,82,63767,1,0,0:0:0:0:
335,141,63925,1,0,0:0:0:0:
335,141,64241,1,0,0:0:0:0:
335,141,64557,2,0,L|286:238,1,95
210,166,64872,2,0,L|167:81,1,95
335,141,65188,6,0,P|391:157|445:151,1,95
220,241,65504,2,0,P|164:257|110:251,1,95
28,101,65820,1,2,0:0:0:0:
28,101,66293,1,0,0:0:0:0:
210,166,66451,1,0,0:0:0:0:
130,98,66767,2,0,L|79:197,1,95
211,27,67083,1,0,0:0:0:0:
211,27,67714,6,0,P|219:89|242:118,1,95
390,122,68030,2,0,P|382:184|359:213,1,95
346,18,68346,2,0,P|409:11|503:115,1,190,2|0,0:0|0:0,0:0:0:0:
430,269,68820,1,0,0:0:0:0:
311,120,68978,2,0,L|298:230,1,95
196,54,69293,2,0,L|209:164,1,95
223,338,69609,2,0,P|164:350|110:330,1,95
263,203,69925,2,0,P|216:194|171:206,1,95
297,284,70241,5,0,0:0:0:0:
368,220,70399,1,0,0:0:0:0:
391,127,70557,1,0,0:0:0:0:
373,34,70714,1,0,0:0:0:0:
243,140,70872,6,0,P|197:151|141:139,1,95,10|0,0:0|0:0,0:0:0:0:
39,52,71188,1,0,0:0:0:0:
77,189,71346,1,0,0:0:0:0:
201,258,71504,2,0,P|246:268|293:261,1,95,8|0,0:0|0:0,0:0:0:0:
372,141,71820,1,0,0:0:0:0:
384,283,71978,1,0,0:0:0:0:
476,174,72136,2,0,L|493:66,1,95,8|0,0:0|0:0,0:0:0:0:
243,140,72451,2,0,L|257:233,1,95
305,71,72767,5,8,0:0:0:0:
163,88,72925,1,0,0:0:0:0:
339,166,73083,2,0,L|353:259,1,95
431,138,73399,1,8,0:0:0:0:
428,280,73557,1,0,0:0:0:0:
493,89,73714,1,0,0:0:0:0:
349,234,73872,1,0,0:0:0:0:
425,23,74030,6,0,L|410:116,1,95,8|0,0:0|0:0,0:0:0:0:
256,112,74346,2,0,L|270:205,1,95
306,24,74662,2,0,P|218:17|158:115,1,190,8|0,0:0|0:0,0:0:0:0:
228,243,75136,1,0,0:0:0:0:
358,346,75293,2,0,P|415:353|462:341,1,95,8|0,0:0|0:0,0:0:0:0:
315,209,75609,2,0,P|258:202|211:214,1,95
358,346,75925,5,12,0:0:0:0:
315,209,76083,1,0,0:0:0:0:
244,332,76241,1,0,0:0:0:0:
370,266,76399,1,0,0:0:0:0:
190,264,76557,1,8,0:0:0:0:
432,314,76714,1,0,0:0:0:0:
256,168,76872,1,0,0:0:0:0:
244,332,77030,1,0,0:0:0:0:
317,113,77188,5,8,0:0:0:0:
161,338,77346,1,0,0:0:0:0:
241,90,77504,1,0,0:0:0:0:
317,366,77662,1,0,0:0:0:0:
296,36,77820,5,8,0:0:0:0:
317,366,77978,1,0,0:0:0:0:
71,106,78136,1,0,0:0:0:0:
418,180,78293,1,0,0:0:0:0:
246,366,78451,5,8,0:0:0:0:
190,374,78529,1,0,0:0:0:0:
136,356,78608,1,0,0:0:0:0:
98,315,78687,1,0,0:0:0:0:
83,261,78766,1,0,0:0:0:0:
95,206,78845,1,0,0:0:0:0:
132,163,78924,1,0,0:0:0:0:
184,142,79003,1,0,0:0:0:0:
240,148,79082,1,8,0:0:0:0:
286,184,79162,1,0,0:0:0:0:
307,237,79241,1,0,0:0:0:0:
335,188,79319,1,0,0:0:0:0:
341,131,79398,1,0,0:0:0:0:
323,78,79477,1,0,0:0:0:0:
285,36,79556,1,0,0:0:0:0:
232,14,79635,1,0,0:0:0:0:
176,16,79714,5,8,0:0:0:0:
179,86,79792,1,0,0:0:0:0:
212,149,79871,1,0,0:0:0:0:
269,191,79950,1,0,0:0:0:0:
338,205,80029,1,0,0:0:0:0:
406,187,80108,1,0,0:0:0:0:
461,142,80187,1,0,0:0:0:0:
491,78,80266,1,0,0:0:0:0:
490,8,80346,6,0,P|440:95|487:275,1,285.000010871888,8|0,0:0|0:0,0:0:0:0:
341,131,80820,1,0,0:0:0:0:
254,325,80978,6,0,P|201:347|240:290,1,166.250001585484,12|0,0:0|0:0,0:0:0:0:
482,199,81293,2,0,B|381:233|236:195|236:195|345:163,1,332.500003170967,0|8,0:0|0:0,0:0:0:0:
491,78,81767,1,0,0:0:0:0:
136,104,81925,2,0,P|111:209|188:324,1,249.375002378225
227,335,82241,5,8,0:0:0:0:
19,168,82399,1,0,0:0:0:0:
284,154,82557,1,0,0:0:0:0:
155,228,82714,1,0,0:0:0:0:
189,82,82872,1,8,0:0:0:0:
262,303,83030,1,0,0:0:0:0:
233,8,83188,2,0,B|189:85|189:85|195:269,1,249.375002378225
262,303,83504,6,0,P|362:326|439:293,1,166.250001585484,8|0,0:0|0:0,0:0:0:0:
340,13,83820,2,0,B|327:127|339:223|339:223|377:173|423:47,1,332.500003170967,0|8,0:0|0:0,0:0:0:0:
167,71,84293,1,0,0:0:0:0:
262,303,84451,2,0,P|362:326|439:293,1,166.250001585484
209,206,84767,5,8,0:0:0:0:
170,350,84925,1,0,0:0:0:0:
317,169,85083,1,0,0:0:0:0:
103,262,85241,1,0,0:0:0:0:
401,285,85399,1,8,0:0:0:0:
137,142,85557,1,0,0:0:0:0:
488,238,85714,1,0,0:0:0:0:
77,352,85872,1,0,0:0:0:0:
317,169,86030,6,0,P|405:133|478:141,1,166.250001585484,8|0,0:0|0:0,0:0:0:0:
215,352,86346,2,0,B|191:277|191:277|214:160|222:9,1,332.500003170967,0|8,0:0|0:0,0:0:0:0:
286,267,86820,1,0,0:0:0:0:
133,48,86978,2,0,P|71:48|157:112,1,249.375002378225
168,123,87293,5,8,0:0:0:0:
140,287,87451,1,0,0:0:0:0:
257,85,87609,1,0,0:0:0:0:
55,201,87767,1,0,0:0:0:0:
330,40,87925,1,8,0:0:0:0:
241,343,88083,1,0,0:0:0:0:
133,48,88241,1,0,0:0:0:0:
241,343,88399,1,0,0:0:0:0:
168,152,88557,6,0,P|81:132|3:157,1,166.250001585484,8|0,0:0|0:0,0:0:0:0:
241,343,88872,2,0,B|284:270|282:164|282:164|306:88,1,249.375002378225
330,40,89188,2,0,L|384:245,1,166.250001585484,8|0,0:0|0:0,0:0:0:0:
241,343,89504,2,0,P|152:317|90:136,1,249.375002378225
108,157,89820,2,0,B|168:153|168:153|289:183,1,166.250001585484,8|0,0:0|0:0,0:0:0:0:
479,307,90136,2,0,P|386:348|238:342,1,249.375002378225
218,311,90451,2,0,B|167:315|133:294|133:294|102:310|43:300,1,166.250001585484,8|0,0:0|0:0,0:0:0:0:
261,138,90767,2,0,P|345:131|270:205,1,249.375002378225
200,196,91083,6,0,P|100:180|30:202,1,166.250001585484,12|0,0:0|0:0,0:0:0:0:
309,364,91399,2,0,P|368:301|344:59,1,332.500003170967,0|8,0:0|0:0,0:0:0:0:
200,196,91872,1,0,0:0:0:0:
453,53,92030,2,0,B|400:47|354:71|354:71|284:34|284:34|174:39,1,249.375002378225
170,45,92346,5,8,0:0:0:0:
324,149,92504,1,0,0:0:0:0:
78,105,92662,1,0,0:0:0:0:
312,20,92820,1,0,0:0:0:0:
109,283,92978,1,8,0:0:0:0:
423,175,93136,1,0,0:0:0:0:
109,67,93293,1,0,0:0:0:0:
423,175,93451,1,0,0:0:0:0:
193,169,93609,6,0,L|27:149,1,166.250001585484,8|0,0:0|0:0,0:0:0:0:
312,20,93925,2,0,B|288:114|288:114|328:371,1,332.500003170967,0|8,0:0|0:0,0:0:0:0:
423,175,94399,1,0,0:0:0:0:
193,169,94557,2,0,L|223:349,1,166.250001585484
193,169,94872,5,8,0:0:0:0:
122,319,95030,1,0,0:0:0:0:
165,90,95188,1,0,0:0:0:0:
294,283,95346,1,0,0:0:0:0:
82,67,95504,1,8,0:0:0:0:
355,186,95662,1,0,0:0:0:0:
0,105,95820,1,0,0:0:0:0:
395,52,95978,1,0,0:0:0:0:
193,169,96136,6,0,P|169:258|201:351,1,166.250001585484,8|0,0:0|0:0,0:0:0:0:
310,104,96451,2,0,P|192:158|-5:95,1,332.500003170967,0|8,0:0|0:0,0:0:0:0:
159,4,96925,1,0,0:0:0:0:
325,240,97083,2,0,P|423:237|326:181,1,249.375002378225
306,158,97399,5,8,0:0:0:0:
478,57,97557,1,0,0:0:0:0:
215,93,97714,1,0,0:0:0:0:
462,189,97872,1,0,0:0:0:0:
159,4,98030,1,8,0:0:0:0:
383,293,98188,1,0,0:0:0:0:
325,0,98346,1,0,0:0:0:0:
179,338,98504,1,0,0:0:0:0:
306,158,98662,6,0,P|398:139|482:167,1,166.250001585484,8|0,0:0|0:0,0:0:0:0:
282,262,98978,2,0,B|205:231|205:231|106:49,1,249.375002378225
149,39,99293,2,0,P|236:64|314:42,1,166.250001585484,8|0,0:0|0:0,0:0:0:0:
509,4,99609,2,0,B|476:82|476:82|485:281,1,249.375002378225
493,289,99925,2,0,B|408:274|408:274|314:292,1,166.250001585484,8|0,0:0|0:0,0:0:0:0:
105,352,100241,2,0,P|25:322|137:296,1,249.375002378225
158,285,100557,2,0,P|172:188|157:114,1,166.250001585484,8|0,0:0|0:0,0:0:0:0:
278,268,100872,2,0,B|338:281|369:334|369:334|449:324|504:280,1,249.375002378225
498,252,101188,6,0,P|455:226|395:217,1,95,8|0,0:0|0:0,0:0:0:0:
451,99,101504,2,0,P|402:111|353:147,1,95
313,21,101820,2,0,P|286:64|278:123,1,95
161,64,102136,2,0,P|173:112|209:161,1,95
280,241,102451,2,0,P|267:289|231:338,2,95
283,253,103083,6,0,L|300:348,1,95
422,254,103399,2,0,L|438:160,1,95
286,161,103714,2,0,P|205:200|218:316,1,190,8|0,0:0|0:0,0:0:0:0:
350,315,104188,1,0,0:0:0:0:
354,100,104346,2,0,P|269:70|196:161,1,190
164,279,104820,2,0,L|140:374,1,95
68,236,105136,2,0,L|37:42,1,190
232,120,105609,6,0,P|179:131|123:114,1,95
324,117,105925,2,0,P|271:128|215:111,1,95
415,40,106241,2,0,B|401:90|401:90|425:229,1,190,8|0,0:0|0:0,0:0:0:0:
276,191,106714,2,0,P|209:207|293:225,1,190
424,226,107188,2,0,P|490:242|406:260,1,190
289,235,107662,1,0,0:0:0:0:
144,281,107820,2,0,P|85:289|42:276,1,95
146,160,108136,5,0,0:0:0:0:
144,281,108293,1,0,0:0:0:0:
233,76,108451,1,0,0:0:0:0:
146,160,108608,1,0,0:0:0:0:
346,97,108767,2,0,B|459:92|485:101|485:101|439:127,1,190,8|0,0:0|0:0,0:0:0:0:
262,194,109241,1,0,0:0:0:0:
442,253,109399,6,0,L|431:364,1,95
346,233,109714,2,0,L|335:344,1,95
249,213,110030,2,0,L|238:324,1,95
153,193,110345,2,0,L|142:304,1,95
258,118,110662,2,0,L|247:229,1,95
363,43,110978,2,0,L|352:154,1,95
376,278,111293,5,8,0:0:0:0:
376,278,111451,1,0,0:0:0:0:
376,278,111609,1,0,0:0:0:0:
376,278,111767,1,0,0:0:0:0:
376,278,111925,1,0,0:0:0:0:
376,278,112083,1,0,0:0:0:0:
376,278,112241,1,0,0:0:0:0:
376,278,112399,1,0,0:0:0:0:
376,278,112556,1,0,0:0:0:0:
376,278,112714,1,0,0:0:0:0:
376,278,112872,1,0,0:0:0:0:
382,289,113188,6,0,P|326:312|265:305,1,95
129,212,113504,2,0,P|185:235|246:228,1,95
81,101,113820,2,0,P|22:157|40:291,1,190,8|0,0:0|0:0,0:0:0:0:
207,290,114293,2,0,B|151:311|151:311|2:311,1,190
174,196,114767,1,0,0:0:0:0:
296,341,114925,2,0,P|348:351|396:339,1,95
174,196,115241,2,0,P|124:167|202:159,1,190
145,332,115714,2,0,P|93:342|45:330,1,95
251,241,116030,2,0,P|303:231|351:243,1,95
204,105,116346,6,0,P|263:84|394:109,1,190,8|0,0:0|0:0,0:0:0:0:
251,241,116820,2,0,B|206:191|204:105|204:105|249:152,1,190
320,305,117293,1,0,0:0:0:0:
139,246,117451,2,0,P|116:188|111:129,1,95
268,46,117767,2,0,B|220:63|220:63|74:64,1,190
255,143,118241,2,0,L|353:98,1,95
278,245,118557,2,0,P|199:257|122:239,1,142.5
106,209,118872,6,0,L|92:305,1,95,8|0,0:0|0:0,0:0:0:0:
204,148,119188,1,0,0:0:0:0:
205,338,119346,1,0,0:0:0:0:
204,148,119504,2,0,L|190:244,1,95
299,84,119820,1,0,0:0:0:0:
300,274,119978,1,0,0:0:0:0:
299,84,120136,2,0,L|285:180,1,95
378,12,120451,1,0,0:0:0:0:
379,202,120609,1,0,0:0:0:0:
193,26,120767,6,0,P|111:23|80:34,1,95,8|0,0:0|0:0,0:0:0:0:
183,120,121083,2,0,L|193:26,1,95
60,224,121399,6,0,P|94:275|154:293,1,118.75,12|0,0:0|0:0,0:0:0:0:
103,59,121714,2,0,P|41:62|-3:105,1,118.75
223,183,122030,2,0,P|250:128|235:67,1,118.75,8|0,0:0|0:0,0:0:0:0:
60,224,122346,1,0,0:0:0:0:
103,59,122504,1,0,0:0:0:0:
170,286,122662,6,0,P|234:297|289:279,1,118.75,8|0,0:0|0:0,0:0:0:0:
499,176,122978,2,0,L|472:331,1,118.75
342,80,123293,2,0,L|383:328,1,237.5,8|0,0:0|0:0,0:0:0:0:
499,176,123767,1,0,0:0:0:0:
262,196,123925,2,0,B|146:179|146:179|266:130,1,237.5,8|0,0:0|0:0,0:0:0:0:
499,176,124399,1,0,0:0:0:0:
309,319,124557,2,0,P|241:325|180:300,1,118.75,8|0,0:0|0:0,0:0:0:0:
72,194,124872,1,0,0:0:0:0:
119,353,125030,1,0,0:0:0:0:
154,117,125188,6,0,L|172:248,1,118.75,8|0,0:0|0:0,0:0:0:0:
341,67,125504,2,0,L|323:198,1,118.75
141,30,125820,1,8,0:0:0:0:
256,97,125978,1,0,0:0:0:0:
28,165,126136,2,0,P|13:97|28:42,1,118.75
119,140,126451,5,8,0:0:0:0:
54,253,126609,1,0,0:0:0:0:
242,180,126767,2,0,P|253:237|238:294,1,118.75
307,90,127083,1,8,0:0:0:0:
151,235,127241,1,0,0:0:0:0:
307,90,127399,6,0,L|428:70,1,118.75
291,267,127714,2,0,L|247:381,1,118.75,8|0,0:0|0:0,0:0:0:0:
161,155,128030,2,0,L|83:60,1,118.75
292,183,128346,2,0,P|351:174|375:22,1,237.5,8|0,0:0|0:0,0:0:0:0:
198,50,128820,1,0,0:0:0:0:
257,280,128978,6,0,P|331:279|374:248,1,118.75,8|0,0:0|0:0,0:0:0:0:
182,158,129293,2,0,P|233:186|291:182,1,118.75
125,65,129609,1,8,0:0:0:0:
146,265,129767,1,0,0:0:0:0:
257,96,129925,2,0,L|352:9,1,118.75
182,158,130241,5,8,0:0:0:0:
344,15,130399,1,0,0:0:0:0:
265,262,130557,2,0,L|229:383,1,118.75
443,279,130872,2,0,B|388:247|265:262|265:262|337:291,1,237.5,8|0,0:0|0:0,0:0:0:0:
497,377,131346,1,0,0:0:0:0:
370,102,131504,6,0,B|352:169|352:169|363:268|363:268|335:366,1,237.5,8|0,0:0|0:0,0:0:0:0:
254,112,131978,1,0,0:0:0:0:
167,333,132136,2,0,B|149:268|149:268|160:169|160:169|142:102,1,237.5,8|0,0:0|0:0,0:0:0:0:
254,311,132609,1,0,0:0:0:0:
370,103,132767,2,0,B|312:85|255:112|255:112|212:68|128:73,1,237.5,8|0,0:0|0:0,0:0:0:0:
320,235,133241,1,0,0:0:0:0:
158,212,133399,2,0,L|140:355,1,118.75,8|0,0:0|0:0,0:0:0:0:
305,117,133714,2,0,L|323:260,1,118.75
142,74,134030,5,8,0:0:0:0:
247,18,134188,1,0,0:0:0:0:
228,135,134346,1,0,0:0:0:0:
154,50,134504,1,0,0:0:0:0:
267,84,134662,1,8,0:0:0:0:
171,153,134820,1,0,0:0:0:0:
178,44,134978,1,0,0:0:0:0:
234,149,135136,1,0,0:0:0:0:
117,130,135294,1,8,0:0:0:0:
269,57,135451,1,0,0:0:0:0:
111,235,135609,6,0,P|100:294|121:370,1,118.75
342,286,135925,2,0,P|283:275|207:296,1,118.75,8|0,0:0|0:0,0:0:0:0:
457,348,136241,2,0,P|468:290|457:232,1,118.75
322,34,136557,2,0,B|242:13|242:13|170:39|80:44,1,237.5,8|0,0:0|0:0,0:0:0:0:
273,194,137030,1,0,0:0:0:0:
90,340,137188,2,0,B|170:344|242:371|242:371|322:350,1,237.5,8|0,0:0|0:0,0:0:0:0:
142,192,137662,1,0,0:0:0:0:
379,193,137820,2,0,P|393:274|365:329,1,118.75,8|0,0:0|0:0,0:0:0:0:
142,192,138136,2,0,P|127:134|144:78,1,118.75
273,194,138451,5,8,0:0:0:0:
143,78,138609,1,0,0:0:0:0:
220,302,138767,2,0,P|280:315|343:296,1,118.75
379,193,139083,5,8,0:0:0:0:
433,298,139241,1,0,0:0:0:0:
493,155,139399,1,0,0:0:0:0:
379,193,139557,1,0,0:0:0:0:
329,47,139714,1,8,0:0:0:0:
418,124,139872,1,0,0:0:0:0:
266,148,140030,1,0,0:0:0:0:
329,47,140188,1,0,0:0:0:0:
305,227,140346,6,0,P|284:282|235:322,1,118.75,8|0,0:0|0:0,0:0:0:0:
139,131,140662,2,0,P|160:186|209:226,1,118.75
120,30,140978,2,0,P|39:108|79:213,1,237.5,8|0,0:0|0:0,0:0:0:0:
305,227,141451,1,0,0:0:0:0:
22,274,141609,6,0,P|68:297|163:215,1,190,2|0,0:0|0:0,0:0:0:0:
206,64,142083,2,0,L|137:132,1,95
312,97,142557,2,0,L|243:165,1,95
368,177,142872,2,0,B|421:158|506:175|506:175|453:206,1,190
352,276,143346,1,0,0:0:0:0:
312,97,143504,6,0,L|286:190,1,95
180,29,143820,2,0,L|206:122,1,95
14,123,144136,2,0,P|57:179|189:180,1,190,2|0,0:0|0:0,0:0:0:0:
312,97,144609,1,0,0:0:0:0:
312,97,144767,1,0,0:0:0:0:
312,97,145083,6,0,L|310:200,1,95
193,40,145399,2,0,P|249:63|377:44,1,190
509,2,145872,1,0,0:0:0:0:
452,132,146030,2,0,P|432:195|436:238,1,95
289,219,146346,2,0,P|309:282|305:325,1,95
124,255,146662,6,0,P|127:166|205:70,1,190,2|0,0:0|0:0,0:0:0:0:
360,155,147136,1,0,0:0:0:0:
233,14,147293,2,0,P|163:5|123:23,1,95
268,153,147609,2,0,P|338:162|378:144,1,95
144,93,147925,6,0,B|131:168|146:231|146:231|128:294,1,190
317,232,148399,1,0,0:0:0:0:
176,360,148557,2,0,P|112:365|74:356,1,95
269,327,148872,2,0,P|333:332|371:323,1,95
460,161,149188,6,0,B|443:211|443:211|449:351,1,190,2|0,0:0|0:0,0:0:0:0:
317,232,149662,1,0,0:0:0:0:
415,69,149820,2,0,P|467:58|511:70,1,95
320,110,150136,2,0,P|268:121|224:109,1,95
46,54,150451,2,0,B|63:104|63:104|57:244,1,190
130,64,150925,1,0,0:0:0:0:
223,228,151083,2,0,P|276:237|330:227,1,95
495,163,151399,2,0,P|442:154|388:164,1,95
296,157,151714,5,10,0:0:0:0:
198,119,151872,1,0,0:0:0:0:
109,63,152030,2,0,P|61:57|15:66,1,95
66,158,152346,1,8,0:0:0:0:
117,249,152504,1,0,0:0:0:0:
161,154,152662,2,0,P|201:115|219:64,1,95
319,101,152978,1,8,0:0:0:0:
269,193,153136,1,0,0:0:0:0:
372,189,153293,2,0,P|392:231|427:263,1,95
247,328,153609,6,0,L|135:344,1,95,8|0,0:0|0:0,0:0:0:0:
17,206,153925,2,0,L|129:222,1,95
177,39,154241,1,8,0:0:0:0:
4,119,154399,1,0,0:0:0:0:
192,140,154557,2,0,L|304:156,1,95
446,50,154872,5,8,0:0:0:0:
416,172,155030,1,0,0:0:0:0:
306,16,155188,1,0,0:0:0:0:
385,99,155346,1,0,0:0:0:0:
177,39,155504,2,0,B|192:140|192:140|265:221,1,190,8|0,0:0|0:0,0:0:0:0:
306,16,155978,1,0,0:0:0:0:
96,115,156136,2,0,L|72:243,1,95,8|0,0:0|0:0,0:0:0:0:
262,257,156451,2,0,L|286:385,1,95
340,159,156767,5,12,0:0:0:0:
262,257,156925,1,0,0:0:0:0:
176,76,157083,1,0,0:0:0:0:
254,174,157241,1,0,0:0:0:0:
378,17,157399,1,8,0:0:0:0:
254,174,157557,1,0,0:0:0:0:
447,128,157714,1,0,0:0:0:0:
270,34,157872,1,0,0:0:0:0:
373,269,158030,5,8,0:0:0:0:
344,100,158188,1,0,0:0:0:0:
225,343,158346,1,0,0:0:0:0:
254,174,158504,1,0,0:0:0:0:
450,380,158662,5,8,0:0:0:0:
192,256,158820,1,0,0:0:0:0:
468,185,158978,1,0,0:0:0:0:
192,256,159136,1,0,0:0:0:0:
368,34,159293,5,8,0:0:0:0:
378,89,159371,1,0,0:0:0:0:
375,146,159450,1,0,0:0:0:0:
359,201,159529,1,0,0:0:0:0:
332,251,159608,1,0,0:0:0:0:
294,293,159687,1,0,0:0:0:0:
247,325,159766,1,0,0:0:0:0:
194,346,159845,1,0,0:0:0:0:
136,346,159925,5,8,0:0:0:0:
142,290,160003,1,0,0:0:0:0:
179,247,160082,1,0,0:0:0:0:
233,231,160161,1,0,0:0:0:0:
289,242,160241,1,0,0:0:0:0:
341,264,160320,1,0,0:0:0:0:
397,268,160399,1,0,0:0:0:0:
451,250,160478,1,0,0:0:0:0:
492,211,160557,5,8,0:0:0:0:
443,160,160635,1,0,0:0:0:0:
374,149,160714,1,0,0:0:0:0:
313,182,160793,1,0,0:0:0:0:
284,246,160872,1,0,0:0:0:0:
300,314,160951,1,0,0:0:0:0:
354,358,161030,1,0,0:0:0:0:
423,361,161109,1,0,0:0:0:0:
481,321,161188,6,0,B|400:227|311:182|311:182|224:175,1,285.000010871888,8|0,0:0|0:0,0:0:0:0:
107,300,161662,1,0,0:0:0:0:
288,82,161820,6,0,P|375:65|460:86,1,166.250001585484,12|0,0:0|0:0,0:0:0:0:
187,205,162136,2,0,P|131:100|298:112,1,332.500003170967,0|8,0:0|0:0,0:0:0:0:
254,328,162609,1,0,0:0:0:0:
379,41,162767,2,0,B|388:136|329:171|329:171|345:219|333:323,1,249.375002378225
358,312,163083,5,8,0:0:0:0:
288,82,163241,1,0,0:0:0:0:
456,329,163399,1,0,0:0:0:0:
187,205,163557,1,0,0:0:0:0:
511,267,163714,1,8,0:0:0:0:
188,350,163872,1,0,0:0:0:0:
355,62,164030,1,0,0:0:0:0:
273,381,164188,1,0,0:0:0:0:
407,155,164346,6,0,P|460:85|448:8,1,166.250001585484,8|0,0:0|0:0,0:0:0:0:
187,205,164662,2,0,B|299:217|407:154|407:154|266:139,1,332.500003170967,0|8,0:0|0:0,0:0:0:0:
55,113,165136,1,0,0:0:0:0:
227,290,165293,2,0,P|281:210|175:110,1,249.375002378225
143,103,165609,5,8,0:0:0:0:
322,68,165767,1,0,0:0:0:0:
126,195,165925,1,0,0:0:0:0:
253,0,166083,1,0,0:0:0:0:
163,285,166241,1,8,0:0:0:0:
409,114,166399,1,0,0:0:0:0:
39,191,166557,1,0,0:0:0:0:
471,192,166714,1,0,0:0:0:0:
163,285,166872,6,0,P|64:307|-3:285,1,166.250001585484,8|0,0:0|0:0,0:0:0:0:
275,92,167188,2,0,P|283:177|180:81,1,332.500003170967,0|8,0:0|0:0,0:0:0:0:
359,28,167662,1,0,0:0:0:0:
330,292,167820,2,0,P|227:319|94:275,1,249.375002378225
65,237,168136,5,8,0:0:0:0:
245,202,168293,1,0,0:0:0:0:
65,237,168451,1,0,0:0:0:0:
304,107,168609,1,0,0:0:0:0:
65,237,168767,1,8,0:0:0:0:
390,166,168925,1,0,0:0:0:0:
65,237,169083,1,0,0:0:0:0:
449,71,169241,1,0,0:0:0:0:
230,250,169399,6,0,L|57:236,1,166.250001585484,8|0,0:0|0:0,0:0:0:0:
304,107,169714,2,0,B|299:182|299:182|325:285|325:285|312:369,1,249.375002378225
270,361,170030,2,0,B|235:307|229:248|229:248|181:195,1,166.250001585484,8|0,0:0|0:0,0:0:0:0:
22,94,170346,2,0,P|38:182|106:84,1,249.375002378225
123,65,170662,2,0,P|149:21|235:77,1,166.250001585484,8|0,0:0|0:0,0:0:0:0:
230,250,170978,2,0,B|141:262|28:240|28:240|104:214,1,249.375002378225
101,193,171293,2,0,B|112:273|112:273|90:377,1,166.250001585484,8|0,0:0|0:0,0:0:0:0:
193,153,171609,2,0,B|192:202|230:249|230:249|302:274|403:270,1,249.375002378225
443,236,171925,6,0,B|373:185|373:185|294:174,1,166.250001585484,12|0,0:0|0:0,0:0:0:0:
104,338,172241,2,0,B|151:269|151:269|154:20,1,332.500003170967,0|8,0:0|0:0,0:0:0:0:
27,234,172714,1,0,0:0:0:0:
327,91,172872,2,0,P|273:179|220:83,1,249.375002378225
239,51,173188,5,8,0:0:0:0:
249,250,173346,1,0,0:0:0:0:
378,17,173504,1,0,0:0:0:0:
159,168,173662,1,0,0:0:0:0:
488,119,173820,1,8,0:0:0:0:
161,56,173978,1,0,0:0:0:0:
488,119,174136,1,0,0:0:0:0:
249,149,174293,1,0,0:0:0:0:
378,17,174451,6,0,L|359:191,1,166.250001585484,8|0,0:0|0:0,0:0:0:0:
161,56,174767,2,0,B|179:137|162:219|162:219|197:284|202:387,1,332.500003170967,0|8,0:0|0:0,0:0:0:0:
47,182,175241,1,0,0:0:0:0:
283,260,175399,2,0,P|375:279|458:264,1,166.250001585484
249,149,175714,5,8,0:0:0:0:
211,378,175872,1,0,0:0:0:0:
146,119,176030,1,0,0:0:0:0:
307,330,176188,1,0,0:0:0:0:
51,173,176346,1,8,0:0:0:0:
346,219,176504,1,0,0:0:0:0:
22,297,176662,1,0,0:0:0:0:
351,106,176820,1,0,0:0:0:0:
177,262,176978,6,0,B|134:295|98:298|98:298|61:279|10:301,1,166.250001585484,8|0,0:0|0:0,0:0:0:0:
227,78,177293,2,0,P|240:205|429:325,1,332.500003170967,0|8,0:0|0:0,0:0:0:0:
144,342,177767,1,0,0:0:0:0:
330,176,177925,2,0,P|417:158|497:179,1,166.250001585484
363,284,178241,5,8,0:0:0:0:
242,169,178399,1,0,0:0:0:0:
315,372,178557,1,0,0:0:0:0:
385,168,178714,1,0,0:0:0:0:
164,284,178872,1,8,0:0:0:0:
413,288,179030,1,0,0:0:0:0:
146,88,179188,1,0,0:0:0:0:
315,372,179346,1,0,0:0:0:0:
242,169,179504,6,0,B|241:252|241:252|203:342,1,166.250001585484,8|0,0:0|0:0,0:0:0:0:
69,150,179820,2,0,B|96:109|145:88|145:88|224:90|298:71,1,249.375002378225
339,50,180136,2,0,B|340:133|340:133|378:223,1,166.250001585484,8|0,0:0|0:0,0:0:0:0:
452,18,180451,2,0,B|392:8|338:49|338:49|263:26|186:74,1,249.375002378225
188,89,180767,2,0,P|84:108|2:82,1,166.250001585484,8|0,0:0|0:0,0:0:0:0:
261,282,181083,2,0,P|146:309|3:285,1,249.375002378225
21,256,181399,2,0,P|123:275|200:259,1,166.250001585484,8|0,0:0|0:0,0:0:0:0:
390,149,181714,2,0,B|390:225|360:296|360:296|351:241|311:174,1,249.375002378225
304,168,182030,6,0,L|188:166,1,95,8|0,0:0|0:0,0:0:0:0:
127,84,182346,2,0,L|243:82,1,95
421,23,182662,1,8,0:0:0:0:
421,23,182978,6,0,L|412:138,1,95
271,124,183293,2,0,P|278:189|316:232,1,95
150,211,183609,2,0,P|143:276|105:319,1,95
127,84,183925,1,8,0:0:0:0:
127,84,184241,6,0,B|184:93|184:93|233:80,1,95
354,32,184557,2,0,P|339:107|349:137,1,95
468,191,184872,2,0,P|483:116|473:86,1,95
365,281,185188,1,8,0:0:0:0:
365,281,185504,6,0,P|310:291|263:277,1,95
139,228,185820,2,0,P|92:218|46:228,1,95
200,320,186136,2,0,L|221:223,1,95
294,61,186451,1,8,0:0:0:0:
294,61,186767,6,0,L|314:153,1,95
94,116,187083,2,0,P|133:83|229:165,1,190
103,218,187557,1,0,0:0:0:0:
238,259,187714,2,0,P|308:269|350:257,1,95,8|0,0:0|0:0,0:0:0:0:
440,171,188030,2,0,P|370:181|328:169,1,95
225,99,188346,1,0,0:0:0:0:
225,99,188662,6,0,B|227:151|227:151|202:218,1,95
0,216,188978,2,0,P|58:259|174:265,1,190,8|0,0:0|0:0,0:0:0:0:
107,138,189451,1,0,0:0:0:0:
265,227,189609,2,0,P|270:284|256:325,1,95
194,147,189925,2,0,P|181:101|187:54,1,95
369,98,190241,1,8,0:0:0:0:
369,98,190557,6,0,P|375:144|362:190,1,95
292,34,190872,2,0,P|365:73|467:36,1,190
292,34,191346,1,0,0:0:0:0:
409,183,191504,2,0,P|471:200|512:188,1,95,8|0,0:0|0:0,0:0:0:0:
319,257,191820,2,0,P|257:274|216:262,1,95
109,206,192136,5,0,0:0:0:0:
233,160,192293,1,0,0:0:0:0:
109,206,192451,2,0,P|62:211|18:195,1,95
120,56,192767,1,8,0:0:0:0:
120,56,193083,6,0,P|166:50|210:66,1,95
266,188,193399,1,0,0:0:0:0:
309,62,193557,1,0,0:0:0:0:
361,183,193714,2,0,L|378:287,1,95
413,104,194030,1,8,0:0:0:0:
413,104,194346,6,0,P|354:94|310:108,1,95
198,157,194662,2,0,P|151:166|105:155,1,95
19,53,194978,1,0,0:0:0:0:
32,185,195136,1,0,0:0:0:0:
163,22,195293,2,0,P|209:12|255:23,1,95,8|0,0:0|0:0,0:0:0:0:
327,135,195609,2,0,P|336:181|325:227,1,95
142,219,195925,2,0,P|108:180|201:179,1,190
217,288,196399,1,0,0:0:0:0:
327,135,196557,6,0,P|337:89|328:42,1,95,8|0,0:0|0:0,0:0:0:0:
141,127,196872,2,0,P|131:173|142:219,1,95
226,114,197188,1,0,0:0:0:0:
251,244,197346,1,0,0:0:0:0:
314,38,197504,1,0,0:0:0:0:
289,168,197662,1,0,0:0:0:0:
459,5,197820,1,8,0:0:0:0:
459,5,198136,6,0,L|448:104,1,95
380,214,198451,2,0,L|391:313,1,95
469,200,198767,1,0,0:0:0:0:
351,137,198925,1,0,0:0:0:0:
293,256,199083,2,0,L|304:355,1,95,8|0,0:0|0:0,0:0:0:0:
187,283,199399,2,0,L|197:188,1,95
15,180,199714,6,0,P|30:237|110:180,1,190
66,59,200188,1,0,0:0:0:0:
197,188,200346,2,0,P|252:198|303:187,1,95,8|0,0:0|0:0,0:0:0:0:
419,157,200662,2,0,L|413:259,1,95
321,302,200978,6,0,B|263:315|263:315|194:300|194:300|124:311,2,190,0|0|8,0:0|0:0|0:0,0:0:0:0:
241,195,201767,1,0,0:0:0:0:
368,232,201925,2,0,B|418:243|418:243|464:234,1,95
312,103,202241,5,2,0:0:0:0:
312,103,202872,1,0,0:0:0:0:
312,103,203504,1,0,0:0:0:0:
312,103,203820,2,0,L|295:198,1,71.2500027179719
210,218,204136,2,0,L|227:313,1,71.2500027179719
374,250,204451,2,0,P|328:243|298:252,1,71.2500027179719
437,319,204767,5,2,0:0:0:0:
437,319,205083,1,0,0:0:0:0:
437,319,205399,1,0,0:0:0:0:
437,319,205714,1,0,0:0:0:0:
437,319,206030,2,0,P|444:268|432:239,1,71.2500027179719
267,291,206346,2,0,P|259:325|268:359,1,71.2500027179719
340,289,206662,5,0,0:0:0:0:
292,201,206820,1,0,0:0:0:0:
202,156,206978,1,0,0:0:0:0:
109,160,207136,1,0,0:0:0:0:
30,208,207293,5,2,0:0:0:0:
30,208,207925,1,0,0:0:0:0:
30,208,208557,1,0,0:0:0:0:
30,208,208872,2,0,P|66:216|103:205,1,71.2500027179719
134,121,209188,2,0,P|97:112|61:124,1,71.2500027179719
236,205,209504,2,0,P|272:213|309:202,1,71.2500027179719
257,54,209820,5,2,0:0:0:0:
257,54,210136,1,0,0:0:0:0:
257,54,210451,1,0,0:0:0:0:
257,54,210767,1,0,0:0:0:0:
257,54,211083,2,0,L|248:130,1,71.2500027179719
382,72,211399,2,0,L|373:1,1,71.2500027179719
439,28,211714,5,0,0:0:0:0:
421,82,211871,1,0,0:0:0:0:
404,136,212029,1,0,0:0:0:0:
386,190,212187,1,0,0:0:0:0:
343,248,212346,6,0,P|299:258|236:244,1,95,10|0,0:0|0:0,0:0:0:0:
178,186,212662,1,0,0:0:0:0:
122,263,212820,2,0,L|100:300,3,23.75
106,232,212978,6,0,L|86:131,1,95,8|0,0:0|0:0,0:0:0:0:
151,68,213293,2,0,L|165:43,4,23.75
209,143,213609,1,8,0:0:0:0:
266,67,213767,2,0,L|280:42,4,23.75
302,155,214083,1,0,0:0:0:0:
390,189,214241,2,0,P|436:202|490:188,1,95,8|0,0:0|0:0,0:0:0:0:
352,275,214557,2,0,P|306:288|252:274,1,95
173,241,214872,6,0,L|166:279,4,23.75,8|0|0|0|0,0:0|0:0|0:0|0:0|0:0,0:0:0:0:
107,170,215188,2,0,L|87:278,1,95
205,140,215504,2,0,L|187:46,1,95,8|0,0:0|0:0,0:0:0:0:
275,84,215820,2,0,P|286:89|302:89,4,23.75
187,46,216136,1,8,0:0:0:0:
205,140,216293,2,0,P|209:151|220:162,4,23.75
187,46,216609,1,0,0:0:0:0:
117,110,216767,2,0,P|112:121|112:137,4,23.75,8|0|0|0|0,0:0|0:0|0:0|0:0|0:0,0:0:0:0:
205,140,217083,2,0,P|210:151|209:167,4,23.75
130,217,217399,6,0,L|114:350,1,118.75,8|0,0:0|0:0,0:0:0:0:
237,221,217714,1,0,0:0:0:0:
314,367,217872,2,0,L|360:378,4,29.6875,0|0|0|0|8,0:0|0:0|0:0|0:0|0:0,0:0:0:0:
220,322,218188,1,0,0:0:0:0:
365,240,218346,2,0,L|405:215,4,29.6875
298,287,218662,1,8,0:0:0:0:
287,127,218820,2,0,L|298:80,4,29.6875
237,221,219136,1,0,0:0:0:0:
186,63,219293,2,0,L|161:22,4,29.6875,8|0|0|0|0,0:0|0:0|0:0|0:0|0:0,0:0:0:0:
131,221,219609,2,0,P|84:237|11:219,1,118.75
162,139,219925,5,8,0:0:0:0:
178,304,220083,1,0,0:0:0:0:
293,98,220241,1,0,0:0:0:0:
187,226,220399,1,0,0:0:0:0:
418,173,220557,1,8,0:0:0:0:
252,188,220715,1,0,0:0:0:0:
455,307,220872,1,0,0:0:0:0:
327,201,221030,1,0,0:0:0:0:
497,379,221188,6,0,B|490:335|454:306|454:306|388:312|327:272,1,178.125,8|0,0:0|0:0,0:0:0:0:
314,312,221504,6,0,B|192:299|192:299|308:242,2,237.5
399,197,222293,1,0,0:0:0:0:
67,222,222451,6,0,P|53:310|83:397,1,166.250001585484,12|0,0:0|0:0,0:0:0:0:
241,152,222767,2,0,P|156:107|223:228,1,332.500003170967,0|8,0:0|0:0,0:0:0:0:
419,134,223241,1,0,0:0:0:0:
220,335,223399,2,0,P|119:331|55:289,1,166.250001585484
313,164,223714,5,8,0:0:0:0:
300,363,223872,1,0,0:0:0:0:
214,128,224030,1,0,0:0:0:0:
416,273,224188,1,0,0:0:0:0:
255,20,224346,1,8,0:0:0:0:
391,365,224504,1,0,0:0:0:0:
459,0,224662,1,0,0:0:0:0:
216,280,224820,1,0,0:0:0:0:
377,85,224978,6,0,L|353:254,1,166.250001585484,8|0,0:0|0:0,0:0:0:0:
83,104,225293,2,0,P|174:215|371:245,1,332.500003170967,0|8,0:0|0:0,0:0:0:0:
255,20,225767,1,0,0:0:0:0:
43,207,225925,2,0,P|101:271|198:317,1,166.250001585484
322,157,226241,5,8,0:0:0:0:
190,227,226399,1,0,0:0:0:0:
398,180,226557,1,0,0:0:0:0:
114,204,226715,1,0,0:0:0:0:
455,234,226872,1,8,0:0:0:0:
57,150,227030,1,0,0:0:0:0:
482,308,227188,1,0,0:0:0:0:
30,76,227346,1,0,0:0:0:0:
291,232,227504,6,0,P|393:246|469:228,1,166.250001585484,8|0,0:0|0:0,0:0:0:0:
291,232,227820,2,0,P|329:337|453:227,1,332.500003170967,0|8,0:0|0:0,0:0:0:0:
271,64,228293,1,0,0:0:0:0:
162,288,228451,2,0,P|75:305|-6:286,1,166.250001585484
213,156,228767,5,8,0:0:0:0:
327,377,228925,1,0,0:0:0:0:
372,80,229083,1,0,0:0:0:0:
244,350,229241,1,0,0:0:0:0:
178,57,229399,1,8,0:0:0:0:
485,253,229557,1,0,0:0:0:0:
121,253,229714,1,0,0:0:0:0:
510,66,229872,1,0,0:0:0:0:
282,254,230030,6,0,P|185:270|109:247,1,166.250001585484,8|0,0:0|0:0,0:0:0:0:
178,57,230346,2,0,B|223:42|251:66|251:66|307:45|358:77|358:77|384:58|451:78,1,249.375002378225
442,100,230662,2,0,B|444:163|424:209|424:209|438:269,1,166.250001585484,8|0,0:0|0:0,0:0:0:0:
294,180,230978,2,0,B|303:280|422:328|422:328|442:283,1,249.375002378225
436,262,231293,2,0,B|424:209|424:209|444:163|442:100,1,166.250001585484,8|0,0:0|0:0,0:0:0:0:
159,169,231609,2,0,P|189:249|290:165,1,249.375002378225
288,134,231925,2,0,L|316:306,1,166.250001585484,8|0,0:0|0:0,0:0:0:0:
49,228,232241,2,0,P|38:135|153:42,1,249.375002378225
176,62,232557,6,0,P|271:79|363:54,1,166.250001585484,12|0,0:0|0:0,0:0:0:0:
508,5,232872,2,0,B|501:53|482:86|482:86|493:167|477:256|477:256|497:283|506:357,1,332.500003170967,0|8,0:0|0:0,0:0:0:0:
317,156,233346,1,0,0:0:0:0:
501,327,233504,2,0,B|422:348|422:348|314:346,1,166.250001585484
171,267,233820,5,8,0:0:0:0:
317,156,233978,1,0,0:0:0:0:
212,364,234136,1,0,0:0:0:0:
215,82,234293,1,0,0:0:0:0:
171,267,234451,1,8,0:0:0:0:
320,27,234609,1,0,0:0:0:0:
26,183,234767,1,0,0:0:0:0:
358,187,234925,1,0,0:0:0:0:
171,267,235083,6,0,P|80:286|1:259,1,166.250001585484,8|0,0:0|0:0,0:0:0:0:
215,82,235399,2,0,B|170:267|170:267|158:115,1,332.500003170967,0|8,0:0|0:0,0:0:0:0:
320,27,235872,1,0,0:0:0:0:
264,331,236030,2,0,P|183:381|90:343,1,166.250001585484
273,169,236346,5,8,0:0:0:0:
409,377,236504,1,0,0:0:0:0:
366,198,236662,1,0,0:0:0:0:
409,377,236820,1,0,0:0:0:0:
452,90,236978,1,8,0:0:0:0:
337,292,237136,1,0,0:0:0:0:
438,12,237293,1,0,0:0:0:0:
180,164,237451,1,0,0:0:0:0:
438,12,237609,6,0,B|452:91|452:91|418:252,1,166.250001585484,8|0,0:0|0:0,0:0:0:0:
180,164,237925,2,0,P|147:80|250:164,1,332.500003170967,0|8,0:0|0:0,0:0:0:0:
195,352,238399,1,0,0:0:0:0:
41,176,238557,2,0,P|28:80|57:4,1,166.250001585484
128,235,238872,5,8,0:0:0:0:
211,17,239030,1,0,0:0:0:0:
284,307,239188,1,0,0:0:0:0:
82,85,239346,1,0,0:0:0:0:
457,219,239504,1,8,0:0:0:0:
59,249,239662,1,0,0:0:0:0:
481,49,239820,1,0,0:0:0:0:
144,371,239978,1,0,0:0:0:0:
325,112,240136,6,0,L|307:283,1,166.250001585484,8|0,0:0|0:0,0:0:0:0:
211,17,240451,2,0,B|273:48|327:113|327:113|381:109|381:109|473:130,1,249.375002378225
462,137,240767,2,0,B|446:186|456:218|456:218|421:242|406:313,1,166.250001585484,8|0,0:0|0:0,0:0:0:0:
246,360,241083,2,0,B|208:275|228:226|228:226|210:174|210:174|231:60,1,249.375002378225
260,89,241399,2,0,P|158:108|86:84,1,166.250001585484,8|0,0:0|0:0,0:0:0:0:
401,15,241714,2,0,B|399:77|370:118|370:118|385:163|385:163|378:210|378:210|393:256,1,249.375002378225
406,280,242030,2,0,B|347:280|294:265|294:265|222:283,1,166.250001585484,8|0,0:0|0:0,0:0:0:0:
96,91,242346,2,0,B|154:91|208:76|208:76|260:89,1,166.250001585484
