osu file format v5

[General]
AudioFilename: 07 Breaking Up Is Hard To Do.mp3
AudioLeadIn: 0
PreviewTime: 113130
Countdown: 0
SampleSet: Soft
StackLeniency: 0.7
Mode: 0
LetterboxInBreaks: 1
EditorBookmarks: 15160,31263,63403,82632,99396,117440

[Metadata]
Title:Breaking Up Is Hard To Do
Artist:The Cartoons
Creator:RemmyX25
Version:Normal
Source:
Tags:

[Difficulty]
HPDrainRate:4
CircleSize:4
OverallDifficulty:5
SliderMultiplier:1.4
SliderTickRate:1

[Events]
//Background and Video events
//Break Periods
//Storyboard Layer 0 (Background)
//Storyboard Layer 1 (Failing)
//Storyboard Layer 2 (Passing)
//Storyboard Layer 3 (Foreground)
//Storyboard Sound Samples
//Background Colour Transformations
3,100,64,0,128

[TimingPoints]
15507,500.062507813477,4,2,0,100,1

[HitObjects]
96,128,15506,1,0
176,64,16007,1,0
256,128,16507,1,0
320,48,17007,2,2,B|384:64|448:112|432:176|389:260|352:272,1,280
224,288,18757,1,0
224,240,19007,1,0
224,192,19257,1,0
224,96,19757,1,0
272,96,20007,5,0
368,96,20507,1,0
368,192,21007,1,2
368,288,21507,5,2
336,256,21757,1,2
304,288,22007,1,2
272,256,22257,1,2
240,288,22507,1,2
208,256,22757,1,2
176,288,23007,5,0
144,256,23257,1,0
80,176,23758,1,0
80,128,24008,5,2
176,128,24508,1,2
272,128,25008,1,6
176,80,25508,5,0
224,80,25758,1,0
264,80,26008,2,0,B|325:42|392:112,1,140
400,160,26758,1,0
368,192,27008,1,2
272,200,27508,1,2
224,200,27758,1,2
48,80,29008,5,0
80,112,29258,1,0
112,80,29508,1,0
144,112,29758,1,0
176,80,30008,1,0
272,80,30508,1,4
304,112,30758,1,4
424,216,31509,5,2
328,216,32009,1,2
232,240,32509,1,2
136,248,33009,2,0,B|72:232|88:152|81:19|203:60|280:112,1,350
368,64,34759,1,0
368,112,35009,1,0
368,160,35259,1,0
368,256,35759,1,0
288,264,36009,5,2
240,264,36259,1,2
256,216,36509,1,2
208,216,36759,1,2
112,112,37509,5,0
144,80,37759,1,0
176,112,38009,1,0
208,80,38259,1,0
240,120,38509,2,0,B|312:152|376:96,1,140
416,96,39259,1,0
416,192,39760,1,0
416,288,40260,5,0
368,288,40510,1,0
320,288,40760,1,0
272,288,41010,2,0,B|128:288,1,140,2|2
96,248,41760,1,0
96,200,42010,2,0,B|328:200,1,210,2|2
352,200,43010,2,0,B|352:120,1,70
352,64,43510,2,0,B|48:64,1,280
256,192,45010,12,0,47010
144,272,48261,5,2
176,240,48511,1,2
208,208,48761,1,2
232,160,49011,6,0,B|384:160,1,140
416,144,49761,1,0
416,192,50011,1,0
416,240,50261,1,0
320,240,50761,1,0
416,304,52011,5,2
384,272,52261,1,2
352,240,52511,1,2
320,208,52761,1,2
280,176,53011,6,0,B|200:224|128:152,1,140
96,144,53761,1,0
96,192,54011,1,0
96,240,54261,1,0
192,240,54761,1,0
112,304,56012,5,2
112,256,56262,1,2
112,208,56512,1,2
112,160,56762,1,2
112,112,57012,6,0,B|176:192|224:104,1,140
264,128,57762,1,0
264,176,58012,1,0
264,224,58262,1,0
264,320,58762,1,0
64,224,60012,5,0
96,192,60262,1,0
128,224,60512,1,0
160,256,60762,1,0
184,296,61012,2,0,B|239:330|329:339|328:344,1,140
400,312,62012,2,4,B|464:184|336:56,1,280,0|4
64,64,63763,5,0
96,96,64013,1,0
128,128,64263,1,0
96,160,64513,1,0
80,208,64763,1,0
88,256,65013,6,0,B|144:368|318:58|412:294|376:208,2,280
136,176,67513,1,0
184,176,67763,1,0
280,184,68263,5,2
248,216,68513,5,2
208,192,68763,5,2
56,88,69513,5,0
104,96,69763,1,0
120,136,70013,1,0
128,272,70763,1,0
168,288,71013,1,0
184,248,71263,1,0
192,200,71514,1,0
200,152,71764,2,0,B|320:242|361:110|232:64,1,210,0|0
128,96,73514,5,2
224,96,74014,2,0,B|368:96,1,140,2|0
400,128,74764,1,0
416,176,75014,1,0
400,224,75264,1,0
368,256,75514,1,0
320,256,75764,1,0
64,288,76764,5,2
96,256,77014,1,2
128,224,77264,1,2
160,192,77514,1,2
168,240,77764,1,0
208,208,78014,1,0
240,176,78264,1,2
272,144,78514,1,2
304,112,78764,1,2
256,192,79014,12,0,81515
80,96,83515,5,2
176,96,84015,1,2
272,96,84515,1,2
368,96,85015,2,0,B|240:144|192:288|448:296,1,350
448,216,86765,1,0
400,216,87015,1,0
400,168,87265,1,0
400,88,87766,1,0
352,88,88016,5,2
304,88,88266,1,2
328,128,88516,1,2
280,128,88766,1,2
128,64,89516,5,2
128,112,89766,1,0
128,160,90016,1,2
128,208,90266,1,0
128,256,90516,1,2
128,304,90766,1,0
160,336,91016,2,0,B|281:303|264:256,1,140
336,256,91766,1,2
336,160,92266,5,2
288,160,92516,1,2
240,160,92766,1,2
192,160,93016,1,2
112,240,93516,5,0
144,272,93766,1,0
176,240,94016,1,0
224,240,94266,1,0
304,288,94766,1,2
352,288,95016,1,2
352,192,95517,1,2
352,144,95767,1,2
256,192,96517,12,0,98767
80,144,99767,5,0
112,112,100017,1,0
144,144,100267,1,0
176,112,100517,1,0
208,144,100767,1,0
184,192,101017,6,0,C|104:256|184:352|232:320,2,280
192,296,103518,1,0
240,296,103768,1,0
296,216,104268,5,2
264,176,104518,5,2
232,216,104768,5,2
64,96,105518,5,0
112,96,105768,1,0
160,96,106018,1,0
96,224,106768,1,0
144,224,107018,1,0
192,224,107268,1,0
240,224,107518,1,0
288,224,107768,2,2,C|432:224,2,140
112,128,109518,5,0
216,136,110018,2,0,B|336:168|256:224,1,140
176,288,110768,1,0
224,288,111018,1,0
272,288,111268,1,0
320,288,111519,1,0
368,288,111769,1,0
80,288,112769,5,2
112,240,113019,1,2
144,288,113269,1,2
176,240,113519,1,2
208,288,113769,1,2
240,256,114019,5,0
272,224,114269,1,2
304,192,114519,1,2
336,160,114769,1,2
368,128,115019,5,0
320,128,115269,1,0
272,128,115519,1,0
224,128,115769,1,0
176,128,116019,1,4
128,128,116269,1,4
72,128,116519,2,4,B|0:192|80:256,1,140
160,272,117519,5,2
256,272,118019,1,2
352,272,118519,1,2
264,232,119019,2,0,B|104:246|16:150|72:83|308:144|272:160,1,350
224,48,120770,1,0
272,48,121020,1,0
320,48,121270,1,0
416,48,121770,1,0
416,96,122020,5,0
368,96,122270,1,0
368,144,122520,1,0
320,144,122770,1,0
192,80,123520,5,0
192,128,123770,1,0
192,176,124020,1,0
192,224,124270,1,0
144,224,124520,1,0
144,272,124770,1,0
144,320,125020,2,0,B|248:320,1,70
288,256,125770,1,0
352,184,126270,5,2
304,184,126520,1,2
256,184,126770,1,2
208,184,127020,1,2
112,240,127521,5,2
144,272,127771,1,0
176,240,128021,1,0
224,240,128271,1,2
304,288,128771,1,0
352,288,129021,1,0
352,192,129521,1,2
352,144,129771,1,2
256,192,130521,12,0,132521
48,64,133021,2,2,B|192:64,1,140
240,64,133771,1,0
288,64,134021,1,2
336,64,134271,1,2
432,64,134771,2,2,B|472:128|440:200,1,140
440,248,135522,5,2
392,248,135772,1,2
344,248,136022,5,2
328,200,136272,1,2
312,248,136522,1,2
296,200,136772,1,2
256,216,137022,6,2,B|112:216,1,140
104,168,137772,1,0
80,128,138022,1,0
72,80,138272,1,0
160,64,138772,2,0,B|320:64,1,140
352,72,139522,5,2
400,72,139772,1,2
360,104,140022,5,2
328,144,140272,1,2
360,176,140522,1,2
320,200,140772,1,2
288,232,141022,6,2,B|171:264|144:216,1,140
168,176,141772,1,0
120,176,142022,1,0
72,176,142272,1,0
64,272,142772,2,0,B|112:328|208:312,1,140
240,328,143523,5,2
288,328,143773,1,2
336,304,144023,5,0
312,264,144273,1,0
280,224,144523,1,0
232,200,144773,1,0
184,176,145023,2,0,C|88:104|152:64,1,140
200,64,146023,2,0,C|280:48|304:120|344:80,1,210
376,144,147023,6,0,B|296:192|304:272,1,140,2|0
256,256,147773,1,2
208,256,148023,1,2
208,208,148273,1,2
168,120,148773,2,0,B|228:5|280:56,1,140
248,88,149523,5,2
296,88,149773,1,2
304,136,150023,5,2
264,168,150273,1,2
224,136,150523,1,2
184,168,150773,1,2
152,208,151023,6,0,C|104:288|64:232,1,140
64,208,151774,1,0
88,168,152024,1,2
112,128,152274,1,2
208,104,152774,2,2,C|208:248,1,140
232,288,153524,5,2
280,288,153774,1,2
288,336,154024,5,2
320,304,154274,1,2
344,264,154524,1,2
352,216,154774,1,2
312,240,155024,6,2,B|216:216|232:136,1,140
280,152,155774,1,0
312,112,156024,1,0
344,152,156274,1,0
384,240,156774,2,2,B|464:192|376:104,1,140
344,64,157524,5,2
392,64,157774,1,2
392,128,158024,5,0
352,160,158274,1,0
312,192,158524,1,0
272,216,158774,1,0
240,248,159024,2,0,B|188:179|216:104,1,140
264,56,160025,2,0,B|360:88|424:152|368:272,1,280
