osu file format v5

[General]
AudioFilename: The Calling - Wherever You Will Go.mp3
AudioLeadIn: 0
PreviewTime: -1
Countdown: 1
SampleSet: Soft
StackLeniency: 0.7
Mode: 0

[Metadata]
Title:Wherever You Will Go
Artist:The Calling
Creator:Lissette
Version:Normal
Source:
Tags:

[Difficulty]
HPDrainRate:5
CircleSize:5
OverallDifficulty:5
SliderMultiplier:1.4
SliderTickRate:1

[Events]
//Background and Video events
0,0,"landscape.jpg"
//Break Periods
2,60824,77097
2,129372,145644
//Storyboard Layer 0 (Background)
//Storyboard Layer 1 (Failing)
//Storyboard Layer 2 (Passing)
//Storyboard Layer 3 (Foreground)
//Storyboard Sound Samples
//Background Colour Transformations
3,100,178,178,178

[TimingPoints]
622,535.527458128603,4,2,0,100

[Colours]
Combo1 : 255,206,132
Combo2 : 132,253,132
Combo3 : 142,142,253
Combo4 : 253,142,142

[HitObjects]
96,64,2764,5,0
128,96,3031,1,0
160,64,3299,1,0
192,96,3567,1,0
224,64,3835,1,0
256,96,4102,1,0
288,64,4370,1,0
320,96,4638,1,0
352,128,4906,5,0
320,160,5173,1,0
352,192,5441,1,0
320,224,5709,1,0
352,256,5977,1,0
320,288,6245,1,0
352,320,6512,1,0
320,352,6780,1,0
288,352,7048,5,0
256,320,7316,1,0
224,288,7583,1,0
256,256,7851,5,0
288,224,8119,1,0
320,192,8387,1,0
288,160,8654,5,0
256,128,8922,1,0
224,96,9190,1,0
124,146,9725,5,0
165,183,9993,1,0
276,190,10529,1,0
443,188,11332,1,0
448,288,11868,2,2,B|288:288|160:224|384:32,1,420
260,61,14010,5,0
207,80,14277,1,0
156,179,14813,1,0
265,153,15349,2,4,B|288:126|340:136,1,70
423,192,16152,2,2,B|469:242|428:281|392:284|366:260,3,140
276,207,18294,5,0
246,159,18562,1,0
156,92,19097,1,0
101,189,19633,1,2
85,244,19900,1,2
195,265,20436,2,0,B|249:329|322:262,2,140
195,206,21775,1,2
197,150,22043,1,2
308,137,22578,5,0
350,173,22846,1,0
434,246,23381,1,2
472,288,23649,2,2,B|324:289,5,140
268,196,26862,5,0
154,198,27398,1,0
42,195,27933,1,2
12,147,28201,1,2
68,145,28469,1,2
162,84,29004,5,0
261,84,29540,1,0
259,196,30076,1,2
314,194,30343,1,2
288,243,30611,1,2
381,310,31147,5,0
269,311,31682,1,0
157,305,32218,1,2
155,249,32485,1,2
108,280,32753,1,2
67,175,33289,6,2,B|28:124|52:74|72:44,3,140
183,49,35431,1,0
263,126,35966,1,0
183,46,36502,1,2
221,86,36770,1,2
262,125,37037,1,2
262,237,37573,5,0
373,239,38108,1,0
316,335,38644,1,2
316,278,38912,1,2
316,222,39179,1,2
318,109,39715,1,0
205,110,40251,2,0,B|142:112|167:182|75:145,6,140
306,63,43999,5,0
361,65,44267,2,0,B|424:85|432:121|363:168,1,140
315,160,45070,1,2
255,255,45606,1,0
172,179,46141,5,0
115,181,46409,2,0,B|29:235|93:279|127:293,1,140
168,284,47212,1,2
254,212,47748,1,0
334,134,48283,6,2,B|268:94|196:136|196:134,7,140
157,237,52568,5,0
186,284,52835,2,0,B|257:332|330:276|330:280,1,140
342,233,53639,1,2
259,158,54174,1,0
187,72,54710,2,0,B|341:72,3,140
319,183,56852,6,0,B|260:232|313:265|207:268,7,140
28,64,78273,5,0
84,64,78541,1,0
142,65,78809,1,0
198,161,79344,2,2,B|276:111|332:167,1,140
318,273,80415,5,0
261,273,80683,1,0
204,273,80951,1,0
92,270,81486,2,2,B|33:200|103:136,1,140
205,147,82557,6,0,B|271:166|237:220|321:225,1,140
394,303,83628,2,2,B|482:300|488:194,6,140
282,316,87377,5,2
215,225,87912,1,2
139,308,88448,1,2
72,217,88984,1,2
144,131,89519,1,2
56,60,90055,1,2
143,129,90590,1,2
231,197,91126,1,2
317,125,91661,1,0
358,162,91929,1,0
397,203,92197,2,0,B|433:236|372:276|472:318,5,140
314,318,95410,5,0
257,318,95678,1,0
145,313,96213,2,2,B|100:281|106:225|103:248,3,70
108,143,97552,5,0
164,144,97820,1,0
275,144,98355,2,2,B|293:96|344:102,3,70
430,141,99694,5,0
433,253,100230,2,2,B|355:320|282:300|228:231|254:127|156:116|69:203,2,420
435,141,103978,5,0
325,115,104514,2,0,B|226:66|181:132,1,140
83,133,105585,1,0
84,244,106120,5,0
192,270,106656,2,0,B|256:304|329:266,1,140
435,244,107727,1,0
433,134,108263,5,0
353,55,108798,2,2,B|319:208|148:108|92:104|64:304,2,420
448,112,112547,6,0,B|408:88|363:124,1,70
213,113,113618,1,0
101,113,114153,1,0
102,225,114689,2,0,B|72:261|111:301|105:292,1,70
270,293,115760,1,0
381,292,116295,1,0
460,215,116831,2,0,B|480:167|444:130,1,70
289,153,117902,5,0
176,154,118438,1,0
120,154,118705,1,0
64,155,118973,2,0,B|47:194|72:237,2,70
119,154,119776,1,0
175,153,120044,1,0
178,208,120312,1,0
177,265,120580,1,0
65,268,121115,2,0,B|36:324|86:346,1,70
234,329,122186,5,0
346,326,122722,1,0
344,269,122990,1,0
343,214,123257,2,0,B|364:178|336:141,2,70
286,211,124061,1,0
230,211,124328,1,0
228,154,124596,1,0
229,97,124864,1,0
340,97,125399,2,0,B|380:76|419:106,1,70
408,270,126470,1,0
295,274,127006,5,0
242,293,127274,1,0
185,296,127542,1,0
134,271,127809,1,0
99,226,128077,1,0
87,171,128345,1,0
97,115,128613,1,0
129,69,128880,1,0
179,44,129148,1,0
106,77,146820,5,0
142,119,147088,2,0,B|210:140|156:181|218:198|252:184,1,140
305,175,147892,1,2
360,168,148159,1,2
399,207,148427,2,2,B|387:279|452:245|476:271|476:313,1,140
425,330,149230,2,0,B|372:296|330:321|336:235,1,140
307,193,150034,1,2
256,168,150301,1,2
203,187,150569,1,2
204,299,151105,6,4,B|274:316|341:299|414:246|411:164,2,280
102,251,153782,1,0
175,165,154318,1,0
271,158,154853,1,0
383,158,155389,5,0
475,198,155924,2,0,B|472:52,1,140
416,64,156728,1,2
359,64,156996,1,2
366,175,157531,2,0,B|367:318,1,140
254,318,158602,1,0
197,319,158870,1,2
140,319,159138,1,2
59,241,159673,5,0
57,128,160209,2,2,B|131:52|293:38|416:86|459:133,2,420
149,190,163957,5,0
239,254,164493,1,0
287,282,164761,1,0
336,309,165028,2,0,B|434:262|444:180|440:119|386:65,2,280
320,198,167706,2,2,B|370:134|306:73,3,140
194,77,169848,5,0
104,144,170384,1,0
156,242,170919,1,0
262,275,171455,2,2,B|348:307|364:220|342:203,2,140
206,282,172794,5,0
150,289,173061,1,0
110,248,173329,1,0
127,194,173597,1,0
238,184,174132,2,4,B|316:175|280:74|333:40|429:66|465:94,2,280
349,178,176810,1,0
404,179,177078,1,0
236,180,177613,5,2
180,177,177881,2,2,B|137:156|96:192,1,70
112,235,178417,1,2
114,290,178684,2,2,B|155:320|194:276,1,70
234,297,179220,1,2
289,297,179488,2,2,B|340:267|368:312,2,70
232,298,180291,1,2
175,298,180559,1,2
256,192,180826,12,0,185914
236,180,186182,5,2
180,177,186450,2,2,B|137:156|96:192,1,70
112,235,186985,1,2
114,290,187253,2,2,B|155:320|194:276,1,70
234,297,187788,1,2
289,297,188056,2,2,B|340:267|368:312,2,70
232,298,188859,1,2
175,298,189127,1,2
256,192,189395,12,0,192876
152,96,193411,5,2
208,94,193679,2,2,B|238:66|277:99,1,70
327,95,194215,1,2
298,143,194482,2,2,B|264:172|221:133,1,70
177,144,195018,1,2
105,230,195553,5,4
257,300,196357,1,4
411,234,197160,1,4
