osu file format v5

[General]
AudioFilename: The Calling - Wherever You Will Go.mp3
AudioLeadIn: 0
PreviewTime: -1
Countdown: 1
SampleSet: Soft
StackLeniency: 0.7
Mode: 0

[Metadata]
Title:Wherever You Will Go
Artist:The Calling
Creator:Lissette
Version:Hard
Source:
Tags:

[Difficulty]
HPDrainRate:7
CircleSize:6
OverallDifficulty:6
SliderMultiplier:1.7
SliderTickRate:2

[Events]
//Background and Video events
0,0,"landscape.jpg"
//Break Periods
2,60824,76711
2,129371,145526
2,164717,179531
//Storyboard Layer 0 (Background)
//Storyboard Layer 1 (Failing)
//Storyboard Layer 2 (Passing)
//Storyboard Layer 3 (Foreground)
//Storyboard Sound Samples
//Background Colour Transformations
3,100,163,162,255

[TimingPoints]
622,535.523027490182,4,2,0,100

[Colours]
Combo1 : 255,205,130
Combo2 : 142,253,142
Combo3 : 153,153,253
Combo4 : 253,151,151

[HitObjects]
128,64,2764,1,0
128,64,3031,1,0
83,115,3299,2,0,B|40:138|81:188|84:188,1,85
110,249,3835,2,0,B|154:270|143:323,3,85
210,331,4906,1,0
210,331,5173,1,0
277,319,5441,2,0,B|322:328|344:276,1,85
342,278,5977,1,0
342,278,6244,1,0
342,278,6512,1,0
402,246,6780,2,0,B|451:228|434:169,1,85
433,108,7316,2,0,B|428:54|361:65,2,85
433,108,8119,1,0
379,65,8387,1,0
311,68,8654,2,0,B|258:98|216:40,1,85
311,68,9190,1,0
246,89,9458,5,0
247,88,9725,1,0
210,145,9993,2,0,B|188:176|204:223|145:212,1,85
167,213,10529,1,0
124,266,10796,2,2,B|176:265|170:274,1,28.3333333333333
197,266,11064,2,2,B|243:266,1,28.3333333333333
270,266,11332,2,2,B|316:265,1,28.3333333333333
411,260,11867,6,0,B|440:215|411:181,1,85
379,241,12403,2,0,B|350:207|380:156,1,85
419,214,12939,2,2,B|433:181|394:181,6,28.3333333333333
413,281,13742,2,2,B|376:305|337:253,3,85
388,209,14813,1,0
326,178,15081,2,2,B|272:140|243:232|285:285|341:221,3,170
337,231,16955,1,2
337,230,17223,1,2
337,231,17490,1,2
337,231,17758,1,2
213,289,18294,5,0
281,289,18562,1,0
213,289,18829,1,0
349,289,19365,1,0
318,349,19633,1,0
318,349,19900,1,0
386,347,20436,2,2,B|432:328|427:276,1,85
427,279,20971,1,2
427,279,21239,1,2
427,279,21507,1,2
427,279,21775,1,2
427,279,22042,1,2
423,211,22310,6,2,B|388:211|396:176,1,28.3333333333333
357,221,22578,2,2,B|328:210|320:241,1,28.3333333333333
288,204,22846,2,2,B|244:210|264:174,1,28.3333333333333
215,201,23113,2,2,B|183:185|183:230,1,28.3333333333333
188,247,23381,2,4,B|300:323|443:244,2,255
251,272,25256,1,0
317,282,25523,1,0
249,274,25791,1,0
316,281,26059,1,0
383,270,26327,2,4,B|446:272|463:221|435:199|404:180|370:221,1,170
385,83,27398,5,0
327,46,27665,1,0
349,110,27933,1,0
290,74,28201,1,0
267,9,28469,2,0,B|207:10|228:74,2,85
225,63,29272,1,0
292,73,29540,1,0
350,107,29808,1,0
290,74,30075,2,2,B|365:126|460:68,2,170
288,142,31414,5,0
288,142,31682,1,0
289,210,31950,1,0
289,210,32217,1,0
239,256,32485,1,0
239,256,32753,1,0
241,324,33021,1,0
241,324,33288,1,0
299,289,33556,2,2,B|435:341|424:221|320:187|222:240|216:338|112:285|60:218|219:168|328:190|457:218|371:134,1,595
308,117,35698,5,0
254,75,35966,1,0
186,70,36234,1,0
128,106,36502,1,0
78,152,36769,2,2,B|80:204,1,28.3333333333333
124,178,37037,2,2,B|128:220,1,28.3333333333333
171,199,37305,2,2,B|180:237,1,28.3333333333333
197,267,37573,1,2
232,324,37840,1,2
296,305,38108,1,2
325,243,38376,2,2,B|312:160|242:134|152:173|150:188|139:238|119:296|169:311,1,340
167,310,39715,1,0
94,195,40250,6,0,B|138:215|178:190,1,85
175,193,40786,1,0
245,194,41053,1,0
310,195,41321,1,0
310,195,41589,2,0,B|368:221|410:170,1,85
390,188,42125,1,0
395,120,42392,2,0,B|280:22|176:167|52:90,1,340
68,99,43731,1,0
60,166,43999,5,0
60,166,44267,2,0,B|28:165|28:210|44:221|73:224,1,85
63,222,44802,1,0
64,288,45070,2,0,B|74:323|110:332|125:276,1,85
128,220,45605,2,0,B|88:182|131:148,2,85
130,151,46409,1,0
120,85,46676,1,0
120,85,46944,2,0,B|160:53|191:68|196:98,2,85
123,153,47748,1,0
119,85,48015,1,0
187,84,48283,1,0
187,84,48551,1,0
250,84,48819,5,0
250,84,49086,1,0
318,84,49354,1,0
318,84,49622,1,0
318,84,49890,1,0
318,84,50157,1,0
386,84,50425,1,0
317,84,50693,1,0
385,84,50961,1,0
317,84,51228,1,0
385,84,51496,1,0
316,84,51764,1,0
349,143,52032,5,0
349,143,52299,2,0,B|395:177|314:166|364:228,1,85
354,215,52835,1,0
354,215,53103,2,0,B|386:275|428:194,1,85
416,213,53638,1,0
484,213,53906,2,0,B|484:118,1,85
484,128,54442,1,0
416,129,54709,1,0
416,129,54977,1,0
416,129,55245,2,0,B|417:221,1,85
416,213,55780,1,0
484,213,56048,1,0
416,213,56316,1,0
348,216,56584,6,2,B|305:194|319:148|359:152,1,85
339,155,57119,2,2,B|375:152|383:118|333:98,1,85
339,101,57655,2,2,B|316:140|274:134|277:84,1,85
277,100,58190,2,2,B|252:70|218:69|207:117,1,85
210,104,58726,1,2
190,169,58994,2,2,B|157:214|120:186|118:150,2,85
210,104,59797,1,2
210,104,60065,2,2,B|193:128|160:137|140:98,1,85
141,101,60600,1,2
169,59,77737,5,0
237,60,78005,1,0
169,60,78272,1,0
192,123,78540,2,2,B|226:123,6,28.3333333333333
192,123,79343,1,2
192,190,79611,1,0
192,190,79879,1,0
231,245,80147,1,0
260,190,80414,1,0
260,190,80682,2,2,B|260:144,6,28.3333333333333
328,191,81485,5,0
396,191,81753,2,0,B|421:210|449:216|477:185,2,85
328,191,82557,1,2
325,123,82824,2,0,B|298:93|328:43,2,85
329,191,83628,1,2
261,191,83895,2,0,B|231:219|212:227|180:168,2,85
329,191,84699,1,2
334,258,84966,2,0,B|292:292|348:342,2,85
331,189,85770,1,2
263,191,86037,6,2,B|219:193,6,28.3333333333333
194,190,86841,1,0
126,187,87108,2,2,B|170:188,6,28.3333333333333
194,191,87912,1,0
196,122,88180,2,2,B|194:154,6,28.3333333333333
192,189,88983,1,0
195,256,89251,2,2,B|195:217,6,28.3333333333333
192,187,90054,1,0
255,212,90322,5,0
256,211,90589,1,0
313,247,90857,1,0
369,284,91125,1,0
369,284,91393,1,0
425,321,91660,2,4,B|446:207|376:142|248:142|214:140|172:123,1,340
198,131,92999,2,4,B|247:210|244:321|396:332|432:322|466:347,1,340
442,335,94338,1,4
373,336,94606,5,0
373,336,94874,1,0
316,298,95141,1,0
252,323,95409,1,0
205,273,95677,1,0
143,302,95945,1,0
90,259,96212,2,0,B|60:232|82:173,3,85
78,111,97283,2,0,B|123:72|168:119,1,85
156,175,97819,1,0
224,173,98087,2,0,B|244:121|219:85,2,85
224,177,98890,1,0
224,177,99158,1,0
291,175,99425,5,0
291,175,99693,1,0
359,177,99961,1,0
359,177,100229,1,0
359,177,100497,1,0
359,177,100764,1,0
427,175,101032,1,0
359,177,101300,1,0
290,175,101568,1,0
359,177,101835,1,0
317,230,102103,2,2,B|317:263,1,28.3333333333333
359,241,102371,2,2,B|341:264,1,28.3333333333333
386,264,102639,2,2,B|358:280,1,28.3333333333333
324,303,102906,2,2,B|308:328,6,28.3333333333333
269,261,103710,6,0,B|236:288|204:237|221:216,1,85
217,222,104245,1,0
217,222,104513,1,0
274,185,104781,2,0,B|292:153|250:119|222:136,2,85
217,222,105584,1,0
217,222,105852,2,0,B|201:271|171:272|135:237,1,85
154,252,106387,1,0
154,252,106655,1,0
154,252,106923,2,0,B|199:266|221:257|216:201,2,85
135,186,107726,2,0,B|157:122|93:121,1,85
40,143,108262,2,0,B|-3:132|-6:88|33:73,1,85
85,62,108797,2,0,B|116:27|80:-1|58:-1,2,85
85,62,109600,1,0
106,121,109868,1,0
106,121,110136,1,0
142,149,110404,5,0
116,86,110671,2,6,B|212:14|351:90|410:170|368:310|217:339|105:345|-13:305|32:185|71:106,1,765
68,111,113349,1,4
68,111,113617,1,4
136,110,113885,1,0
101,51,114152,1,0
32,48,114420,1,0
6,111,114688,1,0
47,164,114956,1,0
114,162,115223,1,0
75,105,115491,1,0
75,105,115759,1,0
143,103,116027,6,2,B|182:80|227:108,1,85
291,101,116562,1,0
359,102,116830,2,2,B|399:81|452:113,1,85
448,174,117366,1,0
380,171,117633,2,0,B|348:196|296:168,2,85
243,172,118437,1,0
243,172,118704,5,0
311,172,118972,1,0
311,172,119240,1,0
278,112,119508,1,0
210,109,119775,1,0
210,109,120043,1,0
167,162,120311,1,0
195,223,120579,1,2
195,223,120846,1,2
262,227,121114,1,0
236,163,121382,1,2
236,163,121650,1,2
168,160,121917,2,2,B|123:138|81:166,1,85
79,298,122721,6,4,B|61:364|146:378|196:311|168:264|168:264|268:308|305:247|258:207|258:207|356:212|356:151|320:109,1,510
325,115,124595,1,4
325,115,124863,1,4
256,112,125131,1,0
188,112,125398,2,0,B|169:85|144:76|119:116,2,85
256,112,126202,1,0
323,112,126469,1,0
435,188,127005,5,2
415,253,127273,1,2
379,310,127540,1,2
325,352,127808,1,2
257,360,128076,1,2
189,355,128344,1,2
132,317,128612,1,2
88,264,128879,1,2
67,199,129147,1,2
255,191,146284,5,4
257,122,146552,2,0,B|238:98|271:67|249:28,2,85
255,190,147355,1,4
309,149,147623,2,0,B|316:118|364:123|369:76,2,85
253,188,148426,1,4
315,216,148694,2,0,B|361:219|358:257|400:249,2,85
251,190,149497,1,4
241,257,149765,2,0,B|260:305|212:320|237:352,2,85
252,189,150568,1,4
190,217,150836,6,0,B|235:174|187:120,2,85
147,164,151639,2,0,B|113:130|121:102|152:80,4,85
198,119,152978,5,2
233,177,153246,1,2
262,115,153513,1,2
301,170,153781,1,2
328,107,154049,1,2
365,163,154317,1,2
397,103,154584,1,2
432,161,154852,2,0,B|429:54,1,85
429,76,155388,1,0
361,74,155655,1,0
361,74,155923,1,0
360,142,156191,1,0
292,138,156459,1,0
224,139,156726,1,0
155,140,156994,1,0
155,140,157262,1,0
155,138,157530,2,0,B|155:225,1,85
159,290,158065,6,2,B|200:312|242:284,3,85
239,285,159136,1,2
375,286,159672,2,0,B|399:252|382:222|444:219,1,85
423,221,160207,1,0
460,164,160475,2,0,B|404:163|407:116|356:138,1,85
382,132,161011,1,0
320,160,161278,2,0,B|332:110|272:118|292:80,1,85
288,87,161814,1,0
221,97,162082,2,0,B|186:127|172:76|119:116,1,85
139,103,162617,1,0
81,139,162885,2,0,B|113:180|63:200|119:239,1,85
97,219,163421,1,0
147,266,163688,2,0,B|194:250|208:304|248:280,1,85
226,286,164224,1,0
293,290,164492,1,0
256,192,180557,12,0,184841
74,76,185377,5,2
74,76,185645,1,2
141,76,185912,2,2,B|177:52|194:46|233:93,1,85
213,143,186448,1,2
213,211,186716,2,2,B|248:236|264:236|295:200,3,85
355,211,187787,1,2
423,212,188055,2,2,B|457:252|424:292,2,85
354,210,188858,1,2
256,192,189126,12,0,193410
409,302,193945,1,2
358,256,194213,1,2
359,256,194481,1,2
359,257,194749,1,2
358,255,195016,1,2
328,193,195284,2,6,B|344:150|326:132|296:128,1,85
250,177,195820,1,2
250,176,196087,2,6,B|213:178|190:151|204:117,1,85
232,62,196623,1,2
232,63,196891,2,6,B|229:22|193:2|162:11,1,85
