osu file format v5

[General]
AudioFilename: The Calling - Wherever You Will Go.mp3
AudioLeadIn: 0
PreviewTime: -1
Countdown: 1
SampleSet: Soft
StackLeniency: 0.7
Mode: 0

[Metadata]
Title:Wherever You Will Go
Artist:The Calling
Creator:Lissette
Version:Easy
Source:
Tags:

[Difficulty]
HPDrainRate:4
CircleSize:4
OverallDifficulty:4
SliderMultiplier:1.4
SliderTickRate:1

[Events]
//Background and Video events
0,0,"landscape.jpg"
//Break Periods
2,60824,77097
2,129372,145644
//Storyboard Layer 0 (Background)
//Storyboard Layer 1 (Failing)
//Storyboard Layer 2 (Passing)
//Storyboard Layer 3 (Foreground)
//Storyboard Sound Samples
//Background Colour Transformations
3,100,163,162,255

[TimingPoints]
622,535.527458128603,4,2,0,100

[Colours]
Combo1 : 255,206,132
Combo2 : 132,253,132
Combo3 : 142,142,253
Combo4 : 253,142,142

[HitObjects]
96,64,2764,5,0
160,64,3299,1,0
224,64,3835,1,0
288,64,4370,1,0
352,128,4906,5,0
352,192,5441,1,0
352,256,5977,1,0
352,320,6512,1,0
288,352,7048,5,0
256,320,7316,1,0
224,288,7583,1,0
288,160,8654,5,0
256,128,8922,1,0
224,96,9190,1,0
262,259,9993,5,0
195,168,10529,1,0
361,191,11332,1,0
419,286,11868,2,2,B|259:286|131:222|145:36,1,420
260,61,14010,5,0
156,179,14813,1,0
265,153,15349,2,4,B|288:126|340:136,1,70
423,192,16152,2,2,B|469:242|428:281|392:284|366:260,3,140
276,207,18294,5,0
156,92,19097,1,0
85,244,19900,1,2
195,265,20436,2,0,B|249:329|322:262,2,140
197,150,22043,1,2
308,137,22578,5,0
395,206,23114,1,0
472,288,23649,2,2,B|324:289,5,140
268,196,26862,5,0
154,198,27398,1,0
42,200,27933,2,2,B|17:132|17:104|48:63,1,140
162,84,29004,5,0
261,84,29540,1,0
373,84,30076,2,2,B|434:144|372:211,1,140
381,310,31147,5,0
269,311,31682,1,0
156,312,32218,2,2,B|73:345|5:306,1,140
83,221,33289,6,2,B|44:170|68:120|88:90,3,140
183,49,35431,1,0
263,126,35966,1,0
375,129,36502,1,2
405,176,36770,1,2
345,175,37037,1,2
248,231,37573,5,0
359,230,38108,1,0
304,328,38644,1,2
303,271,38912,1,2
304,215,39179,1,2
162,41,40251,2,0,B|99:43|124:113|32:76,6,140
329,43,44267,6,0,B|392:63|400:99|331:146,1,140
257,286,45606,1,0
118,191,46409,6,0,B|32:245|96:289|130:303,1,140
258,206,47748,1,0
329,119,48283,6,2,B|263:79|191:121|191:119,7,140
160,224,52568,5,0
196,265,52835,2,0,B|267:313|340:257|340:261,1,140
257,113,54174,1,0
187,25,54710,2,0,B|341:25,3,140
298,133,56852,6,0,B|239:182|292:215|186:218,7,140
28,64,78273,5,0
142,65,78809,1,0
198,161,79344,2,2,B|276:111|332:167,1,140
318,273,80415,5,0
204,273,80951,1,0
92,270,81486,2,2,B|33:200|103:136,1,140
205,147,82557,6,0,B|271:166|237:220|321:225,1,140
394,303,83628,2,2,B|482:300|488:194,6,140
282,316,87377,5,2
215,225,87912,1,2
139,308,88448,1,2
72,217,88984,1,2
144,131,89519,1,2
56,60,90055,1,2
143,129,90590,1,2
231,197,91126,1,2
317,125,91661,1,0
397,203,92197,2,0,B|433:236|372:276|472:318,5,140
314,318,95410,5,0
145,313,96213,2,2,B|100:281|106:225|103:248,3,70
108,143,97552,5,0
275,144,98355,2,2,B|293:96|344:102,3,70
430,141,99694,5,0
433,253,100230,2,2,B|355:320|282:300|228:231|254:127|156:116|69:203,2,420
435,141,103978,5,0
325,115,104514,2,0,B|226:66|181:132,1,140
83,133,105585,1,0
84,244,106120,5,0
192,270,106656,2,0,B|256:304|329:266,1,140
435,244,107727,1,0
433,134,108263,5,0
353,55,108798,2,2,B|319:208|148:108|92:104|64:304,2,420
448,112,112547,6,0,B|408:88|363:124,1,70
213,113,113618,1,0
101,113,114153,1,0
102,225,114689,2,0,B|72:261|111:301|105:292,1,70
270,293,115760,1,0
381,292,116295,1,0
460,215,116831,2,0,B|480:167|444:130,1,70
289,153,117902,5,0
176,154,118438,1,0
64,155,118973,2,0,B|47:194|72:237,2,70
175,153,120044,1,0
177,265,120580,1,0
65,268,121115,2,0,B|36:324|86:346,1,70
234,329,122186,5,0
346,326,122722,1,0
343,214,123257,2,0,B|364:178|336:141,2,70
230,211,124328,1,0
229,97,124864,1,0
340,97,125399,2,0,B|380:76|419:106,1,70
408,270,126470,1,0
295,274,127006,5,0
185,296,127542,1,0
99,226,128077,1,0
97,115,128613,1,0
179,44,129148,1,0
106,77,146820,5,0
142,119,147088,2,0,B|210:140|156:181|218:198|252:184,1,140
399,207,148427,2,2,B|387:279|452:245|476:271|476:313,1,140
425,330,149230,2,0,B|372:296|330:321|336:235,1,140
307,193,150034,1,2
203,187,150569,1,2
204,299,151105,6,4,B|274:316|341:299|414:246|411:164,2,280
102,251,153782,1,0
175,165,154318,1,0
271,158,154853,1,0
383,158,155389,5,0
475,198,155924,2,0,B|472:52,1,140
359,64,156996,1,2
366,175,157531,2,0,B|367:318,1,140
254,318,158602,1,0
140,319,159138,1,2
59,241,159673,5,0
57,128,160209,2,2,B|131:52|293:38|416:86|459:133,2,420
149,190,163957,5,0
239,254,164493,1,0
336,309,165028,2,0,B|434:262|444:180|440:119|386:65,2,280
320,198,167706,2,2,B|370:134|306:73,3,140
194,77,169848,5,0
104,144,170384,1,0
156,242,170919,1,0
262,275,171455,2,2,B|348:307|364:220|342:203,2,140
150,289,173061,5,0
127,194,173597,1,0
238,184,174132,2,4,B|316:175|280:74|333:40|429:66|465:94,2,280
349,178,176810,1,0
180,177,177881,6,2,B|137:156|96:192,1,70
114,290,178684,2,2,B|155:320|194:276,1,70
289,297,179488,2,2,B|340:267|368:312,2,70
175,298,180559,1,2
256,192,180826,12,0,185914
180,177,186450,2,2,B|137:156|96:192,1,70
114,290,187253,2,2,B|155:320|194:276,1,70
289,297,188056,2,2,B|340:267|368:312,2,70
175,298,189127,1,2
256,192,189395,12,0,194482
105,230,195553,1,4
257,300,196357,1,4
411,234,197160,1,4
