osu file format v12

[General]
AudioFilename: The Bunny The Bear - Ocean Floor.mp3
AudioLeadIn: 0
PreviewTime: 27409
Countdown: 0
SampleSet: Normal
StackLeniency: 0.7
Mode: 0
LetterboxInBreaks: 1
WidescreenStoryboard: 0

[Editor]
Bookmarks: 56540,87398,114826,154255,195398
DistanceSpacing: 1.2
BeatDivisor: 4
GridSize: 4

[Metadata]
Title:Ocean Floor
TitleUnicode:Ocean Floor
Artist:The Bunny The Bear
ArtistUnicode:The Bunny The Bear
Creator:Hellzero
Version:Bunny x Bear
Source:
Tags:If you don’t have anything nice to say
BeatmapID:275667
BeatmapSetID:104930

[Difficulty]
HPDrainRate:7
CircleSize:4
OverallDifficulty:7
ApproachRate:8
SliderMultiplier:1.6
SliderTickRate:1

[Events]
//Background and Video events
0,0,"BG_Ocean_floor.jpg",0,0
//Break Periods
2,138856,146690
//Storyboard Layer 0 (Background)
//Storyboard Layer 1 (Fail)
//Storyboard Layer 2 (Pass)
//Storyboard Layer 3 (Foreground)
//Storyboard Sound Samples
//Background Colour Transformations
3,100,163,162,255

[TimingPoints]
27460,428.501031973319,4,1,1,40,1,0
136513,-100,4,2,1,40,0,0
150439,-100,4,2,1,5,0,0
150654,-100,4,1,1,40,0,0
181720,-100,4,1,1,40,0,1
208715,-100,4,1,1,40,0,0

[Colours]
Combo1 : 235,201,150
Combo2 : 148,146,231
Combo3 : 132,202,169
Combo4 : 179,206,225

[HitObjects]
48,252,27459,2,0,B|87:237|87:237|128:236,1,80,4|0,0:0|0:0,0:0:0:0:
48,132,27888,2,0,B|87:146|87:146|128:148,1,80,8|0,0:0|0:0,0:0:0:0:
200,268,28317,2,0,B|220:232|232:192|232:192|220:152|200:116,1,160,0|8,0:0|0:0,0:0:0:0:
400,296,29174,2,0,L|464:244,1,80
462,138,29602,2,0,L|400:88,1,80,8|0,0:0|0:0,0:0:0:0:
368,196,30031,1,0,0:0:0:0:
216,336,30459,1,8,0:0:0:0:
176,336,30566,1,0,0:0:0:0:
147,307,30673,1,0,0:0:0:0:
147,267,30780,1,0,0:0:0:0:
147,227,30888,6,2,L|148:148,1,80,2|0,0:0|0:0,0:0:0:0:
204,68,31316,1,8,0:0:0:0:
288,112,31530,2,2,P|331:104|376:112,1,80,2|2,0:0|0:0,0:0:0:0:
408,248,31959,1,0,0:0:0:0:
328,196,32173,1,8,0:0:0:0:
44,192,32602,6,2,P|48:233|76:264,1,80,2|0,0:0|0:0,0:0:0:0:
160,296,33030,1,8,0:0:0:0:
256,284,33244,2,2,P|289:268|330:274,1,80
392,352,33673,1,0,0:0:0:0:
464,288,33887,1,8,0:0:0:0:
464,248,33994,1,0,0:0:0:0:
464,208,34101,1,0,0:0:0:0:
435,179,34208,1,0,0:0:0:0:
406,150,34316,6,0,L|346:98,1,80,4|0,0:0|0:0,0:0:0:0:
256,60,34744,2,0,L|204:120,1,80,8|0,0:0|0:0,0:0:0:0:
114,166,35173,2,0,P|156:208|252:204,1,160,0|8,0:0|0:0,0:0:0:0:
48,340,36030,2,0,P|90:321|114:298,1,80
114,165,36458,2,0,P|71:183|47:206,1,80,8|0,0:0|0:0,0:0:0:0:
192,228,36887,2,0,P|212:140|176:84,1,160,0|8,0:0|0:0,0:0:0:0:
140,68,37422,1,0,0:0:0:0:
100,56,37529,1,0,0:0:0:0:
64,72,37636,1,0,0:0:0:0:
28,88,37744,6,0,L|29:168,1,80,2|0,0:0|0:0,0:0:0:0:
72,256,38172,1,8,0:0:0:0:
144,320,38386,1,2,0:0:0:0:
144,320,38601,2,0,P|196:264|276:264,1,160,2|8,0:0|0:0,0:0:0:0:
468,120,39458,6,0,P|440:92|400:80,1,80
316,124,39886,2,0,P|276:136|237:124,1,80,8|0,0:0|0:0,0:0:0:0:
188,48,40315,1,0,0:0:0:0:
156,76,40422,1,0,0:0:0:0:
144,112,40529,1,0,0:0:0:0:
144,152,40636,1,0,0:0:0:0:
164,188,40743,1,8,0:0:0:0:
196,212,40850,1,0,0:0:0:0:
236,224,40957,1,0,0:0:0:0:
276,216,41064,1,0,0:0:0:0:
308,196,41172,6,0,P|340:168|376:156,1,80,4|0,0:0|0:0,0:0:0:0:
468,216,41600,2,0,P|436:244|400:256,1,80,8|0,0:0|0:0,0:0:0:0:
304,308,42029,2,0,P|331:340|364:358,1,80
208,308,42457,2,0,P|180:340|147:358,1,80,8|0,0:0|0:0,0:0:0:0:
112,256,42886,2,0,P|76:244|44:216,1,80
144,68,43314,2,0,P|180:80|212:108,1,80,8|0,0:0|0:0,0:0:0:0:
128,164,43743,1,0,0:0:0:0:
128,164,43957,1,0,0:0:0:0:
224,216,44171,1,8,0:0:0:0:
260,232,44278,1,0,0:0:0:0:
300,228,44385,1,0,0:0:0:0:
332,208,44492,1,0,0:0:0:0:
344,172,44600,6,2,L|344:64,1,80,2|0,0:0|0:0,0:0:0:0:
464,40,45028,2,0,L|464:148,1,80,8|2,0:0|0:0,0:0:0:0:
468,232,45457,2,0,P|432:304|356:320,1,160,2|8,0:0|0:0,0:0:0:0:
80,136,46314,6,2,L|52:40,1,80,2|0,0:0|0:0,0:0:0:0:
156,168,46742,2,0,L|184:264,1,80,8|2,0:0|0:0,0:0:0:0:
256,300,47171,1,2,0:0:0:0:
256,204,47385,1,0,0:0:0:0:
256,108,47599,2,0,L|227:79,3,40,8|0|0|0,0:0|0:0|0:0|0:0,0:0:0:0:
296,108,48028,6,2,P|364:108|404:76,2,120,2|0|0,0:0|0:0|0:0,0:0:0:0:
204,44,48885,2,2,P|128:56|100:128,1,160,2|8,0:0|0:0,0:0:0:0:
204,316,49742,2,2,P|159:338|93:325,2,120,2|0|0,0:0|0:0|0:0,0:0:0:0:
373,174,50599,2,2,P|296:172|256:236,1,160,2|8,0:0|0:0,0:0:0:0:
256,276,51134,1,0,0:0:0:0:
272,312,51241,1,0,0:0:0:0:
300,340,51348,1,0,0:0:0:0:
340,348,51456,6,0,L|420:348,1,80,4|0,0:0|0:0,0:0:0:0:
468,264,51884,1,8,0:0:0:0:
408,192,52098,1,0,0:0:0:0:
468,120,52313,1,0,0:0:0:0:
408,44,52527,1,0,0:0:0:0:
344,116,52741,2,0,P|312:144|272:148,1,80,8|0,0:0|0:0,0:0:0:0:
204,84,53170,5,0,0:0:0:0:
185,110,53277,1,0,0:0:0:0:
166,136,53384,1,0,0:0:0:0:
147,162,53491,1,0,0:0:0:0:
128,188,53598,1,8,0:0:0:0:
19,162,53812,5,0,0:0:0:0:
23,193,53919,1,0,0:0:0:0:
33,223,54027,1,0,0:0:0:0:
52,248,54134,1,0,0:0:0:0:
76,268,54241,1,0,0:0:0:0:
105,280,54348,1,0,0:0:0:0:
136,283,54455,1,8,0:0:0:0:
167,277,54562,1,0,0:0:0:0:
196,263,54669,1,0,0:0:0:0:
219,241,54776,1,0,0:0:0:0:
236,214,54884,1,4,0:0:0:0:
400,124,56598,6,0,L|456:112,3,40
432,192,57026,2,0,L|486:209,3,40,0|0|0|0,0:0|0:0|0:0|0:0,0:0:0:0:
400,260,57455,2,0,P|352:320|272:320,1,160,8|0,0:0|0:0,0:0:0:0:
108,192,58312,6,0,L|44:236,3,40
124,120,58740,2,0,L|46:126,3,40
180,72,59169,2,0,L|256:40,1,80,8|0,0:0|0:0,0:0:0:0:
288,60,59490,1,0,0:0:0:0:
320,84,59597,1,0,0:0:0:0:
352,108,59704,1,0,0:0:0:0:
384,132,59811,1,0,0:0:0:0:
385,254,60026,6,0,L|424:263,3,40
352,316,60454,2,0,L|400:372,3,40,0|0|0|0,0:0|0:0|0:0|0:0,0:0:0:0:
312,252,60883,2,0,P|296:212|260:188,1,80,8|0,0:0|0:0,0:0:0:0:
224,208,61204,1,0,0:0:0:0:
196,248,61311,2,0,P|212:288|248:312,1,80,0|0,0:0|0:0,0:0:0:0:
196,112,61740,6,0,L|155:68,3,40
260,80,62168,2,0,L|246:21,3,40
320,124,62597,2,0,L|392:164,1,80,8|0,0:0|0:0,0:0:0:0:
424,184,62918,1,0,0:0:0:0:
403,218,63025,1,0,0:0:0:0:
380,252,63132,1,0,0:0:0:0:
356,284,63239,1,0,0:0:0:0:
264,340,63454,6,0,L|198:357,3,40,4|0|0|0,0:0|0:0|0:0|0:0,0:0:0:0:
208,280,63882,2,0,L|140:274,3,40,0|0|0|0,0:0|0:0|0:0|0:0,0:0:0:0:
136,340,64311,2,0,P|60:320|36:244,1,160,8|0,0:0|0:0,0:0:0:0:
216,76,65168,2,0,L|164:44,3,40
292,76,65596,2,0,L|344:44,3,40
256,140,66025,2,0,L|256:232,1,80,8|0,0:0|0:0,0:0:0:0:
256,252,66346,1,0,0:0:0:0:
256,284,66453,2,0,L|256:348,2,40
388,288,66882,6,0,L|440:264,3,40
376,216,67310,2,0,L|409:169,3,40,0|0|0|0,0:0|0:0|0:0|0:0,0:0:0:0:
328,160,67739,2,0,L|308:76,1,80,8|0,0:0|0:0,0:0:0:0:
202,82,68167,2,0,L|184:160,1,80
76,192,68596,6,0,L|8:192,3,40
128,244,69024,2,0,L|168:244,3,40
76,296,69453,2,0,P|100:336|132:348,1,80,8|0,0:0|0:0,0:0:0:0:
164,348,69774,1,0,0:0:0:0:
195,344,69881,1,0,0:0:0:0:
223,329,69988,1,0,0:0:0:0:
242,303,70095,1,0,0:0:0:0:
247,271,70202,1,0,0:0:0:0:
240,240,70310,6,0,P|232:196|240:160,1,80,4|0,0:0|0:0,0:0:0:0:
448,76,70952,2,0,L|476:48,2,40,0|0|8,0:0|0:0|0:0,0:0:0:0:
464,168,71381,2,0,P|432:196|396:204,1,80
316,152,71809,1,0,0:0:0:0:
147,161,72024,6,0,P|180:92|256:76,1,160,4|0,0:0|0:0,0:0:0:0:
236,220,72666,2,0,L|208:260,2,40,0|0|8,0:0|0:0|0:0,0:0:0:0:
320,296,73095,1,0,0:0:0:0:
320,296,73202,1,0,0:0:0:0:
320,296,73309,2,0,L|396:268,1,80
480,80,73738,6,0,P|428:132|344:128,1,160,4|0,0:0|0:0,0:0:0:0:
292,48,74380,1,0,0:0:0:0:
256,68,74487,1,0,0:0:0:0:
216,68,74595,2,0,P|176:66|136:80,2,80
80,304,75452,6,0,L|36:336,2,40,4|0|0,0:0|0:0|0:0,0:0:0:0:
432,304,76094,2,0,L|476:336,2,40,0|0|8,0:0|0:0|0:0,0:0:0:0:
372,232,76523,1,0,0:0:0:0:
296,292,76737,2,0,L|208:268,1,80
136,320,77166,6,0,B|128:248|128:248|68:184,1,160,0|8,0:0|0:0,0:0:0:0:
108,96,77808,1,0,0:0:0:0:
180,156,78023,1,0,0:0:0:0:
256,96,78237,1,0,0:0:0:0:
332,156,78451,1,8,0:0:0:0:
404,96,78665,1,0,0:0:0:0:
472,248,78880,6,0,B|392:248|392:248|336:304,1,160,0|8,0:0|0:0,0:0:0:0:
256,248,79522,1,0,0:0:0:0:
176,304,79737,2,0,L|120:248,1,80
40,192,80165,2,0,L|96:136,1,80,8|0,0:0|0:0,0:0:0:0:
332,84,80594,6,0,B|256:108|256:108|180:84,1,160,0|8,0:0|0:0,0:0:0:0:
168,180,81236,1,0,0:0:0:0:
256,224,81451,1,0,0:0:0:0:
344,180,81665,1,0,0:0:0:0:
336,276,81879,2,0,L|324:356,1,80,8|0,0:0|0:0,0:0:0:0:
188,356,82308,2,0,L|176:276,1,80,0|0,0:0|0:0,0:0:0:0:
256,224,82736,5,8,0:0:0:0:
256,128,82950,2,0,L|256:64,2,40
256,224,83379,1,0,0:0:0:0:
332,284,83593,1,8,0:0:0:0:
296,304,83700,1,0,0:0:0:0:
256,312,83807,1,0,0:0:0:0:
216,304,83915,1,0,0:0:0:0:
180,284,84022,1,0,0:0:0:0:
256,192,84450,12,0,87450,0:0:0:0:
52,312,87878,5,8,0:0:0:0:
120,244,88092,1,0,0:0:0:0:
196,300,88307,2,0,L|256:248,1,80
408,228,88735,2,0,L|348:280,1,80,8|0,0:0|0:0,0:0:0:0:
328,164,89164,2,0,P|292:104|184:116,2,160,0|8|0,0:0|0:0|0:0,0:0:0:0:
408,228,90235,1,0,0:0:0:0:
476,160,90449,1,8,0:0:0:0:
200,96,90878,6,2,P|164:144|52:144,1,160,2|8,0:0|0:0,0:0:0:0:
32,244,91520,1,2,0:0:0:0:
76,328,91735,1,2,0:0:0:0:
160,280,91949,1,0,0:0:0:0:
256,328,92163,2,0,L|256:224,1,80,8|0,0:0|0:0,0:0:0:0:
188,116,92592,6,2,P|256:152|324:116,1,160,2|8,0:0|0:0,0:0:0:0:
420,132,93234,2,2,P|450:152|465:191,1,80
420,276,93663,1,0,0:0:0:0:
332,236,93877,1,0,0:0:0:0:
312,272,93984,1,0,0:0:0:0:
280,296,94091,1,0,0:0:0:0:
240,308,94199,1,0,0:0:0:0:
200,308,94306,6,0,P|164:288|124:288,1,80,4|0,0:0|0:0,0:0:0:0:
44,236,94734,2,0,P|71:209|110:198,1,80,8|0,0:0|0:0,0:0:0:0:
192,148,95163,2,0,P|164:121|125:110,1,80
256,80,95591,2,0,P|316:116|400:100,1,160,8|0,0:0|0:0,0:0:0:0:
480,156,96234,1,0,0:0:0:0:
392,192,96448,2,0,P|349:210|325:233,1,80,8|0,0:0|0:0,0:0:0:0:
360,324,96877,2,0,P|294:326|228:265,1,160,0|8,0:0|0:0,0:0:0:0:
364,40,97734,6,2,P|334:72|296:88,1,80,2|0,0:0|0:0,0:0:0:0:
216,40,98162,1,8,0:0:0:0:
216,40,98376,1,2,0:0:0:0:
116,56,98591,2,0,P|156:125|230:142,1,160,2|8,0:0|0:0,0:0:0:0:
412,324,99448,6,0,L|468:324,3,40
352,280,99876,2,0,L|292:280,3,40
412,240,100305,2,0,L|440:204,1,40
372,180,100519,2,0,L|400:144,1,40
300,160,100733,2,0,L|328:124,1,40
260,100,100947,2,0,L|288:64,1,40
220,40,101162,6,0,P|184:52|152:80,1,80,4|0,0:0|0:0,0:0:0:0:
24,192,101590,2,0,P|60:180|92:152,1,80,8|0,0:0|0:0,0:0:0:0:
180,192,102019,1,0,0:0:0:0:
256,132,102233,1,0,0:0:0:0:
332,192,102447,2,0,L|412:192,1,80,8|0,0:0|0:0,0:0:0:0:
372,304,102876,2,0,P|332:316|292:304,1,80
136,262,103304,2,0,P|176:250|211:259,1,80,8|0,0:0|0:0,0:0:0:0:
176,344,103733,2,0,P|96:344|48:280,1,160,0|8,0:0|0:0,0:0:0:0:
48,244,104268,1,0,0:0:0:0:
60,204,104375,1,0,0:0:0:0:
92,180,104483,1,0,0:0:0:0:
132,172,104590,6,2,P|168:157|196:128,1,80,2|0,0:0|0:0,0:0:0:0:
380,172,105018,2,0,P|343:157|316:128,1,80,8|2,0:0|0:0,0:0:0:0:
468,232,105447,2,0,P|402:278|328:264,1,160,2|8,0:0|0:0,0:0:0:0:
64,72,106304,6,2,L|92:168,1,80,2|0,0:0|0:0,0:0:0:0:
194,268,106732,2,0,L|172:192,1,80,8|2,0:0|0:0,0:0:0:0:
256,144,107161,1,2,0:0:0:0:
316,68,107375,1,0,0:0:0:0:
404,108,107589,1,8,0:0:0:0:
440,128,107696,1,0,0:0:0:0:
460,160,107803,1,0,0:0:0:0:
460,200,107911,1,0,0:0:0:0:
440,236,108018,6,2,P|392:268|375:325,2,120,2|0|0,0:0|0:0|0:0,0:0:0:0:
284,352,108875,2,2,P|213:323|201:247,1,160,2|8,0:0|0:0,0:0:0:0:
299,40,109732,2,2,P|349:43|400:88,2,120,2|0|0,0:0|0:0|0:0,0:0:0:0:
199,198,110589,2,2,P|276:200|316:136,1,160,2|8,0:0|0:0,0:0:0:0:
280,116,111124,1,0,0:0:0:0:
244,100,111231,1,0,0:0:0:0:
208,84,111339,1,0,0:0:0:0:
172,68,111446,6,0,P|95:66|55:130,1,160,0|8,0:0|0:0,0:0:0:0:
108,212,112088,1,0,0:0:0:0:
40,279,112303,1,0,0:0:0:0:
107,346,112517,1,0,0:0:0:0:
200,364,112731,2,0,P|235:372|275:357,1,80,8|0,0:0|0:0,0:0:0:0:
368,336,113160,6,0,L|392:288,3,40
456,288,113588,2,0,L|480:240,3,40
456,184,114017,2,0,L|411:154,1,40
330,177,114231,2,0,L|364:200,1,40
368,120,114445,2,0,L|323:90,1,40
242,113,114659,2,0,L|275:135,1,40
280,48,114874,5,0,0:0:0:0:
280,48,115088,2,0,P|204:52|168:128,2,160,0|8|0,0:0|0:0|0:0,0:0:0:0:
276,168,116159,2,0,P|244:224|156:232,1,160,8|0,0:0|0:0,0:0:0:0:
40,192,116802,2,0,P|79:134|163:134,2,160,0|8|0,0:0|0:0|0:0,0:0:0:0:
132,220,117873,1,8,0:0:0:0:
224,192,118087,1,0,0:0:0:0:
316,160,118302,6,0,P|364:156|395:160,1,80,0|0,0:0|0:0,3:0:0:0:
256,316,118944,2,0,P|196:316|152:224,1,160,8|0,0:0|0:0,0:0:0:0:
316,80,119587,2,0,P|300:137|212:164,1,160,8|0,0:0|0:0,0:0:0:0:
64,68,120230,2,0,L|224:68,1,160,0|8,0:0|0:0,0:0:0:0:
212,164,120873,1,0,0:0:0:0:
210,318,121087,1,0,0:0:0:0:
303,192,121301,1,8,0:0:0:0:
154,240,121515,1,0,0:0:0:0:
303,288,121730,6,0,P|344:276|376:252,1,80
456,56,122372,2,0,P|380:92|308:80,1,160,8|0,0:0|0:0,0:0:0:0:
56,56,123015,2,0,P|132:92|204:80,1,160,8|0,0:0|0:0,0:0:0:0:
256,160,123658,1,0,0:0:0:0:
256,160,124086,2,0,L|256:324,1,160,8|0,0:0|0:0,0:0:0:0:
164,340,124729,2,0,L|88:312,1,80,8|0,0:0|0:0,0:0:0:0:
32,192,125158,6,0,L|108:220,1,80
480,192,125800,2,0,P|400:164|360:104,1,160,8|0,0:0|0:0,0:0:0:0:
296,192,126443,2,0,P|268:272|208:312,1,160,8|0,0:0|0:0,0:0:0:0:
184,200,127086,2,0,P|212:120|272:80,1,160,0|8,0:0|0:0,0:0:0:0:
356,124,127729,2,0,L|440:136,1,80
435,248,128157,2,0,L|356:260,1,80,8|0,0:0|0:0,0:0:0:0:
256,344,128586,6,0,P|220:320|184:308,1,80,8|0,0:0|0:0,0:0:0:0:
92,324,129014,1,0,0:0:0:0:
112,228,129228,2,0,P|136:192|148:156,1,80,8|0,0:0|0:0,0:0:0:0:
232,112,129657,1,0,0:0:0:0:
308,52,129871,2,0,P|343:42|386:43,1,80,8|0,0:0|0:0,0:0:0:0:
472,144,130300,6,0,P|436:153|393:152,1,80,8|0,0:0|0:0,0:0:0:0:
304,192,130728,1,0,0:0:0:0:
256,276,130942,2,0,P|229:301|192:322,1,80,8|0,0:0|0:0,0:0:0:0:
168,228,131371,1,0,0:0:0:0:
84,176,131585,2,0,P|110:150|147:129,1,80,8|0,0:0|0:0,0:0:0:0:
364,56,132014,6,8,P|337:81|300:102,1,80,8|0,0:0|0:0,0:0:0:0:
212,64,132442,1,0,0:0:0:0:
168,148,132657,2,0,P|189:185|214:211,1,80,8|0,0:0|0:0,0:0:0:0:
236,308,133085,1,0,0:0:0:0:
328,336,133299,2,0,P|328:292|319:257,1,80,8|0,0:0|0:0,0:0:0:0:
392,112,133728,6,0,P|391:155|400:190,1,80,8|0,0:0|0:0,0:0:0:0:
424,284,134156,1,0,0:0:0:0:
324,184,134371,2,0,P|283:199|253:220,1,80,8|0,0:0|0:0,0:0:0:0:
156,224,134799,2,0,P|171:264|192:294,1,80,0|8,0:0|0:0,0:0:0:0:
224,320,135120,1,0,0:0:0:0:
260,336,135228,1,0,0:0:0:0:
300,332,135335,1,0,0:0:0:0:
328,304,135442,1,0,0:0:0:0:
144,336,136727,6,0,L|216:296,1,80,2|0,0:0|0:0,0:0:0:0:
368,336,137156,2,0,L|296:296,1,80,2|0,0:0|0:0,0:0:0:0:
120,314,137584,2,0,L|198:287,1,80,2|0,0:0|0:0,0:0:0:0:
391,314,138013,2,0,L|313:287,1,80,2|0,0:0|0:0,0:0:0:0:
256,212,138441,1,2,0:0:0:0:
256,212,138656,1,2,2:2:0:0:
256,192,147440,12,0,150439,2:0:0:0:
120,80,150868,6,0,P|36:192|120:304,1,300
392,80,152582,2,0,P|476:192|392:304,1,300
348,248,153546,2,0,L|300:248,5,40
392,192,154296,6,0,P|362:163|340:128,1,80,4|0,0:0|0:0,0:0:0:0:
256,88,154724,2,0,P|223:108|194:138,1,80,8|0,0:0|0:0,0:0:0:0:
256,212,155153,2,0,P|180:236|112:184,2,160,0|8|0,0:0|0:0|0:0,0:0:0:0:
332,268,156224,1,0,0:0:0:0:
256,328,156438,2,0,L|168:340,1,80,8|0,0:0|0:0,0:0:0:0:
20,290,156867,2,0,L|100:280,1,80
219,181,157295,2,0,L|140:192,1,80,8|0,0:0|0:0,0:0:0:0:
40,68,157724,6,2,L|200:88,1,160,2|8,0:0|0:0,0:0:0:0:
280,36,158367,1,2,0:0:0:0:
355,93,158581,1,2,0:0:0:0:
322,183,158795,1,0,0:0:0:0:
224,180,159009,2,0,L|145:191,1,80,8|0,0:0|0:0,0:0:0:0:
52,172,159438,6,2,P|64:249|136:281,1,160,2|8,0:0|0:0,0:0:0:0:
200,352,160081,1,2,0:0:0:0:
256,276,160295,2,0,P|292:292|332:296,1,80,2|0,0:0|0:0,0:0:0:0:
424,264,160723,1,8,0:0:0:0:
448,232,160830,1,0,0:0:0:0:
460,192,160938,1,0,0:0:0:0:
464,152,161045,1,0,0:0:0:0:
460,112,161152,6,0,P|448:72|428:40,1,80,4|0,0:0|0:0,0:0:0:0:
368,136,161580,2,0,P|337:107|304:89,1,80,8|0,0:0|0:0,0:0:0:0:
144,136,162009,2,0,P|174:107|207:89,1,80
52,112,162437,2,0,P|64:72|84:40,1,80,8|0,0:0|0:0,0:0:0:0:
228,188,162866,2,0,P|156:232|84:212,1,160,0|8,0:0|0:0,0:0:0:0:
144,136,163509,1,0,0:0:0:0:
232,96,163723,2,0,P|304:52|376:72,1,160,0|8,0:0|0:0,0:0:0:0:
452,124,164366,1,0,0:0:0:0:
372,176,164580,6,2,L|324:260,1,80,2|0,0:0|0:0,0:0:0:0:
256,304,165008,1,8,0:0:0:0:
179,245,165223,2,2,L|140:176,2,80,2|2|0,0:0|0:0|0:0,0:0:0:0:
256,188,165865,1,8,0:0:0:0:
47,111,166294,6,0,L|72:80,3,40
144,96,166722,2,0,L|181:81,3,40
240,124,167151,2,0,L|280:156,1,40
332,112,167365,2,0,L|363:136,1,40
324,200,167579,2,0,L|355:224,1,40
416,188,167794,2,0,L|447:212,1,40
408,272,168008,6,0,P|368:340|292:340,1,160,4|8,0:0|0:0,0:0:0:0:
256,252,168651,1,0,0:0:0:0:
180,192,168865,1,0,0:0:0:0:
84,192,169079,1,0,0:0:0:0:
44,280,169293,2,0,P|84:288|124:280,1,80,8|0,0:0|0:0,0:0:0:0:
122,103,169722,2,0,P|84:96|44:104,1,80
180,192,170150,2,0,P|218:199|258:191,1,80,8|0,0:0|0:0,0:0:0:0:
348,156,170579,2,0,P|301:97|221:97,1,160,0|8,0:0|0:0,0:0:0:0:
120,296,171436,5,2,0:0:0:0:
208,336,171650,1,0,0:0:0:0:
304,336,171864,1,8,0:0:0:0:
392,296,172079,1,2,0:0:0:0:
328,220,172293,2,0,P|256:252|184:220,1,160,2|8,0:0|0:0,0:0:0:0:
256,156,172936,1,0,0:0:0:0:
212,72,173150,6,2,L|135:94,1,80,2|0,0:0|0:0,0:0:0:0:
60,152,173578,1,8,0:0:0:0:
112,232,173793,2,2,L|60:312,2,80,2|2|0,0:0|0:0|0:0,0:0:0:0:
196,184,174435,1,8,0:0:0:0:
231,162,174542,1,0,0:0:0:0:
269,161,174650,1,0,0:0:0:0:
303,181,174757,1,0,0:0:0:0:
324,216,174864,6,2,P|369:251|428:250,2,120,2|0|0,0:0|0:0|0:0,0:0:0:0:
196,184,175721,2,2,P|119:189|84:257,1,160,2|8,0:0|0:0,0:0:0:0:
360,336,176578,2,2,P|405:285|408:235,2,120,2|0|0,0:0|0:0|0:0,0:0:0:0:
260,212,177435,2,2,P|224:145|264:79,1,160,2|8,0:0|0:0,0:0:0:0:
188,280,178292,6,0,P|136:332|56:320,1,160,0|8,0:0|0:0,0:0:0:0:
104,232,178935,1,0,0:0:0:0:
32,168,179149,2,0,P|64:140|100:135,1,80
188,172,179577,2,0,P|224:167|256:139,1,80,8|0,0:0|0:0,0:0:0:0:
320,68,180006,5,0,0:0:0:0:
348,96,180113,1,0,0:0:0:0:
384,108,180220,1,0,0:0:0:0:
424,108,180327,1,0,0:0:0:0:
456,84,180434,1,0,0:0:0:0:
464,124,180541,1,0,0:0:0:0:
476,164,180649,1,0,0:0:0:0:
484,204,180756,1,0,0:0:0:0:
492,244,180863,2,0,L|468:292,3,40,2|0|0|0,0:0|0:0|0:0|0:0,0:0:0:0:
404,276,181291,2,0,L|380:324,3,40,2|0|0|0,0:0|0:0|0:0|0:0,0:0:0:0:
320,336,181720,6,0,L|252:292,1,80,4|0,0:0|0:0,0:0:0:0:
292,204,182148,1,8,0:0:0:0:
256,116,182363,1,0,0:0:0:0:
168,156,182577,2,0,L|96:192,1,80
32,324,183005,2,0,L|104:288,1,80,8|0,0:0|0:0,0:0:0:0:
188,332,183434,2,0,P|272:336|312:280,2,160,0|8|0,0:0|0:0|0:0,0:0:0:0:
132,256,184505,1,0,0:0:0:0:
204,192,184719,2,0,L|256:128,1,80,8|0,0:0|0:0,0:0:0:0:
390,242,185148,6,2,L|328:192,1,80,2|0,0:0|0:0,0:0:0:0:
380,112,185576,1,8,0:0:0:0:
312,44,185791,1,2,0:0:0:0:
232,96,186005,2,0,L|152:76,1,80,2|0,0:0|0:0,0:0:0:0:
34,144,186433,2,0,L|112:164,1,80,8|0,0:0|0:0,0:0:0:0:
325,241,186862,6,2,L|256:280,1,80,2|0,0:0|0:0,0:0:0:0:
95,291,187290,2,0,L|164:252,1,80,8|2,0:0|0:0,0:0:0:0:
204,164,187719,2,0,P|264:144|288:52,1,160,2|8,0:0|0:0,0:0:0:0:
328,68,188255,1,0,0:0:0:0:
368,80,188362,1,0,0:0:0:0:
408,92,188469,1,0,0:0:0:0:
448,104,188576,1,4,0:0:0:0:
484,192,188790,5,0,0:0:0:0:
456,316,189004,2,0,L|400:256,1,80,8|0,0:0|0:0,0:0:0:0:
312,296,189433,1,0,0:0:0:0:
256,216,189647,1,0,0:0:0:0:
200,296,189861,2,0,P|120:284|64:332,2,160,8|0|8,0:0|0:0|0:0,0:0:0:0:
256,216,190933,1,0,0:0:0:0:
304,132,191147,2,0,L|388:92,1,80
456,152,191575,2,8,L|480:200,1,40
412,224,191790,2,0,L|436:272,1,40
380,312,192004,6,0,B|320:344|320:344|224:344,1,160,4|8,0:0|0:0,0:0:0:0:
168,268,192647,1,0,0:0:0:0:
72,268,192861,2,0,L|40:192,1,80
96,82,193289,2,0,L|128:156,1,80,8|0,0:0|0:0,0:0:0:0:
224,152,193718,5,0,0:0:0:0:
245,117,193825,1,0,0:0:0:0:
276,93,193932,1,0,0:0:0:0:
315,82,194039,1,0,0:0:0:0:
355,86,194146,1,0,0:0:0:0:
391,104,194254,1,0,0:0:0:0:
418,134,194361,1,0,0:0:0:0:
432,171,194468,1,0,0:0:0:0:
432,211,194575,5,2,0:0:0:0:
418,248,194682,1,0,0:0:0:0:
391,278,194789,1,0,0:0:0:0:
355,296,194896,1,0,0:0:0:0:
315,299,195003,1,2,0:0:0:0:
276,288,195111,1,0,0:0:0:0:
245,264,195218,1,0,0:0:0:0:
224,230,195325,1,0,0:0:0:0:
216,191,195432,6,0,L|128:192,1,80
104,280,195860,1,8,0:0:0:0:
16,240,196075,1,0,0:0:0:0:
16,144,196289,1,0,0:0:0:0:
104,104,196503,1,0,0:0:0:0:
192,60,196717,2,0,L|276:72,1,80,8|0,0:0|0:0,0:0:0:0:
451,203,197146,6,0,L|372:192,1,80,0|0,0:0|0:0,0:0:0:0:
244,280,197574,1,8,0:0:0:0:
400,286,197789,1,0,0:0:0:0:
278,189,198003,1,0,0:0:0:0:
320,340,198217,1,0,0:0:0:0:
373,193,198431,1,8,0:0:0:0:
364,156,198539,1,0,0:0:0:0:
344,124,198646,1,0,0:0:0:0:
312,104,198753,1,0,0:0:0:0:
272,96,198860,6,0,P|228:100|192:88,1,80,4|0,0:0|0:0,0:0:0:0:
104,40,199288,2,0,P|96:83|75:115,1,80,8|0,0:0|0:0,0:0:0:0:
20,192,199717,1,0,0:0:0:0:
72,272,199931,1,0,0:0:0:0:
168,272,200145,2,0,P|208:280|248:272,1,80,8|0,0:0|0:0,0:0:0:0:
360,145,200574,5,0,0:0:0:0:
320,296,200788,1,0,0:0:0:0:
440,197,201002,1,8,0:0:0:0:
285,206,201217,1,0,0:0:0:0:
415,290,201431,1,0,0:0:0:0:
432,92,201859,1,8,0:0:0:0:
396,72,201967,1,0,0:0:0:0:
356,64,202074,1,0,0:0:0:0:
316,72,202181,1,0,0:0:0:0:
276,80,202288,6,0,P|234:89|198:112,1,80,4|0,0:0|0:0,0:0:0:0:
64,148,202716,2,0,P|96:176|131:191,1,80,8|0,0:0|0:0,0:0:0:0:
212,244,203145,1,0,0:0:0:0:
256,328,203359,1,0,0:0:0:0:
300,244,203573,6,0,P|348:224|372:104,1,160,8|0,0:0|0:0,0:0:0:0:
288,156,204216,1,0,0:0:0:0:
256,64,204430,2,0,L|176:64,1,80,8|0,0:0|0:0,0:0:0:0:
32,136,204859,2,0,L|112:136,1,80
192,188,205287,2,0,L|164:232,3,40,8|0|0|0,0:0|0:0|0:0|0:0,0:0:0:0:
184,260,205716,6,0,L|212:352,1,80,4|0,0:0|0:0,0:0:0:0:
304,336,206144,2,0,L|328:260,1,80,8|0,0:0|0:0,0:0:0:0:
392,192,206573,1,0,0:0:0:0:
476,144,206787,1,0,0:0:0:0:
464,48,207001,6,0,B|416:52|392:96|392:96|324:80,1,160,8|0,0:0|0:0,0:0:0:0:
284,72,207537,1,0,0:0:0:0:
244,60,207644,1,0,0:0:0:0:
204,48,207751,1,0,0:0:0:0:
197,87,207858,1,0,0:0:0:0:
174,120,207966,1,0,0:0:0:0:
139,139,208073,1,0,0:0:0:0:
98,138,208180,1,0,0:0:0:0:
62,120,208287,2,0,L|32:172,1,40,2|0,0:0|0:0,0:0:0:0:
68,220,208501,2,0,L|38:272,1,40
92,312,208715,2,0,L|62:364,2,40,2|0|0,0:0|0:0|0:0,0:0:0:0:
