osu file format v12

[General]
AudioFilename: The Bunny The Bear - Ocean Floor.mp3
AudioLeadIn: 0
PreviewTime: 27409
Countdown: 0
SampleSet: Normal
StackLeniency: 0.7
Mode: 0
LetterboxInBreaks: 1
WidescreenStoryboard: 1

[Editor]
Bookmarks: 56596,87446,114867,154286
DistanceSpacing: 1.2
BeatDivisor: 4
GridSize: 4

[Metadata]
Title:Ocean Floor
TitleUnicode:Ocean Floor
Artist:The Bunny The Bear
ArtistUnicode:The Bunny The Bear
Creator:Hellzero
Version:Bear
Source:
Tags:If you don’t have anything nice to say
BeatmapID:287489
BeatmapSetID:104930

[Difficulty]
HPDrainRate:5
CircleSize:3
OverallDifficulty:5
ApproachRate:6
SliderMultiplier:1.3
SliderTickRate:1

[Events]
//Background and Video events
0,0,"BG_Ocean_floor.jpg",0,0
//Break Periods
2,138856,146390
//Storyboard Layer 0 (Background)
//Storyboard Layer 1 (Fail)
//Storyboard Layer 2 (Pass)
//Storyboard Layer 3 (Foreground)
//Storyboard Sound Samples
//Background Colour Transformations
3,100,163,162,255

[TimingPoints]
27460,428.501031973319,4,1,1,40,1,0
150439,-100,4,2,1,5,0,0
150654,-100,4,1,1,40,0,0
181720,-100,4,1,1,40,0,1
208715,-100,4,1,1,40,0,0

[Colours]
Combo1 : 235,201,150
Combo2 : 148,146,231
Combo3 : 132,202,169
Combo4 : 179,206,225

[HitObjects]
40,64,27459,2,0,P|81:113|144:120,1,130,0|8,0:0|0:0,0:0:0:0:
216,88,28102,1,0,0:0:0:0:
284,48,28317,2,0,P|346:54|388:104,2,130,0|8|0,0:0|0:0|0:0,0:0:0:0:
216,88,29388,1,0,0:0:0:0:
160,144,29602,2,0,L|160:224,1,65,8|0,0:0|0:0,0:0:0:0:
224,321,30031,2,0,L|224:256,1,65
280,200,30459,2,0,L|310:212,3,32.5
344,228,30888,6,2,P|385:277|448:284,1,130,2|8,0:0|0:0,0:0:0:0:
497,223,31530,1,2,0:0:0:0:
440,168,31745,2,2,P|447:105|496:64,1,130,2|8,0:0|0:0,0:0:0:0:
344,36,32602,2,2,P|298:79|234:79,1,130,2|8,0:0|0:0,0:0:0:0:
172,32,33244,1,2,0:0:0:0:
116,88,33459,2,2,P|115:151|159:197,2,130,2|8|4,0:0|0:0|0:0,0:0:0:0:
234,227,34744,6,0,P|188:271|125:271,2,130,8|0|8,0:0|0:0|0:0,0:0:0:0:
268,157,35815,1,0,0:0:0:0:
332,112,36030,2,0,L|404:80,1,65,0|0,0:0|0:0,0:0:0:0:
505,114,36458,2,0,L|446:141,1,65,8|0,0:0|0:0,0:0:0:0:
408,209,36887,2,0,L|467:235,1,65,0|0,0:0|0:0,0:0:0:0:
496,308,37315,2,0,L|464:344,3,32.5
436,340,37744,6,2,L|304:356,1,130,2|8,0:0|0:0,0:0:0:0:
256,296,38386,1,2,0:0:0:0:
204,356,38601,2,2,L|75:341,1,130,2|8,0:0|0:0,0:0:0:0:
24,192,39458,2,0,L|104:172,1,65,0|0,0:0|0:0,0:0:0:0:
96,98,39886,2,0,L|176:78,1,65,8|0,0:0|0:0,0:0:0:0:
220,132,40315,2,0,L|276:116,7,32.5
288,108,41172,6,0,P|357:109|401:153,1,130,4|8,0:0|0:0,0:0:0:0:
432,300,42029,2,0,P|363:299|322:260,1,130,0|8,0:0|0:0,0:0:0:0:
256,112,42886,2,0,L|200:156,1,65
256,212,43314,2,0,L|200:256,1,65,8|0,0:0|0:0,0:0:0:0:
256,312,43743,2,0,L|204:352,1,65
128,348,44171,2,0,L|72:332,3,32.5
60,328,44600,6,2,P|15:289|14:220,1,130,2|8,0:0|0:0,0:0:0:0:
75,175,45242,1,2,0:0:0:0:
151,158,45457,2,2,P|141:216|85:253,1,130,2|8,0:0|0:0,3:0:0:0:
105,88,46314,2,2,P|166:76|223:114,1,130,2|8,0:0|0:0,0:0:0:0:
273,167,46956,1,2,0:0:0:0:
271,245,47171,2,2,P|298:241|329:222,1,65,2|0,0:0|0:0,0:0:0:0:
396,180,47599,2,0,L|432:184,3,32.5
468,188,48028,6,0,P|480:249|447:302,1,130,4|8,0:0|0:0,0:0:0:0:
371,327,48670,1,0,0:0:0:0:
296,304,48885,2,0,P|261:249|274:188,1,130,0|8,0:0|0:0,0:0:0:0:
372,64,49742,2,0,P|318:29|256:40,1,130,0|8,0:0|0:0,0:0:0:0:
196,92,50384,1,0,0:0:0:0:
140,144,50599,2,0,P|131:206|82:247,2,130,0|8|2,0:0|0:0|0:0,0:0:0:0:
4,268,51884,6,0,P|45:317|108:322,1,130,8|2,0:0|0:0,0:0:0:0:
185,318,52527,1,0,0:0:0:0:
248,272,52741,2,0,P|272:256|308:248,1,65,8|0,0:0|0:0,0:0:0:0:
384,248,53170,6,0,L|412:263,4,32.5
472,212,53812,2,0,L|508:192,10,32.5,0|0|0|0|0|0|0|0|0|0|4,0:0|0:0|0:0|0:0|0:0|0:0|0:0|0:0|0:0|0:0|0:0,0:0:0:0:
64,268,56598,6,0,P|172:332|280:268,1,260,0|8,0:0|0:0,0:0:0:0:
172,156,57883,1,0,0:0:0:0:
280,44,58312,2,0,P|399:71|434:192,1,260,0|8,0:0|0:0,0:0:0:0:
434,270,59383,2,0,L|473:309,4,32.5
355,270,60026,6,0,B|231:210|231:330|107:270,1,260,4|8,0:0|0:0,0:0:0:0:
44,220,61097,2,0,P|29:189|24:156,1,65
152,72,61740,2,0,P|271:46|354:141,1,260,0|8,0:0|0:0,0:0:0:0:
375,216,62811,2,0,L|391:248,4,32.5
332,304,63454,6,0,B|275:352|205:328|205:328|169:275|94:292,1,260,4|8,0:0|0:0,0:0:0:0:
256,248,64739,1,0,0:0:0:0:
364,136,65168,2,0,P|256:72|148:136,1,260,0|8,0:0|0:0,0:0:0:0:
96,192,66239,2,0,L|44:192,4,32.5
149,250,66882,6,0,P|256:312|364:248,1,260,0|8,0:0|0:0,0:0:0:0:
408,184,67953,2,0,P|424:148|448:128,1,65
464,284,68596,6,0,P|342:252|310:134,1,260
320,56,69667,2,0,L|364:28,4,32.5
248,88,70310,6,0,P|196:120|128:124,1,130,4|0,0:0|0:0,0:0:0:0:
52,100,70952,1,0,0:0:0:0:
4,160,71167,2,0,P|-2:196|6:229,1,65,8|0,0:0|0:0,0:0:0:0:
75,192,71595,1,0,0:0:0:0:
236,200,72024,6,0,P|304:192|360:220,1,130,0|0,0:0|0:0,0:0:0:0:
404,284,72666,2,0,P|420:312|448:336,2,65,0|8|0,0:0|0:0|0:0,0:0:0:0:
437,213,73309,1,0,0:0:0:0:
452,56,73738,6,0,P|392:80|324:72,1,130,4|0,0:0|0:0,0:0:0:0:
256,44,74380,1,0,0:0:0:0:
184,72,74595,2,0,P|150:76|108:96,2,65,8|0|0,0:0|0:0|0:0,0:0:0:0:
340,216,75452,6,0,P|308:260|236:264,1,130,4|0,0:0|0:0,0:0:0:0:
165,233,76094,1,0,0:0:0:0:
104,184,76309,2,0,P|81:158|64:128,1,65,8|0,0:0|0:0,0:0:0:0:
93,35,76737,2,0,P|116:61|132:88,1,65
184,148,77166,6,0,L|320:132,1,130,0|8,0:0|0:0,0:0:0:0:
389,118,77808,2,0,P|453:142|477:198,1,130
398,197,78451,1,8,0:0:0:0:
256,264,78880,6,0,L|128:304,1,130,0|8,0:0|0:0,0:0:0:0:
54,314,79522,2,0,P|76:248|132:224,1,130
127,224,80165,1,8,0:0:0:0:
256,132,80594,6,0,P|309:108|333:44,1,130,0|8,0:0|0:0,0:0:0:0:
252,52,81236,2,0,P|198:75|174:139,1,130
216,208,81879,1,8,0:0:0:0:
476,300,82308,6,0,L|404:192,1,130,0|8,0:0|0:0,0:0:0:0:
456,132,82950,2,0,P|400:113|340:144,1,130
331,221,83593,2,0,L|315:265,4,32.5,8|0|0|0|0,0:0|0:0|0:0|0:0|0:0,0:0:0:0:
256,192,84450,12,0,87450,0:0:0:0:
56,236,87878,6,0,L|116:264,1,65,8|0,0:0|0:0,0:0:0:0:
188,296,88307,2,0,P|250:315|305:286,2,130,0|8|0,0:0|0:0|0:0,0:0:0:0:
180,220,89378,1,0,0:0:0:0:
216,148,89592,1,8,0:0:0:0:
296,148,89806,1,0,0:0:0:0:
332,220,90021,2,0,P|393:230|446:192,1,130,0|8,0:0|0:0,0:0:0:0:
256,56,90878,6,2,P|194:45|141:83,1,130,2|8,0:0|0:0,0:0:0:0:
141,159,91520,1,2,0:0:0:0:
141,237,91735,2,2,P|134:300|85:341,2,130,2|8|2,0:0|0:0|0:0,0:0:0:0:
252,128,93020,1,8,0:0:0:0:
308,74,93234,1,2,0:0:0:0:
386,74,93449,1,2,0:0:0:0:
488,192,93877,2,0,L|504:248,3,32.5
484,260,94306,6,0,P|438:304|375:304,1,130,4|8,0:0|0:0,0:0:0:0:
28,260,95163,2,0,P|74:304|137:304,1,130,0|8,0:0|0:0,0:0:0:0:
204,116,96020,2,0,L|144:142,1,65
256,148,96448,2,0,L|256:213,1,65,8|0,0:0|0:0,0:0:0:0:
308,116,96877,2,0,L|367:142,2,65,0|0|8,0:0|0:0|0:0,0:0:0:0:
484,192,97734,6,2,P|484:255|440:301,1,130,2|8,0:0|0:0,0:0:0:0:
361,301,98376,1,2,0:0:0:0:
283,301,98591,2,2,L|154:301,1,130,2|8,0:0|0:0,0:0:0:0:
40,192,99448,6,0,L|33:160,7,32.5
68,140,100305,2,0,L|80:80,7,32.5
104,84,101162,6,0,L|232:40,1,130,4|8,0:0|0:0,0:0:0:0:
438,129,102019,2,0,L|316:172,1,130,0|8,0:0|0:0,0:0:0:0:
256,316,102876,2,0,P|220:320|192:312,1,65
137,256,103304,2,0,P|109:248|73:252,1,65,8|0,0:0|0:0,0:0:0:0:
18,196,103733,2,0,P|14:160|22:132,1,65
77,77,104161,2,0,L|112:48,3,32.5
136,37,104590,6,2,P|192:17|250:55,1,130,2|8,0:0|0:0,0:0:0:0:
248,129,105232,1,2,0:0:0:0:
248,207,105447,2,2,P|304:242|360:222,2,130,2|8|2,0:0|0:0|0:0,0:0:0:0:
92,192,106732,1,8,0:0:0:0:
40,252,106946,1,2,0:0:0:0:
40,328,107161,2,2,L|104:348,1,65,2|0,0:0|0:0,0:0:0:0:
180,336,107589,2,0,L|212:312,3,32.5
236,292,108018,6,0,P|289:260|352:276,1,130,4|8,0:0|0:0,0:0:0:0:
408,332,108660,1,0,0:0:0:0:
460,272,108875,2,0,P|489:214|470:154,1,130,0|8,0:0|0:0,0:0:0:0:
217,53,109732,2,0,P|282:37|336:72,1,130,0|8,0:0|0:0,0:0:0:0:
323,145,110374,2,0,P|294:137|267:113,1,65
116,152,111017,2,0,L|84:192,3,32.5
72,208,111446,6,2,P|71:271|115:317,1,130,2|8,0:0|0:0,0:0:0:0:
252,252,112303,2,0,P|285:229|308:201,1,65,2|0,0:0|0:0,0:0:0:0:
351,92,112731,2,0,P|317:114|301:132,1,65,8|0,0:0|0:0,0:0:0:0:
372,172,113160,2,0,P|360:296|244:332,2,260,0|0|0,0:0|0:0|0:0,0:0:0:0:
295,155,115088,6,0,B|252:151|230:115|230:115|176:105,2,130,0|8|0,0:0|0:0|0:0,0:0:0:0:
297,77,116159,2,0,P|360:80|403:127,1,130,8|0,0:0|0:0,0:0:0:0:
449,190,116802,2,0,B|425:254|425:254|425:318,1,130,0|8,0:0|0:0,0:0:0:0:
272,344,117659,1,0,0:0:0:0:
256,268,117873,2,0,L|185:231,1,65,8|0,0:0|0:0,0:0:0:0:
120,232,118302,5,0,0:0:0:0:
120,232,118516,2,0,B|100:300|100:300|52:336,2,130,0|8|0,0:0|0:0|0:0,0:0:0:0:
140,156,119587,2,0,B|184:120|184:120|220:132|256:112,1,130,8|0,0:0|0:0,0:0:0:0:
212,46,120230,2,0,P|272:37|325:77,1,130,0|8,0:0|0:0,3:0:0:0:
390,119,120873,2,0,L|462:163,1,65
445,230,121301,2,0,L|390:264,1,65,8|0,0:0|0:0,0:0:0:0:
320,232,121730,5,0,0:0:0:0:
320,232,121944,2,0,B|279:245|248:232|248:232|200:264,2,130,0|8|0,0:0|0:0|0:0,0:0:0:0:
391,201,123015,2,0,P|351:159|283:165,1,130,8|0,0:0|0:0,3:0:0:0:
208,141,123658,2,0,P|149:115|124:57,2,130,0|8|0,0:0|0:0|0:0,0:0:0:0:
284,124,124729,2,0,L|344:88,1,65,8|0,0:0|0:0,0:0:0:0:
408,48,125158,5,0,0:0:0:0:
408,48,125372,2,0,B|431:114|386:153|386:153|388:180,2,130,0|8|0,0:0|0:0|0:0,0:0:0:0:
342,90,126443,2,0,L|210:90,1,130,8|0,0:0|0:0,0:0:0:0:
159,31,127086,2,0,P|135:91|159:151,1,130,0|8,0:0|0:0,3:0:0:0:
190,219,127729,2,0,P|202:255|234:295,1,65
295,277,128157,2,0,P|310:255|322:219,1,65
389,179,128586,6,0,B|365:139|320:140|320:140|292:92,1,130,8|0,0:0|0:0,0:0:0:0:
215,99,129228,2,0,B|192:140|192:140|147:139|123:179,1,130,8|0,0:0|0:0,0:0:0:0:
192,220,129871,2,0,L|340:220,2,130,8|8|0,0:0|0:0|0:0,0:0:0:0:
156,292,130942,2,0,P|105:328|40:316,1,130,8|0,0:0|0:0,3:0:0:0:
88,252,131585,2,0,L|116:188,1,65,8|0,0:0|0:0,0:0:0:0:
152,124,132014,6,0,B|216:124|216:72|216:72|216:24,1,130,8|0,0:0|0:0,0:0:0:0:
296,36,132657,2,0,B|296:72|296:72|296:124|360:124,1,130,8|0,0:0|0:0,0:0:0:0:
400,192,133299,2,0,P|414:254|380:306,2,130,8|8|0,0:0|0:0|0:0,0:0:0:0:
340,240,134371,1,8,0:0:0:0:
300,308,134585,2,0,L|224:352,1,65
172,308,135013,2,0,L|140:292,4,32.5,8|0|0|0|0,0:0|0:0|0:0|0:0|0:0,0:0:0:0:
256,192,136727,12,2,138656,2:2:0:0:
256,192,147440,12,0,150439,2:0:0:0:
52,224,150868,6,0,B|128:332|128:332|244:332,1,243.75,8|8,0:0|0:0,0:0:0:0:
460,160,152582,2,0,B|384:52|384:52|272:52,1,243.75,8|8,0:0|0:0,0:0:0:0:
40,192,154296,6,0,P|81:241|144:248,1,130,4|8,0:0|0:0,0:0:0:0:
198,191,154939,1,0,0:0:0:0:
276,192,155153,2,0,P|338:198|380:248,2,130,0|8|0,0:0|0:0|0:0,0:0:0:0:
236,124,156224,1,0,0:0:0:0:
172,80,156438,2,0,L|92:80,1,65,8|0,0:0|0:0,0:0:0:0:
40,124,156867,1,0,0:0:0:0:
0,192,157081,1,0,0:0:0:0:
40,260,157295,2,0,L|96:292,1,65,8|0,0:0|0:0,0:0:0:0:
164,332,157724,6,2,P|226:343|279:308,1,130,2|8,0:0|0:0,0:0:0:0:
313,237,158367,1,2,0:0:0:0:
361,176,158581,2,2,P|413:140|476:152,1,130,2|8,0:0|0:0,0:0:0:0:
480,344,159438,2,2,P|417:338|374:291,1,130,2|8,0:0|0:0,0:0:0:0:
314,240,160081,1,2,0:0:0:0:
360,176,160295,1,2,0:0:0:0:
256,60,160723,2,0,L|208:80,3,32.5
188,84,161152,6,0,P|131:114|112:174,1,130,4|8,0:0|0:0,0:0:0:0:
147,243,161795,1,0,0:0:0:0:
224,244,162009,2,0,P|283:263|314:319,1,130,0|8,0:0|0:0,0:0:0:0:
388,152,162866,2,0,P|407:92|464:64,1,130,0|8,0:0|0:0,0:0:0:0:
468,144,163509,1,0,0:0:0:0:
436,216,163723,2,0,P|374:231|321:198,1,130,0|8,0:0|0:0,0:0:0:0:
256,56,164580,6,2,L|124:72,1,130,2|8,0:0|0:0,0:0:0:0:
76,132,165223,1,2,0:0:0:0:
24,192,165437,2,2,L|48:252,1,65,2|0,0:0|0:0,0:0:0:0:
124,232,165865,2,0,L|174:271,1,65,8|0,0:0|0:0,0:0:0:0:
252,256,166294,6,0,L|304:232,7,32.5
288,204,167151,2,0,L|321:157,7,32.5
332,148,168008,6,0,P|379:106|442:111,1,130,4|8,0:0|0:0,0:0:0:0:
492,312,168865,2,0,P|444:353|381:348,1,130,0|8,0:0|0:0,0:0:0:0:
188,336,169722,1,0,0:0:0:0:
119,299,169936,1,0,0:0:0:0:
56,252,170150,2,0,P|32:192|56:132,1,130,8|0,0:0|0:0,0:0:0:0:
120,88,170793,1,0,0:0:0:0:
188,48,171007,1,8,0:0:0:0:
224,192,171436,6,2,L|364:192,1,130,2|8,0:0|0:0,0:0:0:0:
432,192,172079,1,2,0:0:0:0:
512,192,172293,2,2,P|486:249|427:271,1,130,2|8,0:0|0:0,0:0:0:0:
56,312,173150,2,2,L|196:312,1,130,2|8,0:0|0:0,0:0:0:0:
256,280,173793,1,2,0:0:0:0:
300,216,174007,2,2,P|304:184|300:148,1,65,2|0,0:0|0:0,0:0:0:0:
268,80,174435,2,0,L|228:44,3,32.5
208,40,174864,6,0,P|143:38|97:79,1,130,4|8,0:0|0:0,0:0:0:0:
97,158,175507,1,0,0:0:0:0:
97,158,175721,2,0,L|97:295,1,130,0|8,0:0|0:0,0:0:0:0:
256,344,176578,2,0,P|315:321|340:264,1,130,0|8,0:0|0:0,0:0:0:0:
344,184,177221,1,0,0:0:0:0:
344,184,177435,2,0,P|284:206|259:263,1,130,0|8,0:0|0:0,0:0:0:0:
36,112,178292,6,2,P|84:152|147:145,1,130,2|8,0:0|0:0,0:0:0:0:
204,92,178935,1,0,0:0:0:0:
272,52,179149,1,2,0:0:0:0:
340,88,179363,1,0,0:0:0:0:
396,140,179577,2,0,P|412:164|420:200,1,65,8|0,0:0|0:0,0:0:0:0:
368,256,180006,6,0,L|353:284,7,32.5
316,292,180863,2,0,L|280:312,7,32.5,2|0|0|0|2|0|0|0,0:0|0:0|0:0|0:0|0:0|0:0|0:0|0:0,0:0:0:0:
248,316,181720,6,0,P|185:309|144:260,1,130,4|8,0:0|0:0,0:0:0:0:
108,192,182363,1,0,0:0:0:0:
144,124,182577,2,0,P|185:75|248:68,1,130,0|8,0:0|0:0,0:0:0:0:
464,104,183434,2,0,L|404:80,1,65
387,154,183862,2,0,L|322:145,1,65,8|0,0:0|0:0,0:0:0:0:
386,229,184291,2,0,L|321:237,1,65
464,279,184719,2,0,L|404:304,1,65,8|0,0:0|0:0,0:0:0:0:
336,344,185148,6,2,P|273:337|232:288,1,130,2|8,0:0|0:0,0:0:0:0:
256,212,185791,1,2,0:0:0:0:
280,136,186005,2,2,P|239:87|176:80,2,130,2|8|2,0:0|0:0|0:0,0:0:0:0:
337,191,187076,1,0,0:0:0:0:
416,192,187290,2,0,L|484:192,2,65,8|0|2,0:0|0:0|0:0,0:0:0:0:
324,320,188147,2,0,L|296:336,3,32.5,2|0|0|0,0:0|0:0|0:0|0:0,0:0:0:0:
256,336,188576,6,0,L|120:336,1,130,4|8,0:0|0:0,0:0:0:0:
256,48,189433,2,0,L|392:48,1,130,0|8,0:0|0:0,0:0:0:0:
480,232,190290,2,0,L|420:258,1,65
420,125,190718,2,0,L|480:152,1,65,8|0,0:0|0:0,0:0:0:0:
376,192,191147,2,0,L|311:192,1,65
232,192,191575,2,0,L|184:192,3,32.5
160,192,192004,6,0,P|126:244|140:306,2,130,4|8|0,0:0|0:0|0:0,0:0:0:0:
196,124,193075,1,0,0:0:0:0:
256,76,193289,1,8,0:0:0:0:
332,76,193504,1,0,0:0:0:0:
409,76,193718,6,0,L|446:89,7,32.5
452,124,194575,2,0,L|482:149,7,32.5,2|0|0|0|2|0|0|0,0:0|0:0|0:0|0:0|0:0|0:0|0:0|0:0,0:0:0:0:
496,180,195432,6,0,P|495:249|451:293,1,130,4|8,0:0|0:0,0:0:0:0:
399,346,196075,1,0,0:0:0:0:
320,346,196289,2,0,L|188:346,1,130,0|8,0:0|0:0,0:0:0:0:
52,272,197146,2,0,L|108:228,1,65
52,112,197574,2,0,L|108:156,1,65,8|0,0:0|0:0,0:0:0:0:
237,192,198003,2,0,L|172:192,1,65
172,112,198431,2,0,L|203:80,3,32.5
224,64,198860,6,0,L|356:64,1,130,4|8,0:0|0:0,0:0:0:0:
409,119,199503,1,0,0:0:0:0:
464,174,199717,2,0,P|487:111|458:58,2,130,0|8|0,0:0|0:0|0:0,0:0:0:0:
424,240,200788,2,0,P|457:260|484:268,2,65,0|8|0,0:0|0:0|0:0,0:0:0:0:
358,197,201431,2,0,P|324:176|298:169,1,65
222,169,201859,2,0,L|182:169,3,32.5
150,169,202288,6,0,P|88:190|60:245,1,130,4|8,0:0|0:0,0:0:0:0:
101,313,202931,1,0,0:0:0:0:
164,360,203145,2,0,P|225:338|253:283,1,130,0|8,0:0|0:0,0:0:0:0:
424,48,204002,2,0,L|324:148,1,130,0|8,0:0|0:0,0:0:0:0:
256,160,204645,1,0,0:0:0:0:
179,139,204859,2,0,L|88:48,1,130,0|8,0:0|0:0,0:0:0:0:
108,324,205716,6,0,P|45:317|4:268,2,130,0|8|0,0:0|0:0|0:0,0:0:0:0:
186,322,206787,1,0,0:0:0:0:
256,288,207001,2,0,P|280:272|302:242,1,65,8|0,0:0|0:0,0:0:0:0:
348,180,207430,6,0,L|354:148,7,32.5
324,120,208287,2,0,L|313:89,6,32.5,2|0|0|0|2|0|0,0:0|0:0|0:0|0:0|0:0|0:0|0:0,0:0:0:0:
