osu file format v5

[General]
AudioFilename: Too Many Knives.mp3
AudioLeadIn: 0
PreviewTime: 52708
Countdown: 0
SampleSet: Normal
StackLeniency: 0.7
Mode: 0
LetterboxInBreaks: 1
EditorDistanceSpacing: 0.800000011920929

[Metadata]
Title:Too Many Knives
Artist:The Brothers Chaps
Creator:Agent Spin Here
Version:2 Many
Source:Homestar Runner
Tags:Crack Stuntman an importan rap song poo

[Difficulty]
HPDrainRate:7
CircleSize:5
OverallDifficulty:7
SliderMultiplier:2.3
SliderTickRate:1

[Events]
//Background and Video events
1,0,"2_Many_Knives.flv"
0,0,"Background.PNG"
//Break Periods
2,65996,69138
//Storyboard Layer 0 (Background)
//Storyboard Layer 1 (Failing)
//Storyboard Layer 2 (Passing)
//Storyboard Layer 3 (Foreground)
//Storyboard Sound Samples
//Background Colour Transformations
3,100,0,0,0

[TimingPoints]
12153,606.060606060606,4,1,0,80,1,0
78160,-50,4,1,0,80,0,0
80281,-100,4,2,0,0,0,0

[HitObjects]
256,192,12153,1,0
96,96,12759,1,8
184,96,13062,2,0,B|304:48|440:120,1,230
144,200,14577,5,8
232,200,14880,1,0
280,200,15031,1,0
416,200,15486,1,4
312,344,16092,6,0,B|408:344,1,57.5
312,272,16546,2,0,B|408:272,1,57.5
312,344,17001,5,8
312,160,17607,2,0,B|312:296,1,115,8|0
96,104,18819,1,8
96,104,18971,1,0
96,240,19425,6,2,B|144:104|232:352|296:224,1,230
368,248,20334,1,4
256,192,20637,12,4,21849
256,192,22153,5,4
16,336,23062,5,8
48,304,23213,1,0
80,336,23365,1,0
112,304,23516,1,0
144,336,23668,1,4
328,336,24274,6,0,B|200:336,1,115,8|0
184,296,24728,1,0
224,272,24880,1,8
184,248,25031,1,0
224,224,25183,1,0
184,200,25334,1,0
224,176,25486,1,8
184,152,25637,1,0
184,56,25940,1,4
416,56,26698,5,8
368,56,26849,1,0
368,104,27001,1,0
416,104,27153,1,0
392,144,27304,1,8
392,232,27607,1,0
296,232,27910,2,2,B|248:184|184:240,1,115
296,232,28365,2,2,B|248:280|184:224,1,115
112,112,29122,5,8
112,200,29425,1,0
112,248,29577,1,0
160,248,29728,1,8
344,248,30334,2,2,B|392:200|456:256,1,115
344,248,30789,2,2,B|392:296|456:240,1,115
448,112,31546,5,8
272,112,31849,1,0
96,112,32153,1,2
96,280,32456,1,2
264,280,32759,6,0,B|176:280|192:176,1,115,8|0
224,184,33213,2,4,B|296:184|296:280,1,115
408,56,34274,5,0
312,56,34577,1,8
216,56,34880,1,0
216,56,35031,1,0
120,56,35334,1,0
120,56,35486,1,0
24,56,35789,2,4,B|24:208,1,115
120,168,36395,5,2
216,168,36698,2,8,B|320:168,3,57.5,8|0|8|0
368,168,37456,1,2
368,256,37759,1,8
272,256,38062,2,0,B|200:256,2,57.5,0|8|0
112,256,38819,5,2
112,160,39122,2,8,B|48:96,1,57.5,8|0
112,96,39425,2,0,B|152:40,1,57.5,8|0
240,48,39880,1,2
240,136,40183,1,8
248,224,40486,2,0,B|312:272,1,57.5,0|8
336,256,40789,1,0
368,120,41243,5,2
272,128,41546,1,8
224,112,41698,1,0
184,128,41849,1,8
136,120,42001,1,0
144,208,42304,1,2
232,208,42607,1,8
320,208,42910,1,0
360,184,43062,1,8
400,208,43213,1,0
400,344,43668,5,2
360,320,43819,1,0
320,344,43971,1,2
360,256,44274,1,8
360,208,44425,1,8
360,112,44728,1,8
264,112,45031,1,8
264,200,45334,1,0
264,248,45486,1,8
264,296,45637,1,0
256,192,46092,12,4,47607
160,184,48516,5,2
296,184,49122,1,10
384,184,49425,1,2
384,184,49577,1,2
312,64,50031,2,8,B|192:64,2,115
256,192,50940,12,4,52456
256,312,53062,5,8
224,224,53365,2,0,B|136:176|232:144,1,115
296,192,53971,2,0,B|416:128|288:80,1,172.5,0|4
256,192,54728,12,4,55789
256,192,56092,5,4
344,192,56395,1,8
344,144,56546,1,0
344,192,56698,1,8
344,240,56849,1,0
344,288,57001,2,0,B|264:336|256:208,1,115
216,248,57456,1,4
80,64,58213,5,8
128,64,58365,1,0
176,64,58516,2,2,B|176:128|176:128|96:128,1,115
128,176,58971,1,0
128,224,59122,1,8
128,176,59274,1,0
176,176,59425,1,0
224,176,59577,2,2,B|304:176|304:256,1,115
344,336,60486,5,0
392,336,60637,1,8
392,288,60789,1,0
440,288,60940,1,8
440,192,61243,2,0,B|440:128,2,57.5
392,192,61698,6,4,B|392:128,1,57.5
344,136,62001,1,0
296,136,62153,2,4,B|298:64,2,57.5
160,144,62910,5,0
120,168,63062,1,8
72,168,63213,1,0
48,208,63365,1,8
48,304,63668,1,8
88,280,63819,1,0
88,328,63971,1,0
128,304,64122,1,0
176,304,64274,1,12
264,304,64577,1,4
264,304,64728,1,4
136,96,65486,5,0
376,96,65789,1,0
256,336,70031,6,0,B|256:248,1,57.5,8|0
256,232,70334,2,0,B|176:184|176:120,1,115
224,144,70789,1,8
272,144,70940,2,0,B|272:64|176:56,1,115
160,64,71395,1,0
112,64,71546,1,8
88,104,71698,1,0
112,144,71849,1,0
88,184,72001,1,4
224,184,72456,5,8
312,184,72759,1,8
264,8,73365,1,8
264,96,73668,1,2
264,280,74274,1,2
80,64,75183,6,0,B|232:64,1,115
240,64,75637,1,0
240,200,76092,1,4
72,56,78213,6,6,B|488:360,1,460
448,56,79425,6,6,B|32:344,1,460
256,192,80940,5,0
256,192,81092,1,0
