osu file format v6

[General]
AudioFilename: 01 Speed Racer Theme '08.mp3
AudioLeadIn: 0
PreviewTime: 20842
Countdown: 0
SampleSet: Normal
StackLeniency: 0.7
Mode: 0
LetterboxInBreaks: 0

[Editor]
Bookmarks: 13262,15321,17192,18315,20280,23274,26175,38059,38995,39556,41054,49475,72000,73500,79419,80916,83162,84847,85408
DistanceSpacing: 1
BeatDivisor: 4
GridSize: 8

[Metadata]
Title:Speed Racer Theme 2008
Artist:The Bloody Beetroots
Creator:Loogiesquared
Version:Turtle On Wheels
Source:Speed Racer Movie
Tags:speedracer loogie speed racer bloody beetroots

[Difficulty]
HPDrainRate:2
CircleSize:5
OverallDifficulty:4
SliderMultiplier:1
SliderTickRate:2

[Events]
//Background and Video events
0,0,"SpeedRacer BG.png"
//Break Periods
2,20825,22680
2,60200,70680
//Storyboard Layer 0 (Background)
//Storyboard Layer 1 (Fail)
//Storyboard Layer 2 (Pass)
//Storyboard Layer 3 (Foreground)
Sprite,Foreground,Centre,"Notesby.png",320,240 S,0,36000,,4.38944 F,0,35907,36001,0,1 F,0,36001,37217,1,0.0579199 F,0,37217,37218,0.0579199,0 M,0,36001,37311,300,51,301,403
//Storyboard Sound Samples
//Background Colour Transformations
3,100,255,255,255

[TimingPoints]
0,375,4,1,1,100,1,0
47978,-100,4,1,1,100,0,0
60236,-200,4,1,1,100,0,0
70530,-100,4,1,1,100,0,0
83536,-200,4,2,1,100,0,0
94557,-100,4,1,1,100,0,0

[Colours]
Combo1 : 36,32,33
Combo2 : 93,187,238
Combo3 : 161,56,54

[HitObjects]
176,192,12000,1,0
256,128,12375,1,0
336,192,12750,2,0,B|336:272|224:272,1,150,0|8
176,192,13687,1,0
256,128,14062,2,2,B|288:144|256:160|288:176,1,50
256,272,14625,1,0
176,192,15000,5,0
256,128,15375,1,0
336,192,15750,2,0,B|336:272|224:272,1,150,0|8
176,192,16687,1,0
256,128,17062,2,2,B|288:144|256:160|288:176,1,50
256,272,17625,1,0
176,192,18000,5,0
256,128,18375,1,0
344,168,18750,2,0,B|344:248|232:256,1,150,0|8
176,192,19687,1,0
256,128,20062,2,2,B|288:144|256:160|288:176,1,50
248,264,20625,1,0
256,192,24000,5,4
256,96,24375,1,4
160,96,24750,1,4
304,96,25312,1,0
352,192,25687,1,0
256,192,26062,2,2,B|272:176|240:160|256:128,1,50
256,240,26625,1,8
256,192,27000,5,4
256,288,27375,1,4
160,288,27750,1,4
304,288,28312,1,0
352,192,28687,1,0
256,192,29062,2,2,B|272:208|240:224|256:256,1,50
256,144,29625,1,8
256,192,30000,5,4
256,96,30375,1,4
160,96,30750,1,4
304,96,31312,1,0
352,192,31687,1,0
256,192,32062,2,2,B|272:176|240:160|256:128,1,50
256,240,32625,1,8
256,192,33000,5,4
256,288,33375,1,4
160,288,33750,1,4
304,288,34312,1,0
352,192,34687,1,0
256,192,35062,2,2,B|272:208|240:224|256:256,1,50
256,144,35625,1,8
240,232,36000,6,2,B|288:184|192:136|240:72,1,150
232,40,36750,1,8
280,40,36937,1,8
328,40,37125,1,8
376,40,37312,1,8
424,40,37500,6,2,B|424:136|312:136,1,150
280,136,38250,1,2
232,136,38437,1,2
184,136,38625,1,2
136,136,38812,1,2
80,136,39000,6,2,B|80:216|192:216,1,150
232,216,39750,1,0
280,216,39937,1,0
328,216,40125,1,0
376,216,40312,1,0
424,216,40500,6,2,B|424:312|312:312,1,150
280,312,41250,5,2
232,312,41437,1,2
184,312,41625,1,2
136,312,41812,1,2
88,312,42000,1,2
208,144,42375,6,0,B|192:128|160:144,1,50,0|8
160,96,42750,2,0,B|176:80|208:96,1,50,0|8
208,48,43125,2,0,B|192:32|160:48,1,50,0|8
112,48,43500,1,4
80,144,43875,6,0,B|96:128|128:144,1,50,0|8
128,192,44250,2,0,B|112:176|80:192,1,50,0|8
80,240,44625,2,0,B|96:224|128:240,1,50,0|8
176,240,45000,1,4
176,144,45375,6,0,B|160:128|128:144,1,50,0|8
128,96,45750,2,0,B|144:80|176:96,1,50,0|8
176,48,46125,2,0,B|160:32|128:48,1,50,0|8
80,48,46500,1,4
80,144,46875,5,4
168,184,47250,1,4
256,144,47625,1,4
344,192,48000,2,0,B|344:56|40:40|72:192|152:240,4,400
240,192,54375,6,0,B|240:224|272:224,1,50,0|8
320,224,54750,2,0,B|352:224|352:256,1,50,0|8
352,304,55125,2,0,B|352:336|320:336,1,50,0|8
272,336,55500,1,4
168,336,55875,6,0,B|168:304|136:304,1,50,0|8
88,304,56250,2,0,B|56:304|56:272,1,50,0|8
56,224,56625,2,0,B|56:192|88:192,1,50,0|8
136,192,57000,1,4
144,88,57375,6,0,B|144:120|176:120,1,50,0|8
224,120,57750,2,0,B|256:120|256:152,1,50,0|8
272,200,58125,2,0,B|272:232|240:232,1,50,0|8
192,240,58500,1,4
192,336,58875,5,4
288,336,59250,1,4
288,240,59625,1,4
192,240,60000,1,4
320,120,72000,6,0,C|224:120|200:144|200:232|224:256|288:256|312:232|312:208|288:200,1,400
288,128,75000,6,0,C|216:128|200:160|200:224|224:248|288:248|312:224|312:160|296:128|296:128,1,400
224,256,78000,6,0,C|296:256|312:224|312:160|288:136|224:136|200:160|200:224|216:256|216:256,1,400
240,272,81000,6,0,C|208:176|208:144|216:136|224:128|240:136|240:136|248:152|256:160|264:152|272:136|288:128|296:136|304:144|304:176|256:264,1,400
464,112,83625,5,2
432,112,83812,1,2
400,112,84000,2,0,B|368:80|336:128|304:96,1,100,0|8
304,200,85500,2,0,B|272:168|240:216|208:184,1,100,0|8
208,288,87000,2,0,B|176:256|144:304|112:272,1,100,0|8
64,264,89625,5,2
88,264,89812,1,2
112,264,90000,2,0,B|144:296|184:240|216:304,1,100,0|8
208,184,91500,2,0,B|240:216|272:168|304:200,1,100,0|8
304,96,93000,2,0,B|336:128|368:80|400:112,1,100,0|8
256,256,96000,6,4,B|368:240|368:48|112:48|112:240|256:192,4,400
192,272,102375,6,0,B|224:272|224:240,1,50,0|8
224,192,102750,2,0,B|224:160|192:160,1,50,0|8
144,160,103125,2,0,B|112:160|112:192,1,50,0|8
112,240,103500,1,4
144,160,103875,6,0,B|112:160|112:128,1,50,0|8
112,80,104250,2,0,B|112:48|144:48,1,50,0|8
192,48,104625,2,0,B|224:48|224:80,1,50,0|8
224,128,105000,1,4
320,160,105375,6,0,B|352:160|352:128,1,50,0|8
352,80,105750,2,0,B|352:48|320:48,1,50,0|8
272,48,106125,2,0,B|240:48|240:80,1,50,0|8
240,128,106500,1,4
240,224,106875,5,4
336,224,107250,1,4
336,128,107625,1,4
240,128,108000,1,4
256,192,108093,12,0,109500
176,216,110062,6,0,B|232:168,1,50,0|2
168,176,110437,2,0,B|112:128,1,50,0|2
176,136,110812,2,0,B|232:88,1,50,0|2
336,136,111562,6,0,B|280:184,1,50,0|2
344,176,111937,2,0,B|400:224,1,50,0|2
336,216,112312,2,0,B|280:264,1,50,0|2
176,216,113062,6,0,B|232:168,1,50,0|2
168,176,113437,2,0,B|112:128,1,50,0|2
176,136,113812,2,0,B|232:88,1,50,0|12
256,192,114187,12,0,115500
256,192,115687,12,0,117000
256,192,117187,12,0,118500
256,264,118875,5,8
328,192,119250,1,8
256,120,119625,1,8
184,192,120000,1,8
