osu file format v6

[General]
AudioFilename: 01 Speed Racer Theme '08.mp3
AudioLeadIn: 0
PreviewTime: 20842
Countdown: 0
SampleSet: Normal
StackLeniency: 0.7
Mode: 0
LetterboxInBreaks: 0

[Editor]
DistanceSpacing: 1
BeatDivisor: 4
GridSize: 8

[Metadata]
Title:Speed Racer Theme 2008
Artist:The Bloody Beetroots
Creator:Loogiesquared
Version:Snail On Wheels
Source:Speed Racer Movie
Tags:speedracer loogie speed racer bloody beetroots

[Difficulty]
HPDrainRate:0
CircleSize:3
OverallDifficulty:0
SliderMultiplier:1
SliderTickRate:2

[Events]
//Background and Video events
0,0,"SpeedRacer BG.png"
//Break Periods
2,14825,16200
2,20825,22200
2,60200,70200
//Storyboard Layer 0 (Background)
//Storyboard Layer 1 (Fail)
//Storyboard Layer 2 (Pass)
//Storyboard Layer 3 (Foreground)
Sprite,Foreground,Centre,"Notesby.png",320,240 S,0,35906,,3.74432 F,0,35907,36001,0,1 M,0,36001,37311,300,51,301,552 F,0,36001,37312,1,0
//Storyboard Sound Samples
//Background Colour Transformations
3,100,255,255,255

[TimingPoints]
0,375,4,1,1,100,1,0
47978,-100,4,1,1,100,0,0
60236,-200,4,1,1,100,0,0
70530,-100,4,1,1,100,0,0
83536,-200,4,2,1,100,0,0
94557,-100,4,1,1,100,0,0

[Colours]
Combo1 : 36,32,33
Combo2 : 93,187,238
Combo3 : 161,56,54

[HitObjects]
176,192,12000,1,0
256,128,12375,1,0
328,192,12750,1,8
256,320,13312,5,0
208,232,13687,1,0
112,232,14062,1,8
112,184,14250,1,8
112,88,14625,1,0
336,192,18000,5,0
256,128,18375,1,0
184,192,18750,1,8
256,320,19312,5,0
304,232,19687,1,0
400,232,20062,1,8
400,184,20250,1,8
400,88,20625,1,0
176,192,24000,5,0
256,128,24375,1,0
328,192,24750,1,8
256,320,25312,5,0
208,232,25687,1,0
112,232,26062,1,8
112,184,26250,1,8
112,88,26625,1,0
208,88,27000,5,4
280,16,27375,1,4
344,88,27750,1,4
384,192,28312,5,0
296,144,28687,1,0
208,200,29062,1,0
208,200,29250,1,0
128,136,29625,1,0
56,200,30000,5,4
128,264,30375,1,4
208,200,30750,1,4
328,112,31312,5,0
328,208,31687,1,0
424,208,32062,1,0
424,256,32250,1,0
352,328,32625,1,8
256,336,33000,5,4
152,336,33375,1,4
48,336,33750,1,4
48,184,34312,5,0
48,80,34687,1,0
144,80,35062,2,2,B|160:96|128:112|144:144,1,50
136,224,35625,1,8
152,144,36000,6,2,B|200:192|104:240|152:304,1,150
192,280,36750,2,0,B|240:280|240:248,1,50,0|8
256,216,37125,2,0,B|256:184|288:184,1,50,0|8
336,184,37500,6,2,B|432:184|432:296,1,150
432,328,38250,2,0,B|432:376|400:376,1,50,0|8
360,368,38625,2,0,B|328:368|328:336,1,50,0|8
320,288,39000,6,2,B|240:288|240:176,1,150
248,136,39750,2,0,B|296:136|296:168,1,50,0|8
304,200,40125,2,0,B|304:232|336:232,1,50,0|8
352,184,40500,6,2,B|448:184|448:296,1,150
440,328,41250,6,0,B|392:328|392:296,1,50,0|8
360,272,41625,2,0,B|328:272|328:240,1,50,0|8
296,200,42000,1,4
256,192,42375,12,2,43500
256,192,43875,12,2,45000
256,192,45375,12,12,46500
248,192,46875,6,0,B|264:128|240:72,2,100
248,192,48000,2,8,L|272:208|232:224|272:232|232:248|272:256|232:272|272:280|232:296|272:304|232:320,4,400
256,192,54375,12,8,55500
256,192,55875,12,8,57000
256,192,57375,12,8,58500
208,192,58875,6,0,B|256:160|320:200,3,100
400,192,72000,6,0,B|320:16|192:368|64:144,3,400,0|2|0|0
400,192,78000,6,0,B|320:16|192:368|64:144,3,400,0|8|8|8
416,112,84000,6,0,B|384:80|352:128|320:96,1,100,0|4
304,200,85500,2,0,B|272:168|240:216|208:184,1,100,0|4
208,288,87000,2,0,B|176:256|144:304|112:272,1,100,0|4
80,256,90000,6,0,B|112:288|152:232|184:296,1,100,0|4
208,184,91500,2,0,B|240:216|272:168|304:200,1,100,0|4
320,96,93000,2,0,B|352:128|384:80|416:112,1,100,0|4
256,256,96000,6,4,B|368:240|368:48|112:48|112:240|256:192,4,400
256,192,102375,12,0,103500
256,192,103875,12,0,105000
256,192,105375,12,0,106500
256,240,106875,6,4,B|288:192|248:128,3,100
