osu file format v6

[General]
AudioFilename: 01 Speed Racer Theme '08.mp3
AudioLeadIn: 0
PreviewTime: 68939
Countdown: 1
SampleSet: Normal
StackLeniency: 0.7
Mode: 0
LetterboxInBreaks: 0

[Editor]
DistanceSpacing: 1.5
BeatDivisor: 6
GridSize: 8

[Metadata]
Title:Speed Racer Theme 2008
Artist:The Bloody Beetroots
Creator:Loogiesquared
Version:Animask On Wheels
Source:Speed Racer Movie
Tags:speedracer loogie speed racer bloody beetroots animask

[Difficulty]
HPDrainRate:5
CircleSize:5
OverallDifficulty:5
SliderMultiplier:1
SliderTickRate:2

[Events]
//Background and Video events
0,0,"SpeedRacer BG.png"
//Break Periods
2,23825,25800
2,78200,82425
//Storyboard Layer 0 (Background)
//Storyboard Layer 1 (Fail)
//Storyboard Layer 2 (Pass)
//Storyboard Layer 3 (Foreground)
Sprite,Foreground,Centre,"Animask.png",320,240 S,0,35981,,3.21184 M,0,35981,37500,292,12,297,415 F,0,36000,37500,1,0
//Storyboard Sound Samples
//Background Colour Transformations
3,100,255,255,255

[TimingPoints]
0,375,3,1,1,100,1,0
45732,-200,3,1,1,100,0,0
46294,-100,3,1,1,100,0,0
69281,-200,4,1,1,100,0,0
83500,-200,4,2,1,100,0,0
83817,-200,4,2,1,100,0,0
94557,-100,4,1,1,100,0,0

[Colours]
Combo1 : 36,32,33
Combo2 : 93,187,238
Combo3 : 161,56,54

[HitObjects]
128,112,12000,1,0
256,192,12375,1,0
384,112,12750,1,2
256,192,13312,2,0,B|248:264|256:296,1,100,0|2
184,328,13875,1,2
112,328,14062,1,0
80,304,14156,1,0
56,280,14250,1,2
56,128,14625,1,4
192,192,15000,5,0
256,56,15375,1,0
320,192,15750,1,2
96,192,16312,2,0,B|120:264|64:296,1,100,0|2
40,344,16875,1,2
112,344,17062,1,0
152,344,17156,1,0
192,344,17250,1,2
256,208,17625,1,4
256,56,18000,5,0
320,192,18375,1,0
256,328,18750,1,2
72,192,19312,2,0,B|152:208|192:200,1,100,0|2
248,192,19875,1,2
320,200,20062,1,0
352,208,20156,1,0
384,200,20250,1,2
256,280,20625,1,4
136,192,21000,5,0
256,128,21375,1,0
376,192,21750,1,0
256,24,22312,2,0,B|248:80|256:144,1,100,0|2
256,200,22875,1,2
224,264,23062,1,0
256,280,23156,1,0
288,264,23250,1,2
256,120,23625,1,4
88,192,27000,6,4,B|120:248|184:224,1,100,4|2
240,200,27562,1,0
264,128,27750,1,2
336,144,27937,1,0
256,272,28312,5,0
128,192,28687,1,2
256,272,29062,1,0
328,272,29250,1,4
456,192,29625,1,4
352,80,30000,6,0,B|312:128,1,50
256,80,30375,2,0,B|216:128,1,50
160,72,30750,2,0,B|120:120,1,50
168,248,31312,5,2
344,248,31687,1,2
256,128,32062,1,0
256,200,32250,1,4
256,312,32625,1,4
120,240,33000,5,0
56,200,33187,1,0
120,160,33375,1,0
256,192,33750,1,0
355,196,34312,6,0,B|283:180|235:196,1,100
256,192,35062,1,0
157,196,35250,2,0,B|229:180|277:196,1,100,0|0
256,112,36000,5,2
360,288,36562,1,0
288,280,36749,1,0
216,272,36937,1,0
144,264,37125,2,0,B|80:256,2,50,2|0|2
232,56,38062,5,0
304,64,38250,1,0
376,72,38437,1,0
448,80,38625,2,0,B|448:144,1,50,2|0
448,208,39000,1,2
256,320,39562,5,0
184,312,39750,1,0
112,304,39937,1,0
40,296,40125,2,0,B|40:232,2,50,2|0|2
216,160,41062,5,0
288,168,41250,1,0
360,176,41437,1,0
432,184,41625,5,2
488,232,41812,1,0
432,280,42000,1,2
368,296,42375,5,0
368,296,42562,1,0
368,296,42656,1,0
368,296,42750,1,4
296,288,42937,1,8
224,296,43125,1,4
184,232,43312,6,0,B|184:160,1,50
104,56,43875,5,0
104,56,44062,1,0
104,56,44156,1,0
104,56,44250,1,4
176,48,44437,1,8
248,56,44625,1,4
264,128,44812,6,0,B|264:184,1,50
368,272,45375,5,0
296,272,45562,1,0
296,272,45656,1,0
296,272,45750,2,0,B|232:272,1,50,8|4
120,192,46500,1,0
256,136,46875,5,0
256,136,47062,1,0
256,136,47250,1,8
256,296,47625,1,8
256,296,48000,1,4
56,192,48562,5,0
128,200,48750,1,0
200,192,48937,1,0
272,200,49125,2,0,B|320:208|336:208,2,50,2|0|2
456,72,50062,5,0
384,80,50250,1,0
312,88,50437,1,0
240,96,50625,2,0,B|184:104,2,50,2|0|2
376,272,51562,5,0
304,256,51750,1,0
232,272,51937,1,0
160,256,52125,2,0,B|88:256,2,50,2|0|2
288,72,53062,5,0
216,80,53250,1,0
144,88,53437,1,0
72,104,53625,5,2
0,136,53812,1,0
72,168,54000,1,2
56,248,54375,5,0
56,248,54562,1,0
56,248,54656,1,0
56,248,54750,1,4
128,240,54937,1,8
200,232,55125,1,4
256,184,55312,6,0,B|256:120,1,50,0|2
392,192,55875,5,0
392,192,56062,1,0
392,192,56156,1,0
392,192,56250,1,4
384,264,56437,1,8
376,336,56625,1,4
304,336,56812,6,0,B|240:336,1,50
112,272,57375,5,0
112,272,57562,1,0
112,272,57656,1,0
112,272,57750,1,4
120,200,57937,1,8
128,128,58125,1,4
176,72,58312,6,0,B|232:72,1,50
368,120,58875,5,0
368,272,59250,1,8
368,120,59625,1,8
368,272,60000,1,4
256,192,60375,5,4
216,176,61125,1,4
216,136,61875,1,4
256,120,62625,1,4
296,136,63375,1,4
296,176,64125,1,4
320,208,64875,1,4
344,176,65625,1,4
344,136,66375,1,4
376,112,67125,1,4
408,136,67875,1,4
408,176,68625,1,4
312,192,69000,6,0,B|312:304,1,100,2|2
312,192,69750,1,0
216,104,70312,1,2
272,56,70687,1,2
328,104,71062,1,0
328,104,71156,1,0
328,104,71250,1,0
256,160,71625,1,8
256,232,72000,6,0,L|248:296|152:296|112:232|112:152|160:88|360:88|392:120|392:184|392:216|312:216|320:216,1,800,2|2
208,184,83625,5,0
240,192,83812,1,2
272,184,84000,2,0,L|336:208,1,50,4|0
392,184,84750,2,0,L|456:208,1,50,8|0
384,256,85500,1,0
312,256,85875,1,0
240,256,86250,1,8
168,224,86625,5,0
168,224,87000,2,0,L|136:176|160:136,1,100,0|8
232,136,88125,1,0
304,136,88500,1,0
376,136,88875,1,0
408,152,89062,1,0
440,136,89250,1,8
440,208,89625,5,0
416,240,89812,1,0
392,272,90000,2,0,L|360:312,1,50,4|0
296,272,90750,2,0,L|264:312,1,50,8|0
200,280,91500,1,0
136,248,91875,1,0
72,208,92250,1,8
136,168,92625,5,0
136,168,93000,2,0,L|176:136|168:80,1,100,0|8
224,48,94125,5,0
320,152,94687,1,0
256,192,94875,1,0
320,152,95062,1,0
256,192,95250,1,8
256,264,95437,1,8
328,256,95625,1,8
360,248,95718,1,0
392,240,95812,1,8
424,232,95906,1,0
456,224,96000,1,4
456,152,96187,6,0,L|392:136,1,50,4|0
336,120,96562,1,4
264,104,96750,1,0
192,88,96937,1,4
120,72,97125,2,0,L|80:88,4,25,2|0|2|0|2
128,144,97687,5,4
192,176,97875,1,0
192,176,98062,1,4
192,248,98250,1,0
192,248,98437,1,4
192,320,98625,1,2
192,320,98718,1,0
192,320,98812,1,2
192,320,98906,1,0
192,320,99000,1,2
264,328,99187,6,0,L|312:312,1,50,4|0
384,296,99562,2,0,L|352:240,1,50,4|0
288,224,99937,1,4
248,160,100125,1,2
232,128,100218,1,0
200,112,100312,1,2
168,88,100406,1,0
168,88,100500,1,2
96,120,100687,6,0,L|56:176,3,50,4|0|4|0
104,224,101437,1,4
144,288,101625,2,0,L|120:312,4,25,2|0|2|0|2
184,144,102375,5,0
256,152,102562,1,0
328,160,102750,1,0
400,168,102937,1,0
472,176,103125,5,2
472,192,103312,1,0
472,208,103500,1,2
328,240,103875,5,0
256,248,104062,1,0
184,256,104250,1,0
112,264,104437,1,0
40,272,104625,5,2
40,288,104812,1,0
40,304,105000,1,2
144,192,105375,5,0
216,192,105562,1,0
256,128,105750,1,0
296,192,105937,1,0
368,192,106125,1,2
368,192,106312,1,0
440,192,106500,5,12
440,200,106875,1,12
440,208,107250,1,12
440,216,107625,1,12
440,64,108000,5,6
