osu file format v13

[General]
AudioFilename: following stanley.mp3
AudioLeadIn: 0
PreviewTime: 3213
Countdown: 1
SampleSet: None
StackLeniency: 0.7
Mode: 0
LetterboxInBreaks: 1
WidescreenStoryboard: 1

[Editor]
Bookmarks: 16013,28813,46413,59213,72013
DistanceSpacing: 2
BeatDivisor: 3
GridSize: 4
TimelineZoom: 2.1

[Metadata]
Title:Following Stanley
TitleUnicode:Following Stanley
Artist:The Blake Robinson Synthetic Orchestra
ArtistUnicode:The Blake Robinson Synthetic Orchestra
Creator:PcBoy111
Version:Damdadaadam daadamdaa AR9
Source:The Stanley Parable
Tags:the line tm
BeatmapID:503315
BeatmapSetID:214152

[Difficulty]
HPDrainRate:7
CircleSize:4
OverallDifficulty:7
ApproachRate:9
SliderMultiplier:2
SliderTickRate:1

[Events]
//Background and Video events
0,0,"bg.jpg",0,0
//Break Periods
//Storyboard Layer 0 (Background)
//Storyboard Layer 1 (Fail)
//Storyboard Layer 2 (Pass)
//Storyboard Layer 3 (Foreground)
//Storyboard Sound Samples
//Background Colour Transformations
3,100,163,162,255

[TimingPoints]
3213.0760959633,400,4,1,0,50,1,0
21613,-100,4,1,0,30,0,0
22013,-100,4,1,0,40,0,0
22146,-100,4,1,0,45,0,0
22279,-100,4,1,0,50,0,0
28013,-71.4285714285714,4,1,0,50,0,0
28413,-55.5555555555556,4,1,0,50,0,0
28813,-100,4,1,0,50,0,0
29213,-100,4,1,0,20,0,0
29346,-100,4,1,0,30,0,0
29479,-100,4,1,0,40,0,0
29613,-100,4,1,0,50,0,0
32413,-100,4,1,0,20,0,0
32546,-100,4,1,0,30,0,0
32679,-100,4,1,0,40,0,0
32813,-100,4,1,0,50,0,0
35346,-100,4,1,0,35,0,0
35613,-100,4,1,0,20,0,0
35746,-100,4,1,0,30,0,0
35879,-100,4,1,0,40,0,0
36013,-100,4,1,0,50,0,0
38813,-100,4,1,0,20,0,0
38946,-100,4,1,0,30,0,0
39079,-100,4,1,0,40,0,0
39213,-100,4,1,0,50,0,0
46013,-100,4,1,0,20,0,0
46146,-100,4,1,0,25,0,0
46213,-100,4,1,0,30,0,0
46346,-100,4,1,0,40,0,0
46413,-100,4,1,0,50,0,0
64813,-100,4,1,0,30,0,0
65213,-100,4,1,0,40,0,0
65346,-100,4,1,0,45,0,0
65479,-100,4,1,0,50,0,0
72413,-100,4,1,0,20,0,0
72546,-100,4,1,0,30,0,0
72679,-100,4,1,0,40,0,0
72813,-100,4,1,0,50,0,0
75613,-100,4,1,0,20,0,0
75746,-100,4,1,0,30,0,0
75879,-100,4,1,0,40,0,0
76013,-100,4,1,0,50,0,0
78546,-100,4,1,0,35,0,0
78813,-100,4,1,0,20,0,0
78946,-100,4,1,0,30,0,0
79079,-100,4,1,0,40,0,0
79213,-100,4,1,0,50,0,0
82013,-100,4,1,0,20,0,0
82146,-100,4,1,0,30,0,0
82279,-100,4,1,0,40,0,0
82413,-100,4,1,0,50,0,0
85079,-100,4,1,0,30,0,0
85213,-100,4,1,0,45,0,0
85279,-100,4,1,0,30,0,0
85613,-100,4,1,0,45,0,0
85679,-100,4,1,0,35,0,0
85946,-100,4,1,0,45,0,0
86213,-100,4,1,0,50,0,0
86346,-100,4,1,0,55,0,0

[HitObjects]
104,300,3213,5,0,0:0:0:0:
388,256,3613,2,0,B|336:248|336:248|320:240|328:200|328:200|320:208|320:208|312:196|312:196|312:168,1,133.333333333333,0|0,0:0|0:0,0:0:0:0:
312,176,4013,1,8,0:0:0:0:
60,336,4413,1,0,0:0:0:0:
156,52,4813,1,8,0:0:0:0:
260,332,5213,1,0,0:0:0:0:
80,92,5613,1,8,0:0:0:0:
440,324,6413,5,4,0:0:0:0:
328,48,6813,2,0,B|328:72|328:72|312:72|312:72|324:80|324:80|296:92|320:120|320:120|320:136|268:140,1,133.333333333333,8|8,0:0|0:0,0:0:0:0:
281,138,7213,1,8,0:0:0:0:
48,328,7613,1,0,0:0:0:0:
256,112,8013,1,8,0:0:0:0:
460,332,8413,1,0,0:0:0:0:
172,244,8813,1,8,0:0:0:0:
400,52,9213,1,0,0:0:0:0:
296,336,9613,5,4,0:0:0:0:
56,156,10013,2,0,B|80:156|80:156|88:168|92:156|92:156|84:144|84:144|104:152|104:152|132:144|132:144|144:156|180:136,1,133.333333333333
172,139,10413,1,8,0:0:0:0:
428,296,10813,1,0,0:0:0:0:
256,48,11213,1,8,0:0:0:0:
356,332,11613,1,0,0:0:0:0:
436,44,12013,1,8,0:0:0:0:
72,328,12813,5,4,0:0:0:0:
172,44,13213,2,0,B|192:32|192:32|200:44|200:44|204:32|204:32|232:24|240:56|240:56|268:40|268:40|280:32|280:32|296:40|292:56,1,133.333333333333,8|8,0:0|0:0,0:0:0:0:
282,33,13613,1,8,0:0:0:0:
184,316,14013,1,0,0:0:0:0:
443,193,14413,1,8,0:0:0:0:
84,172,14813,1,0,0:0:0:0:
444,173,15213,1,8,0:0:0:0:
86,192,15613,1,0,0:0:0:0:
360,324,16013,6,0,P|356:288|344:260,1,66.6666666666667,0|0,0:0|0:0,0:0:0:0:
300,184,16279,1,0,0:0:0:0:
236,128,16413,1,8,0:0:0:0:
152,116,16546,1,0,0:0:0:0:
72,144,16679,1,0,0:0:0:0:
60,232,16813,2,0,P|60:268|68:304,1,66.6666666666667
120,180,17079,2,0,P|120:124|124:108,2,66.6666666666667,0|8|0,0:0|0:0|0:0,0:0:0:0:
128,268,17479,1,0,0:0:0:0:
196,320,17613,5,0,0:0:0:0:
284,312,17746,1,0,0:0:0:0:
364,276,17879,1,0,0:0:0:0:
408,200,18013,1,8,0:0:0:0:
420,116,18146,1,0,0:0:0:0:
400,32,18279,1,0,0:0:0:0:
316,48,18413,2,0,P|280:48|248:64,1,66.6666666666667
252,176,18679,2,0,P|288:176|320:160,1,66.6666666666667,0|8,0:0|0:0,0:0:0:0:
80,56,19213,5,4,0:0:0:0:
60,140,19346,1,0,0:0:0:0:
60,228,19479,1,0,0:0:0:0:
80,312,19613,2,0,P|112:324|160:328,2,66.6666666666667,8|0|0,0:0|0:0|0:0,0:0:0:0:
40,236,20013,1,0,0:0:0:0:
84,160,20146,1,0,0:0:0:0:
172,160,20279,1,0,0:0:0:0:
208,240,20413,2,0,P|188:280|160:304,2,66.6666666666667,8|0|0,0:0|0:0|0:0,0:0:0:0:
268,176,20813,5,0,0:0:0:0:
352,184,20946,1,0,0:0:0:0:
432,152,21079,1,0,0:0:0:0:
432,240,21213,2,0,P|400:264|372:276,1,66.6666666666667,8|0,0:0|0:0,0:0:0:0:
296,304,21479,1,0,0:0:0:0:
208,304,21613,2,0,P|172:300|144:288,2,66.6666666666667,0|8|8,0:0|0:0|0:0,0:0:0:0:
292,284,22013,2,0,P|324:264|344:236,2,66.6666666666667,8|8|8,0:0|0:0|0:0,0:0:0:0:
208,272,22413,5,4,0:0:0:0:
132,232,22546,1,0,0:0:0:0:
72,168,22679,1,0,0:0:0:0:
56,84,22813,2,0,P|96:88|124:104,1,66.6666666666667,8|0,0:0|0:0,0:0:0:0:
192,148,23079,1,0,0:0:0:0:
276,172,23213,2,0,P|312:176|344:176,1,66.6666666666667,8|0,0:0|0:0,0:0:0:0:
428,164,23479,1,0,0:0:0:0:
388,88,23613,2,0,L|320:88,2,66.6666666666667,8|0|8,0:0|0:0|0:0,0:0:0:0:
448,152,24013,5,0,0:0:0:0:
440,240,24146,1,0,0:0:0:0:
384,308,24279,1,0,0:0:0:0:
300,332,24413,2,0,P|264:340|232:336,2,66.6666666666667,8|0|8,0:0|0:0|0:0,0:0:0:0:
364,272,24813,1,8,0:0:0:0:
304,212,24946,1,0,0:0:0:0:
240,272,25079,1,8,0:0:0:0:
300,332,25213,2,0,P|336:340|368:336,2,66.6666666666667,8|0|0,0:0|0:0|0:0,0:0:0:0:
220,300,25613,6,0,P|188:280|164:252,2,66.6666666666667,4|0|0,0:0|0:0|0:0,0:0:0:0:
248,216,26013,2,0,P|224:196|200:160,2,66.6666666666667,8|0|0,0:0|0:0|0:0,0:0:0:0:
308,156,26413,2,0,P|316:112|328:80,1,66.6666666666667
408,108,26679,2,0,P|400:144|388:172,1,66.6666666666667,8|8,0:0|0:0,0:0:0:0:
336,244,26946,2,0,P|296:248|260:244,1,66.6666666666667
184,232,27213,5,4,0:0:0:0:
124,168,27346,1,0,0:0:0:0:
128,80,27479,1,8,0:0:0:0:
204,40,27613,2,0,P|216:72|216:120,1,66.6666666666667,4|0,0:0|0:0,0:0:0:0:
216,192,27879,1,8,0:0:0:0:
288,36,28013,6,0,P|300:68|300:148,1,93.3333304850261,4|0,0:0|0:0,0:0:0:0:
300,232,28279,1,8,0:0:0:0:
368,36,28413,6,0,P|384:80|388:160,1,119.999996337891,4|0,0:0|0:0,0:0:0:0:
380,276,28679,1,8,0:0:0:0:
232,324,28813,5,4,0:0:0:0:
88,192,29213,1,8,0:0:0:0:
132,116,29346,1,8,0:0:0:0:
200,64,29479,1,8,0:0:0:0:
284,44,29613,2,2,B|312:44|312:44|324:36|324:36|320:68|344:56|344:56|356:44|372:76|372:76|344:80|360:100|360:100|376:88|364:88|376:96|376:96|408:104|388:116|376:112|376:112|368:132|368:132|408:136|408:136|396:176|396:176|376:204|372:192|372:192|376:220|356:216|356:216|328:216,1,400,8|0,0:0|0:0,0:0:0:0:
116,324,30813,1,2,0:0:0:0:
156,68,31213,1,2,0:0:0:0:
416,60,31613,2,0,B|400:72|400:72|416:88|416:88|372:92|388:100|388:100|408:124|364:136|372:144|372:144|340:120|340:120|336:148,1,200,0|4,0:0|0:0,0:0:0:0:
80,192,32413,5,8,0:0:0:0:
140,132,32546,1,8,0:0:0:0:
168,228,32679,1,8,0:0:0:0:
224,128,32813,1,8,0:0:0:0:
376,340,33213,1,2,0:0:0:0:
300,92,33613,1,2,0:0:0:0:
92,240,34013,1,0,0:0:0:0:
136,128,34413,1,0,0:0:0:0:
224,208,34813,2,0,B|232:232|232:232|244:240|244:240|252:224|252:224|264:236|248:252|268:264|268:264|284:248|276:216|300:240|300:240|300:272|300:272|324:284,1,200,0|0,0:0|0:0,0:0:0:0:
388,316,35346,6,0,P|400:280|400:244,1,66.6666666666667
376,168,35613,1,8,0:0:0:0:
316,96,35746,1,8,0:0:0:0:
224,52,35879,1,8,0:0:0:0:
116,44,36013,1,8,0:0:0:0:
104,304,36413,2,2,B|128:288|128:288|132:320|132:320|136:304|152:280|152:280|152:328|152:328|172:304|196:304,1,200
280,316,36946,6,0,P|304:332|340:340,2,66.6666666666667,0|8|0,0:0|0:0|0:0,0:0:0:0:
192,312,37346,2,0,P|168:332|132:340,2,66.6666666666667,0|8|0,0:0|0:0|0:0,0:0:0:0:
252,244,37746,1,0,0:0:0:0:
272,160,37879,1,8,0:0:0:0:
296,76,38013,2,0,L|316:8,2,66.6666666666667,0|0|8,0:0|0:0|0:0,0:0:0:0:
272,160,38413,1,4,0:0:0:0:
72,324,38813,5,8,0:0:0:0:
116,244,38946,1,8,0:0:0:0:
216,244,39079,1,8,0:0:0:0:
276,152,39213,1,8,0:0:0:0:
460,336,39613,1,2,0:0:0:0:
272,160,40013,1,2,0:0:0:0:
80,336,40413,5,0,0:0:0:0:
120,80,40813,1,0,0:0:0:0:
256,300,41213,1,0,0:0:0:0:
392,76,41613,1,0,0:0:0:0:
160,196,42013,1,0,0:0:0:0:
408,276,42413,5,4,0:0:0:0:
304,136,42679,2,0,L|264:72,1,66.6666666666667,8|4,0:0|0:0,0:0:0:0:
200,240,43079,2,0,L|235:296,1,66.6666666666667,8|4,0:0|0:0,0:0:0:0:
144,148,43479,2,0,P|112:140|68:140,1,66.6666666666667,8|2,0:0|0:0,0:0:0:0:
232,60,43879,2,0,P|265:61|297:69,1,66.6666666666667,8|4,0:0|0:0,0:0:0:0:
380,224,44279,6,0,P|396:252|404:288,1,66.6666666666667,8|2,0:0|0:0,0:0:0:0:
232,304,44679,2,0,P|224:271|208:242,1,66.6666666666667,8|4,0:0|0:0,0:0:0:0:
160,76,45079,1,8,0:0:0:0:
248,80,45213,1,2,0:0:0:0:
328,108,45346,1,0,0:0:0:0:
400,156,45479,1,8,0:0:0:0:
440,232,45613,1,4,0:0:0:0:
284,308,45879,5,0,0:0:0:0:
204,296,46013,1,10,0:0:0:0:
196,287,46079,1,0,0:0:0:0:
189,279,46146,1,0,0:0:0:0:
183,269,46213,1,0,0:0:0:0:
178,260,46279,1,10,0:0:0:0:
173,249,46346,1,0,0:0:0:0:
169,239,46413,1,12,0:0:0:0:
72,68,46813,6,0,B|96:48|96:48|108:60|96:68|112:72|112:72|132:44|144:64|144:64|160:52|160:52|156:68|156:68|168:80,1,133.333333333333
163,72,47213,1,8,0:0:0:0:
284,304,47613,1,0,0:0:0:0:
412,76,48013,1,8,0:0:0:0:
180,192,48413,1,0,0:0:0:0:
420,296,48813,1,8,0:0:0:0:
100,104,49613,5,4,0:0:0:0:
328,228,50013,2,0,B|352:224|352:224|340:208|364:200|364:200|340:196|344:184|344:184|360:184|384:180|372:168|360:152|360:140,1,133.333333333333,8|8,0:0|0:0,0:0:0:0:
365,142,50413,1,8,0:0:0:0:
156,296,50813,1,0,0:0:0:0:
220,44,51213,1,8,0:0:0:0:
428,200,51613,1,0,0:0:0:0:
196,320,52013,1,8,0:0:0:0:
76,88,52413,1,0,0:0:0:0:
296,224,52813,5,4,0:0:0:0:
56,320,53213,2,0,B|56:300|56:300|72:304|72:280|56:272|56:272|80:264|92:280|96:260|96:260|80:244|104:236|104:236|116:240,1,133.333333333333
112,237,53613,1,8,0:0:0:0:
356,328,54013,1,0,0:0:0:0:
428,80,54413,1,8,0:0:0:0:
312,312,54813,1,0,0:0:0:0:
264,56,55213,1,8,0:0:0:0:
72,240,56013,5,4,0:0:0:0:
312,312,56413,2,0,B|320:328|320:328|332:308|344:320|352:312|352:312|364:320|356:288|356:288|372:292|396:296|396:296|396:280,1,133.333333333333,8|8,0:0|0:0,0:0:0:0:
399,274,56813,1,8,0:0:0:0:
260,56,57213,1,0,0:0:0:0:
152,292,57613,1,8,0:0:0:0:
76,44,58013,1,0,0:0:0:0:
296,184,58413,1,8,0:0:0:0:
80,328,58813,1,0,0:0:0:0:
340,308,59213,6,0,P|376:304|408:288,2,66.6666666666667,4|0|0,0:0|0:0|0:0,0:0:0:0:
252,312,59613,1,8,0:0:0:0:
168,288,59746,1,0,0:0:0:0:
96,240,59879,1,0,0:0:0:0:
56,164,60013,2,0,P|88:144|124:136,1,66.6666666666667
176,200,60279,1,0,0:0:0:0:
232,132,60413,2,0,P|268:124|304:128,2,66.6666666666667,8|0|0,0:0|0:0|0:0,0:0:0:0:
156,176,60813,5,0,0:0:0:0:
152,264,60946,1,0,0:0:0:0:
228,300,61079,1,0,0:0:0:0:
296,244,61213,1,8,0:0:0:0:
240,176,61346,2,0,P|248:140|272:112,1,66.6666666666667
352,120,61613,1,0,0:0:0:0:
420,172,61746,1,0,0:0:0:0:
440,256,61879,1,0,0:0:0:0:
428,344,62013,1,8,0:0:0:0:
168,336,62413,6,0,P|136:340|96:336,2,66.6666666666667,4|0|0,0:0|0:0|0:0,0:0:0:0:
244,292,62813,1,8,0:0:0:0:
288,220,62946,1,0,0:0:0:0:
260,140,63079,1,0,0:0:0:0:
184,100,63213,2,0,P|148:92|116:92,1,66.6666666666667
80,168,63479,2,0,P|124:176|152:176,1,66.6666666666667,0|8,0:0|0:0,0:0:0:0:
232,192,63746,1,0,0:0:0:0:
312,224,63879,1,0,0:0:0:0:
392,260,64013,6,0,P|376:296|352:320,2,66.6666666666667,0|0|0,0:0|0:0|0:0,0:0:0:0:
376,176,64413,1,8,0:0:0:0:
320,112,64546,1,0,0:0:0:0:
244,68,64679,1,0,0:0:0:0:
160,88,64813,2,0,P|172:120|192:152,1,66.6666666666667,0|8,0:0|0:0,0:0:0:0:
232,224,65079,1,8,0:0:0:0:
276,300,65213,2,0,P|320:304|352:292,2,66.6666666666667,8|8|8,0:0|0:0|0:0,0:0:0:0:
192,280,65613,5,4,0:0:0:0:
140,212,65746,1,0,0:0:0:0:
188,140,65879,1,0,0:0:0:0:
272,112,66013,2,0,P|292:140|296:176,2,66.6666666666667,8|0|0,0:0|0:0|0:0,0:0:0:0:
368,177,66413,2,0,P|375:144|392:116,2,66.6666666666667,8|0|0,0:0|0:0|0:0,0:0:0:0:
312,244,66813,2,0,P|296:276|272:304,2,66.6666666666667,8|0|8,0:0|0:0|0:0,0:0:0:0:
320,156,67213,5,0,0:0:0:0:
236,132,67346,1,0,0:0:0:0:
212,216,67479,1,0,0:0:0:0:
296,240,67613,2,0,P|328:256|368:264,1,66.6666666666667,8|0,0:0|0:0,0:0:0:0:
444,280,67879,1,8,0:0:0:0:
444,192,68013,2,0,P|436:152|424:124,2,66.6666666666667,8|0|8,0:0|0:0|0:0,0:0:0:0:
444,280,68413,1,8,0:0:0:0:
188,324,68813,5,4,0:0:0:0:
128,264,68946,1,0,0:0:0:0:
100,180,69079,1,0,0:0:0:0:
100,92,69213,2,0,P|84:48|68:28,2,66.6666666666667,8|0|8,0:0|0:0|0:0,0:0:0:0:
172,132,69613,2,0,P|190:160|200:192,2,66.6666666666667,8|0|8,0:0|0:0|0:0,0:0:0:0:
84,132,70013,1,8,0:0:0:0:
60,216,70146,1,0,0:0:0:0:
76,300,70279,1,8,0:0:0:0:
156,332,70413,5,4,0:0:0:0:
240,348,70546,1,0,0:0:0:0:
160,312,70679,1,8,0:0:0:0:
284,264,70813,5,4,0:0:0:0:
168,232,70946,1,0,0:0:0:0:
280,240,71079,1,8,0:0:0:0:
136,152,71213,6,0,P|96:160|64:176,2,66.6666666666667,4|0|8,0:0|0:0|0:0,0:0:0:0:
224,140,71613,5,4,0:0:0:0:
372,116,71746,1,0,0:0:0:0:
232,116,71879,1,8,0:0:0:0:
340,224,72013,5,4,0:0:0:0:
96,308,72413,1,8,0:0:0:0:
104,220,72546,1,8,0:0:0:0:
140,140,72679,1,8,0:0:0:0:
200,80,72813,2,2,B|220:52|220:52|232:64|240:52|240:52|232:88|252:72|252:72|276:60|272:84|272:84|328:80|328:80|304:108|304:108|328:116|312:132|368:136|368:136|344:156|356:172|368:188|368:188|348:192|348:192|340:216,1,400,8|0,0:0|0:0,0:0:0:0:
100,316,74013,1,2,0:0:0:0:
204,76,74413,1,2,0:0:0:0:
264,328,74813,2,0,B|276:304|276:304|284:320|296:312|296:312|284:292|304:304|304:304|328:284|304:288|304:288|328:272|352:280|352:280|328:252|328:252|328:244,1,200,0|4,0:0|0:0,0:0:0:0:
128,88,75613,5,8,0:0:0:0:
60,144,75746,1,8,0:0:0:0:
100,220,75879,1,8,0:0:0:0:
188,216,76013,1,8,0:0:0:0:
416,340,76413,1,2,0:0:0:0:
244,148,76813,1,2,0:0:0:0:
60,332,77213,1,0,0:0:0:0:
264,172,77613,1,0,0:0:0:0:
36,48,78013,2,0,B|56:28|56:28|48:64|48:64|60:56|72:40|72:40|64:68|88:64|80:56|80:56|100:40|104:72|104:72|88:76|112:84|112:84|116:84,1,200
124,172,78546,6,0,P|124:208|132:240,1,66.6666666666667
172,316,78813,1,8,0:0:0:0:
252,360,78946,1,8,0:0:0:0:
352,364,79079,1,8,0:0:0:0:
460,352,79213,1,8,0:0:0:0:
440,92,79613,2,2,B|424:84|416:96|416:96|420:116|400:104|400:104|408:72|380:96|380:96|392:120|368:120|368:120|352:96|332:120|332:120|344:148,1,200
356,228,80146,6,0,P|384:240|424:244,2,66.6666666666667,0|8|0,0:0|0:0|0:0,0:0:0:0:
272,200,80546,1,0,0:0:0:0:
192,164,80679,1,8,0:0:0:0:
128,104,80813,2,0,P|112:64|112:32,2,66.6666666666667,0|0|8,0:0|0:0|0:0,0:0:0:0:
108,188,81213,2,0,P|88:220|80:256,1,66.6666666666667,0|0,0:0|0:0,0:0:0:0:
68,332,81479,1,8,0:0:0:0:
144,288,81613,5,4,0:0:0:0:
404,304,82013,1,8,0:0:0:0:
460,236,82146,1,8,0:0:0:0:
400,176,82279,1,8,0:0:0:0:
452,104,82413,1,8,0:0:0:0:
196,56,82813,1,2,0:0:0:0:
148,312,83213,1,2,0:0:0:0:
388,208,83613,5,0,0:0:0:0:
108,200,84013,1,0,0:0:0:0:
376,60,84413,5,0,0:0:0:0:
240,328,84813,1,4,0:0:0:0:
96,96,85079,6,0,L|72:64,2,33.3333333333333,0|0|4,0:0|0:0|0:0,0:0:0:0:
288,264,85479,1,0,0:0:0:0:
288,264,85546,1,0,0:0:0:0:
288,264,85613,1,4,0:0:0:0:
216,192,85746,1,0,0:0:0:0:
232,92,85879,1,0,0:0:0:0:
324,52,86013,1,4,0:0:0:0:
408,104,86146,1,0,0:0:0:0:
396,204,86279,1,0,0:0:0:0:
308,256,86413,1,4,0:0:0:0:
72,312,86813,5,12,0:0:0:0:
176,252,86946,1,12,0:0:0:0:
88,168,87079,1,12,0:0:0:0:
196,112,87213,1,12,0:0:0:0:
