osu file format v5

[General]
AudioFilename: Grand Cross.mp3
AudioLeadIn: 0
PreviewTime: -1
Countdown: 1
SampleSet: Normal
StackLeniency: 0.7
Mode: 0
LetterboxInBreaks: 1

[Metadata]
Title:Grand Cross
Artist:The Black Mages
Creator:Jakeb89
Version:Normal
Source:
Tags:

[Difficulty]
HPDrainRate:3
CircleSize:5
OverallDifficulty:5
SliderMultiplier:1.4
SliderTickRate:2

[Events]
//Background and Video events
//Break Periods
2,61623,79150
2,112916,122095
2,139915,143567
2,161388,165040
//Storyboard Layer 0 (Background)
//Storyboard Layer 1 (Failing)
//Storyboard Layer 2 (Passing)
//Storyboard Layer 3 (Foreground)
//Storyboard Sound Samples
//Background Colour Transformations
3,100,163,162,255

[TimingPoints]
49423,999.960000000001,4,2,0,100,1
80350,631.547668951456,4,1,0,100,1

[HitObjects]
256,192,16424,1,0
320,96,17424,1,0
256,96,17924,1,0
192,96,18424,1,0
256,192,19424,1,0
256,128,19924,1,0
256,192,20424,1,0
160,128,21424,5,0
96,128,21924,1,0
64,192,22424,1,0
96,256,22924,1,0
160,256,23424,1,0
192,192,23924,1,0
256,192,24424,1,0
192,288,25423,5,0
256,256,25923,1,0
320,288,26423,1,0
256,256,26923,1,0
192,288,27423,1,0
256,256,27923,1,0
256,192,28423,1,0
352,256,29423,1,0
352,192,29923,1,0
352,128,30423,1,0
256,192,32423,5,0
320,96,33423,1,0
256,64,33922,1,0
192,96,34422,1,0
256,192,35423,1,0
256,128,35923,1,0
256,192,36422,1,0
160,128,37422,5,0
128,192,37922,1,0
160,256,38422,1,0
192,192,38923,1,0
160,128,39423,1,0
192,192,39923,1,0
256,192,40422,1,0
192,288,41422,5,0
256,320,41922,1,0
320,288,42422,1,0
256,256,42923,1,0
256,320,43423,1,0
256,256,43923,1,0
256,192,44422,1,0
352,256,45422,1,0
384,192,45922,1,0
352,128,46422,1,0
256,192,48423,5,0
256,96,49423,1,0
192,64,49923,1,0
128,64,50423,1,0
64,160,51423,1,0
128,192,51923,1,0
64,224,52423,1,0
128,320,53423,1,0
256,192,56423,5,0
256,96,57423,1,0
320,64,57923,1,0
384,64,58423,1,0
448,160,59423,1,0
384,192,59923,1,0
448,224,60423,1,0
384,320,61423,1,0
256,96,80350,5,0
256,128,80507,1,0
256,192,80823,1,0
256,288,81297,1,0
256,256,81455,1,0
256,192,81770,1,0
352,160,82244,2,0,C|352:224,1,35
256,96,82876,5,0
256,128,83033,1,0
256,192,83349,1,0
256,288,83823,1,0
256,256,83981,1,0
256,192,84296,1,0
160,160,84770,2,0,C|160:224,1,35
224,160,85402,5,0
224,160,85560,1,0
224,160,85876,1,0
288,224,86349,1,0
288,224,86507,1,0
288,224,86823,1,0
256,192,87928,5,0
256,192,88086,1,0
256,192,88402,1,0
256,192,88875,1,0
256,192,89033,1,0
256,192,89349,1,0
288,160,90454,6,0,C|352:128|416:160|448:224|416:288|352:320|288:288|256:224,1,490
224,224,92980,6,0,C|160:256|96:224|64:160|96:96|160:64|224:96|256:160,1,490
288,160,95507,6,0,C|352:128|416:160|448:224|416:288|352:320|288:288|256:224,1,490
224,128,98349,5,0
128,32,98980,1,0
32,128,99612,1,0
128,224,100243,1,0
192,192,100559,5,0
256,192,100875,1,0
416,192,101822,2,0,C|320:192,1,70
256,64,103085,5,0
256,128,103401,2,0,C|256:224,2,70
192,96,104348,1,0
192,160,104664,2,0,C|192:256,2,70
128,128,105611,6,0,C|128:224,1,70
320,192,106875,2,0,C|320:288,1,70
160,288,108138,6,0,C|64:288,1,70
128,224,108769,2,0,C|224:224,1,70
160,160,109401,1,0
256,192,109874,12,0,111927
256,192,112558,5,0
256,192,112716,1,0
256,192,123295,5,0
192,160,123611,2,0,C|192:128|192:128|224:128|224:128|224:96,1,105
288,128,124558,2,0,C|288:160|288:160|320:160|320:160|320:192,1,105
256,192,125347,5,0
224,192,125505,1,0
192,192,125663,1,0
160,192,125821,6,0,C|96:192|64:256|96:320|160:320|192:256,1,350
224,192,127716,1,0
256,128,128031,1,0
288,64,128347,5,0
352,64,128663,2,0,C|352:160,1,70
416,128,129294,1,0
416,192,129610,1,0
352,192,129926,2,0,C|352:288,1,70
288,256,130558,1,0
224,256,130873,5,0
160,256,131189,2,0,C|160:160,1,70
96,192,131821,1,0
96,128,132136,1,0
160,128,132452,2,0,C|160:32,1,70
224,64,133084,1,0
256,128,133400,5,0
224,192,133715,2,0,C|224:256,3,35
288,224,134505,2,0,C|288:160,4,35
288,288,135452,5,0
288,288,135610,2,0,C|192:288,1,70
256,224,136241,1,0
256,160,136557,2,0,C|256:96,3,35
192,128,137189,5,0
160,192,137505,1,0
160,192,137662,1,0
192,256,137978,5,0
192,256,138136,1,0
256,288,138452,1,0
256,288,138610,1,0
320,256,138926,5,0
320,256,139083,1,0
352,192,139399,1,0
320,128,139715,1,0
256,192,144767,5,0
256,192,145083,2,0,C|256:160|256:160|288:160|288:160|288:128|288:128,1,105
352,128,145873,1,0
352,128,146030,2,0,C|352:160|352:160|384:160|384:160|384:192|384:192,1,105
384,256,146820,5,0
352,256,146978,1,0
320,256,147136,1,0
288,256,147294,2,0,C|224:256|224:256|224:192|224:192|160:192,1,210
128,192,148557,5,0
192,192,148872,1,0
256,192,149188,1,0
320,192,149504,1,0
384,192,149820,6,0,C|384:32,1,140
256,32,151083,2,0,C|256:192,1,140
128,192,152346,2,0,C|128:32,1,140
192,192,153767,5,0
256,192,154083,1,0
256,192,154241,1,0
320,192,154556,1,0
384,192,154872,5,0
384,256,155188,2,0,C|256:256,1,105
279,256,155977,1,0
279,256,156135,2,0,C|160:256,1,105
128,256,156925,5,0
128,256,157083,2,0,C|128:128|128:128|256:128,1,280
320,128,158661,5,0
352,192,158977,1,0
352,192,159135,1,0
320,256,159451,5,0
320,256,159609,1,0
256,256,159925,1,0
256,256,160082,1,0
224,192,160398,5,0
224,192,160556,1,0
256,128,160872,1,0
288,192,161188,1,0
256,192,166240,5,0
320,192,166556,2,0,C|352:160|320:96|256:64|192:96|160:160|192:192,1,385
256,160,168766,5,0
320,192,169082,2,0,C|352:224|320:288|256:320|192:288|160:224|192:192,1,385
256,224,171292,5,0
256,128,171766,1,0
352,96,172240,1,0
352,192,172713,1,0
352,288,173187,1,0
288,288,173503,1,0
224,288,173819,5,0
128,288,174292,1,0
128,192,174766,1,0
128,96,175240,1,0
224,96,175713,1,0
224,160,176029,1,0
224,224,176345,5,0
288,224,176661,2,0,C|288:160,2,35
352,224,177292,2,0,C|352:288,2,35
352,160,177924,2,0,C|352:96,1,35
288,160,178397,2,0,C|288:96,2,35
288,160,178871,1,0
224,160,179187,6,0,C|224:96,2,35
224,224,179818,2,0,C|160:224,2,35
288,224,180450,2,0,C|352:224,1,35
288,288,180923,2,0,C|352:288,2,35
288,288,181397,1,0
224,224,181871,5,0
160,160,182344,1,0
96,96,182818,1,0
96,192,183292,1,0
96,256,183608,1,0
96,320,183923,5,0
192,320,184397,1,0
288,320,184871,1,0
384,320,185344,1,0
384,224,185818,2,0,C|384:128,1,70
320,160,186450,6,0,C|256:160,1,35
256,128,186765,2,0,C|192:128,1,35
192,96,187081,2,0,C|128:96,1,35
128,128,187397,2,0,C|64:128,1,35
64,160,187713,6,0,C|64:224,1,35
96,224,188028,2,0,C|160:224,1,35
160,192,188344,2,0,C|224:192,1,35
224,224,188660,2,0,C|288:224,1,35
288,192,188976,6,0,C|288:128|288:128|352:128|352:128,1,140
352,192,189923,2,0,C|352:256|352:256|288:256,1,140
224,256,190870,1,0
160,256,191186,6,0,C|160:192,1,35
128,192,191502,2,0,C|128:128,1,35
160,128,191818,2,0,C|160:64,1,35
192,64,192133,2,0,C|256:64,1,35
256,96,192449,6,0,C|256:160,1,35
288,160,192765,2,0,C|352:160,1,35
352,128,193081,2,0,C|352:64,1,35
384,64,193397,2,0,C|448:64,1,35
448,96,193712,6,0,C|448:160,2,35
448,96,194186,1,0
448,96,194344,1,0
384,96,194660,2,0,C|384:160,2,35
384,96,195133,1,0
384,96,195291,1,0
320,96,195607,5,0
256,96,195923,1,0
192,96,196238,1,0
128,96,196554,6,0,C|64:96|64:96|64:160|64:160|128:160,1,210
160,160,197817,2,0,C|224:160|224:160|224:224|224:224|160:224,1,210
128,224,199080,2,0,C|64:224|64:224|64:288|64:288|128:288,1,210
160,288,200344,6,0,C|160:352,1,35
224,288,200817,2,0,C|224:224,1,35
288,288,201291,2,0,C|288:352,1,35
320,288,201607,6,0,C|384:288|384:288|384:224|384:224|320:224,1,210
288,224,202870,2,0,C|224:224|224:224|224:160|224:160|288:160,1,210
320,160,204133,2,0,C|384:160|384:160|384:96|384:96|320:96,1,210
288,96,205396,2,0,C|288:32|288:32|224:32|224:32|224:96,1,210
256,128,206659,6,0,C|224:128|192:160|192:224|224:256|288:256|320:224,1,280
320,128,208554,1,0
192,128,209185,6,0,C|160:128|128:160|128:224|160:256|224:256|256:224,1,280
256,128,211080,1,0
128,128,211711,6,0,C|96:128|64:160|64:224|96:256|160:256|192:224,1,280
192,128,213606,1,0
192,224,214238,6,0,C|288:224,1,70
320,224,214869,1,0
320,160,215185,2,0,C|224:160,1,70
192,160,215816,1,0
192,96,216132,2,0,C|288:96,1,70
256,160,216764,1,0
256,224,217080,1,0
256,288,217395,6,0,C|320:96|320:96|384:96|384:64,1,315
256,160,219606,1,0
224,160,219764,1,0
192,160,219922,6,0,C|96:128|32:224|96:320|224:256,1,455
256,224,222448,1,0
96,96,223711,1,0
160,320,224974,1,0
384,256,226237,1,0
256,64,227500,6,0,C|256:128,1,35
256,128,227816,2,0,C|256:192,1,35
192,96,228447,2,0,C|192:160,1,35
192,160,228763,2,0,C|192:224,1,35
192,224,229079,2,0,C|192:256|192:288,1,35
128,192,229711,6,0,C|64:192,1,35
64,224,230026,2,0,C|64:288,1,35
96,288,230342,2,0,C|160:288,1,35
224,256,230974,5,0
320,288,231605,1,0
320,192,232237,1,0
320,96,232868,1,0
224,128,233500,1,0
128,96,234131,1,0
128,192,234763,1,0
128,288,235394,1,0
224,256,236026,1,0
256,192,237605,5,0
320,192,237921,1,0
384,192,238236,1,0
384,192,238394,1,0
448,192,238710,1,0
448,192,239026,1,0
256,192,240131,5,0
192,192,240447,1,0
128,192,240763,1,0
128,192,240920,1,0
64,192,241236,1,0
64,192,241552,1,0
256,192,242657,5,0
320,192,242973,1,0
384,192,243288,1,0
384,192,243446,1,0
448,192,243762,1,0
448,192,244078,1,0
416,128,244394,1,0
384,128,244552,1,0
352,128,244710,1,0
320,128,244868,1,0
288,128,245026,1,0
224,128,245341,1,0
192,128,245499,1,0
160,128,245657,1,0
128,128,245815,1,0
64,128,246131,2,0,C|64:256|64:256|192:256,1,280
