osu file format v5

[General]
AudioFilename: Battle, Scene II (FINAL FANTASY II).mp3
AudioLeadIn: 0
PreviewTime: -1
Countdown: 1
SampleSet: Normal
StackLeniency: 0.7
Mode: 0
LetterboxInBreaks: 1
EditorBookmarks: 44894,134000,197465

[Metadata]
Title:Battle, Scene II (FINAL FANTASY II)
Artist:The Black Mages
Creator:ArtichokX
Version:Normal
Source:
Tags:

[Difficulty]
HPDrainRate:7
CircleSize:4
OverallDifficulty:5
SliderMultiplier:1.4
SliderTickRate:4

[Events]
//Background and Video events
0,0,"Black Mages.JPG"
//Break Periods
2,36504,43250
2,126703,133200
2,149941,161184
2,179050,197164
//Storyboard Layer 0 (Background)
//Storyboard Layer 1 (Failing)
//Storyboard Layer 2 (Passing)
//Storyboard Layer 3 (Foreground)
//Storyboard Sound Samples
//Background Colour Transformations
3,100,0,0,0

[TimingPoints]
16316,499.722347328167,3,1,1,52,1

[HitObjects]
96,72,16316,2,0,B|216:72,1,105
344,72,17315,1,0
368,120,17565,1,0
336,168,17815,2,0,B|200:168,1,105
96,216,18814,1,0
72,264,19064,1,0
96,312,19314,2,0,B|216:312,1,105
344,312,20313,1,0
376,264,20563,1,0
344,216,20813,1,0
368,168,21063,2,0,B|72:168,1,280
416,72,23312,6,0,B|296:72,1,105
168,72,24311,1,0
144,120,24561,1,0
176,168,24811,2,0,B|312:168,1,105
416,216,25810,1,0
440,264,26060,1,0
416,312,26310,2,0,B|296:312,1,105
168,312,27309,1,0
136,264,27559,1,0
168,216,27809,1,0
144,168,28059,2,0,B|440:168,1,280
96,312,30308,6,0,B|216:312,1,105
344,312,31307,1,0
368,264,31557,1,0
336,216,31807,2,0,B|200:216,1,105
96,168,32806,1,0
72,120,33056,1,0
96,72,33306,2,0,B|216:72,1,105
344,72,34305,1,0
376,120,34555,1,0
344,168,34805,1,0
368,216,35055,2,0,B|72:216,1,280
256,32,44300,5,0
216,136,44800,1,0
280,224,45299,1,0
280,280,45549,1,0
328,248,45799,1,0
368,208,46049,1,0
408,168,46299,1,0
440,120,46549,2,0,B|296:120,1,140
256,96,47298,5,0
256,152,47548,1,0
256,208,47798,1,0
256,264,48048,1,0
256,320,48298,1,0
200,320,48548,1,0
88,320,49047,1,0
88,208,49547,5,0
88,152,49797,1,0
88,208,50047,1,0
88,152,50297,1,0
88,208,50546,2,0,B|344:208,1,245
416,208,51796,1,0
416,264,52046,1,0
312,264,52545,1,0
208,264,53045,1,0
256,264,53295,5,0
256,152,53795,1,0
256,96,54045,1,0
312,104,54294,2,0,B|312:24,1,70
360,64,54794,2,0,B|360:168,1,70
408,104,55294,2,0,B|408:8,1,70
456,64,55794,2,0,B|456:144,1,70
256,352,58292,5,0
216,248,58792,1,0
280,160,59291,1,0
280,104,59541,1,0
328,136,59791,1,0
368,176,60041,1,0
408,216,60291,1,0
440,264,60541,2,0,B|296:264,1,140
256,288,61290,5,0
256,232,61540,1,0
256,176,61790,1,0
256,120,62040,1,0
256,64,62290,1,0
200,64,62540,1,0
88,64,63039,1,0
88,176,63539,5,0
88,232,63789,1,0
88,176,64039,1,0
88,232,64289,1,0
88,176,64538,2,0,B|344:176,1,245
416,176,65788,1,0
416,120,66038,1,0
312,120,66537,1,0
208,120,67037,1,0
256,120,67287,5,0
256,232,67787,1,0
256,288,68037,1,0
312,280,68286,2,0,B|312:360,1,70
360,320,68786,2,0,B|360:216,1,70
408,280,69286,2,0,B|408:376,1,70
456,320,69786,2,0,B|456:240,1,70
216,152,71785,5,0
296,152,72035,1,0
296,232,72284,1,0
216,232,72534,1,0
216,152,72784,1,0
296,152,73034,1,0
296,232,73284,1,0
216,232,73534,1,0
216,152,73784,1,0
296,152,74033,1,0
296,232,74283,1,0
216,232,74533,2,0,B|216:151|216:151|304:151|304:151|304:240|304:240|200:240,1,350
104,264,76282,5,0
72,312,76532,1,0
128,312,76782,2,0,B|464:312|464:312|464:200,1,420
440,176,78531,1,0
400,216,78781,1,0
360,176,79031,1,0
320,136,79281,1,0
280,96,79530,1,0
240,136,79780,1,0
200,176,80030,1,0
160,216,80280,1,0
120,176,80530,1,0
232,184,81030,5,0
288,184,81279,1,0
376,184,81654,1,0
376,184,81779,1,0
376,184,81904,1,0
376,184,82029,1,0
376,296,82529,1,0
320,296,82779,2,0,B|168:296,1,140
120,296,83528,1,0
56,136,84278,6,0,B|104:208,3,70
152,200,85277,2,0,B|216:128,3,70
256,152,86277,2,0,B|304:224,3,70
416,192,87276,5,0
312,232,87776,1,0
224,168,88275,1,0
168,168,88525,1,0
200,120,88775,1,0
240,80,89025,1,0
280,40,89275,1,0
328,8,89525,2,0,B|328:152,1,140
352,192,90274,5,0
296,192,90524,1,0
240,192,90774,1,0
184,192,91024,1,0
128,192,91274,1,0
128,248,91524,1,0
128,360,92023,1,0
240,360,92523,5,0
296,360,92773,1,0
240,360,93023,1,0
296,360,93273,1,0
240,360,93522,2,0,B|240:104,1,245
240,32,94772,1,0
184,32,95022,1,0
184,136,95521,1,0
184,240,96021,1,0
344,184,96771,5,0
304,136,97021,1,0
272,184,97271,1,0
216,184,97520,1,0
176,144,97770,1,0
136,184,98020,1,0
96,224,98270,1,0
136,256,98520,1,0
184,288,98770,1,0
216,248,99020,1,0
256,352,101268,5,0
216,248,101768,1,0
280,160,102267,1,0
280,104,102517,1,0
328,136,102767,1,0
368,176,103017,1,0
408,216,103267,1,0
440,264,103517,2,0,B|296:264,1,140
256,288,104266,5,0
256,232,104516,1,0
256,176,104766,1,0
256,120,105016,1,0
256,64,105266,1,0
200,64,105516,1,0
88,64,106015,1,0
88,176,106515,5,0
88,232,106765,1,0
88,176,107015,1,0
88,232,107265,1,0
88,176,107514,2,0,B|344:176,1,245
416,176,108764,1,0
416,120,109014,1,0
312,120,109513,1,0
208,120,110013,1,0
264,280,110763,5,0
312,240,111013,1,0
264,208,111263,1,0
264,152,111512,1,0
304,112,111762,1,0
264,72,112012,1,0
224,32,112262,1,0
192,72,112512,1,0
160,120,112762,1,0
200,152,113012,1,0
296,152,114761,5,0
216,152,115011,1,0
216,232,115260,1,0
296,232,115510,1,0
296,152,115760,1,0
216,152,116010,1,0
216,232,116260,1,0
296,232,116510,1,0
296,152,116760,1,0
216,152,117009,1,0
216,232,117259,1,0
296,232,117509,2,0,B|296:151|296:151|208:151|208:151|208:240|208:240|312:240,1,350
408,264,119258,5,0
440,312,119508,1,0
384,312,119758,2,0,B|48:312|48:312|48:200,1,420
72,176,121507,1,0
112,216,121757,1,0
152,176,122007,1,0
192,136,122257,1,0
232,96,122506,1,0
272,136,122756,1,0
312,176,123006,1,0
352,216,123256,1,0
392,176,123506,1,0
280,184,124006,5,0
224,184,124255,1,0
136,184,124630,1,0
136,184,124755,1,0
136,184,124880,1,0
136,184,125005,1,0
136,264,125380,1,0
136,264,125505,1,0
136,264,125630,1,0
136,264,125755,1,0
240,288,126254,1,0
296,288,126504,1,0
256,192,134375,12,0,135749
256,192,136249,5,0
256,192,136749,1,0
256,192,137248,12,0,138248
256,192,138747,5,0
256,192,139247,12,0,140247
256,192,140746,5,0
184,272,141246,1,0
312,280,141746,1,0
256,192,142246,12,0,144244
256,192,144744,5,0
256,192,145744,5,0
192,288,146243,1,0
320,288,146743,1,0
192,200,147742,5,0
312,200,148242,1,0
256,272,148742,1,0
256,216,148992,1,0
256,160,149242,1,0
256,104,149492,1,0
256,48,149741,1,0
72,72,162234,5,0
152,72,162609,1,0
152,152,162984,1,0
232,152,163359,1,0
312,152,163734,5,0
224,152,164108,1,0
224,232,164483,1,0
136,232,164858,1,0
136,312,165233,5,0
216,312,165608,1,0
216,224,165982,1,0
296,232,166357,1,0
376,232,166732,5,0
408,280,166982,1,0
440,232,167232,2,0,B|440:160|440:160|360:160|360:160|360:96,1,210
360,72,168106,1,0
328,72,168231,2,0,B|40:72|40:72|40:152|40:152|144:152|144:152|144:224|144:224|216:224|216:224|216:144|216:144|336:144|336:144|336:192,1,840
336,192,171354,1,0
336,248,171604,1,0
336,304,171854,1,0
360,304,171979,1,0
408,272,172229,1,0
440,224,172479,1,0
440,192,172604,1,0
416,144,172854,1,0
360,144,173103,1,0
304,152,173353,1,0
288,176,173478,1,0
280,200,173603,1,0
288,224,173728,1,0
304,240,173853,1,0
328,256,173978,2,0,B|328:296,2,35
256,192,174603,12,0,178725
72,72,198214,5,0
240,72,198964,1,0
408,72,199714,1,0
336,152,200213,2,0,B|280:216,1,70
136,264,201213,2,0,B|368:264,1,210
320,96,202712,6,0,B|168:96,1,140
180,96,203462,2,0,B|336:96,1,140
360,136,204211,2,0,B|136:136,1,210
184,72,205710,2,0,B|328:72,1,140
368,112,206460,2,0,B|136:112,1,210
240,192,207959,1,0
328,336,208709,2,0,B|168:336,1,140
188,336,209458,2,0,B|336:336,1,140
416,312,210208,6,0,B|296:312,1,105
168,312,211207,1,0
144,264,211457,1,0
176,216,211707,2,0,B|312:216,1,105
416,168,212706,1,0
440,120,212956,1,0
416,72,213206,2,0,B|296:72,1,105
168,72,214205,1,0
136,120,214455,1,0
168,168,214705,1,0
144,216,214955,2,0,B|440:216,1,280
368,216,216204,5,0
312,216,216454,1,0
256,216,216704,1,0
200,216,216954,1,0
112,216,217329,2,0,B|240:216,1,105
144,192,218703,5,0
352,192,219078,1,0
256,104,220202,5,0
256,256,220577,1,0
208,104,222076,6,0,B|160:104|160:104|200:104|200:104|200:248|200:248|168:248|168:248|320:248|320:248|296:248|296:248|296:112|296:112|286:105|286:105|320:105|320:105|288:104,1,630
