osu file format v5

[General]
AudioFilename: FFVI - Battle.mp3
AudioLeadIn: 0
PreviewTime: -1
Countdown: 1
SampleSet: Normal

[Metadata]
Title:Battle Theme (Final Fantasy VI)
Artist:The Black Mages
Creator:BluePaladin25
Version:Normal

[Difficulty]
HPDrainRate:5
CircleSize:4
OverallDifficulty:5
SliderMultiplier:1.4
SliderTickRate:1

[Events]
//Background and Video events
0,0,"kefka bg.jpg"
//Break Periods
2,43836,50305
2,82935,97518
//Storyboard Layer 0 (Background)
//Storyboard Layer 1 (Failing)
//Storyboard Layer 2 (Passing)
//Storyboard Layer 3 (Foreground)
//Storyboard Sound Samples
//Background Colour Transformations
3,100,0,0,0

[TimingPoints]
8200,491.803278688525,4,1,0,100

[Colours]
Combo1 : 0,53,0
Combo2 : 73,73,73
Combo3 : 0,0,94
Combo4 : 98,0,0

[HitObjects]
64,96,8199,1,0
128,160,10167,1,0
192,224,12134,1,0
256,288,14101,1,0
320,224,16068,1,0
384,160,18036,1,0
448,96,20003,1,0
256,64,22954,1,0
256,160,23445,1,0
256,256,23937,1,4
256,192,24429,12,4,26642
160,96,27872,1,4
192,64,28118,1,4
288,64,28609,1,0
320,96,28855,1,0
416,224,29593,1,0
384,256,29839,1,0
288,288,30331,1,2
192,352,31068,5,0
128,352,31314,1,0
160,288,31560,1,0
96,288,31806,1,0
96,192,32298,1,2
160,64,33281,5,0
224,64,33527,1,0
288,64,33773,2,0,L|288:224,2,140
320,320,35740,5,0
192,320,36232,1,0
64,320,36724,1,0
64,192,37216,1,0
128,96,37708,2,2,B|256:96|192:192,3,140
320,160,39675,1,0
160,64,40904,5,0
224,64,41150,1,0
288,64,41396,1,0
352,64,41642,2,6,B|352:352|34:444|108:32|128:0,1,560
32,192,51478,6,0,B|128:96,1,70
128,96,51970,2,0,B|160:160,1,70
192,224,52462,2,0,B|256:160,2,70
192,288,53200,1,0
256,288,53445,6,2,B|364:288|352:160,1,140
352,128,54675,2,0,B|448:128,2,70
288,128,55413,1,0
256,96,55659,1,0
224,64,55904,1,0
128,64,56642,1,2
96,96,56888,1,2
96,160,57134,1,2
128,192,57380,6,0,B|320:320|448:288|480:192|480:96|448:32|416:64,1,490
384,64,59347,5,0
320,64,59593,1,0
256,64,59839,1,0
192,64,60085,1,0
128,64,60331,2,2,B|32:64,2,70
128,128,61068,1,0
128,192,61314,2,2,B|288:192,1,140
352,256,62298,2,2,B|192:256,1,140
160,256,63036,1,0
96,256,63281,2,2,B|128:96|224:64|352:96|192:192,1,350
192,256,64757,5,2
256,256,65003,1,2
320,256,65249,2,2,B|352:384|449:360|545:57|160:64,1,490
160,64,67216,6,0,B|64:64,2,70
160,128,67954,1,0
224,128,68200,2,0,B|320:128,2,70
224,192,68937,1,0
224,256,69183,1,0
320,256,69675,1,0
320,192,69921,1,0
160,320,70413,5,0
224,320,70659,1,0
288,320,70904,1,0
352,320,71150,2,0,B|448:320,2,70
352,256,71888,1,0
288,256,72134,2,0,B|192:256,2,70
288,192,72872,1,0
224,192,73118,1,0
160,192,73363,2,0,B|160:288,2,70
160,64,74347,5,0
224,64,74593,1,0
288,64,74839,1,0
352,64,75085,2,0,B|448:64,2,70
352,128,75822,1,0
288,128,76068,2,0,B|192:128,2,70
288,192,76806,1,0
224,192,77052,2,0,B|64:192,1,140
96,256,77790,1,0
160,352,78281,6,0,B|256:352,1,70
288,352,78773,1,0
352,352,79019,2,0,B|448:352,2,70
352,288,79757,1,0
288,288,80003,2,0,B|192:288,2,70
288,224,80740,1,0
256,192,80986,12,0,82708
96,192,98691,6,0,C|224:64|320:224|416:128|448:96,2,560
64,256,102872,1,0
128,256,103118,1,0
192,256,103363,1,0
256,256,103609,1,0
256,320,103855,2,0,C|96:320,2,140
256,192,105085,12,0,106314
224,32,106560,6,2,C|128:160|256:160|192:256|352:320,2,560
288,32,110740,2,0,C|384:32,1,70
352,96,111232,1,0
352,160,111478,1,0
352,224,111724,1,0
256,288,112216,5,0
128,288,112708,2,0,C|32:288,1,70
64,224,113200,2,0,C|160:224,1,70
192,224,113691,1,0
192,64,114429,5,0
256,64,114675,1,0
320,64,114921,1,0
352,96,115167,1,0
352,160,115413,1,0
352,224,115659,1,0
320,256,115904,1,0
256,256,116150,1,0
224,224,116396,1,0
64,160,117134,5,0
192,64,117872,5,0
352,64,118609,5,0
480,160,119347,5,0
416,256,119839,1,0
320,320,120331,1,0
160,288,121068,5,0
256,160,121806,5,0
256,192,122298,12,0,128200
