osu file format v14

[General]
AudioFilename: The Black Dahlia Murder - I Will Return.mp3
AudioLeadIn: 0
PreviewTime: -1
Countdown: 0
SampleSet: Normal
StackLeniency: 0.7
Mode: 1
LetterboxInBreaks: 0
WidescreenStoryboard: 0

[Editor]
DistanceSpacing: 0.9
BeatDivisor: 4
GridSize: 4
TimelineZoom: 1

[Metadata]
Title:I Will Return
TitleUnicode:I Will Return
Artist:The Black Dahlia Murder
ArtistUnicode:The Black Dahlia Murder
Creator:goatlife
Version:Death Oni
Source:
Tags:Metal the black dahlia murder goatlife
BeatmapID:677303
BeatmapSetID:302122

[Difficulty]
HPDrainRate:4
CircleSize:5
OverallDifficulty:5
ApproachRate:5
SliderMultiplier:1.4
SliderTickRate:1

[Events]
//Background and Video events
0,0,"maxresdefault.jpg",0,0
//Break Periods
//Storyboard Layer 0 (Background)
//Storyboard Layer 1 (Fail)
//Storyboard Layer 2 (Pass)
//Storyboard Layer 3 (Foreground)
//Storyboard Sound Samples

[TimingPoints]
1662,465.116279069767,4,1,0,100,1,0
33817,277.780696554279,4,1,0,100,1,0
104998,-100,4,1,0,100,0,1
120484,-100,4,1,0,100,0,0
226041,-100,4,1,0,100,0,1
259374,-100,4,1,0,100,0,0
282547,465.116279069767,4,1,0,100,1,0

[HitObjects]
316,224,731,5,0,0:0:0:0:
316,224,886,1,0,0:0:0:0:
316,224,1041,1,0,0:0:0:0:
316,224,1196,1,0,0:0:0:0:
316,224,1662,1,8,0:0:0:0:
316,224,2127,1,8,0:0:0:0:
324,216,2592,1,0,0:0:0:0:
304,224,2747,1,0,0:0:0:0:
304,224,2902,1,0,0:0:0:0:
304,224,3057,1,0,0:0:0:0:
304,224,3212,1,0,0:0:0:0:
304,224,3367,1,0,0:0:0:0:
296,208,3522,1,0,0:0:0:0:
304,224,3677,1,0,0:0:0:0:
304,224,3832,1,0,0:0:0:0:
304,224,3987,1,0,0:0:0:0:
304,224,4142,1,0,0:0:0:0:
304,224,4297,1,0,0:0:0:0:
304,224,4452,1,0,0:0:0:0:
304,224,4607,1,0,0:0:0:0:
304,224,4762,1,0,0:0:0:0:
304,224,4917,1,0,0:0:0:0:
304,224,5382,1,8,0:0:0:0:
304,224,5848,1,8,0:0:0:0:
304,224,6313,1,12,0:0:0:0:
296,228,6468,1,0,0:0:0:0:
296,228,6623,1,0,0:0:0:0:
304,224,6778,1,12,0:0:0:0:
304,224,7243,1,12,0:0:0:0:
296,228,7398,1,0,0:0:0:0:
296,228,7553,1,0,0:0:0:0:
300,216,7708,1,8,0:0:0:0:
292,224,7786,1,8,0:0:0:0:
292,220,7863,1,8,0:0:0:0:
292,220,7941,1,8,0:0:0:0:
292,220,8018,1,8,0:0:0:0:
292,224,8096,1,8,0:0:0:0:
280,256,8173,1,0,0:0:0:0:
296,228,8251,1,0,0:0:0:0:
296,228,8328,1,0,0:0:0:0:
296,228,8406,1,0,0:0:0:0:
296,228,8483,1,0,0:0:0:0:
292,232,8561,1,0,0:0:0:0:
292,232,8638,1,0,0:0:0:0:
292,232,8716,1,0,0:0:0:0:
292,232,8793,1,0,0:0:0:0:
292,232,8871,1,0,0:0:0:0:
292,232,8948,1,0,0:0:0:0:
288,248,9026,1,0,0:0:0:0:
280,208,9103,1,8,0:0:0:0:
292,236,9568,1,8,0:0:0:0:
280,232,10034,1,0,0:0:0:0:
280,232,10189,1,0,0:0:0:0:
280,232,10344,1,0,0:0:0:0:
280,232,10499,1,0,0:0:0:0:
280,232,10654,1,0,0:0:0:0:
280,232,10809,1,0,0:0:0:0:
276,232,10964,1,0,0:0:0:0:
280,232,11119,1,0,0:0:0:0:
280,232,11274,1,0,0:0:0:0:
280,232,11429,1,0,0:0:0:0:
280,232,11584,1,0,0:0:0:0:
280,232,11739,1,0,0:0:0:0:
280,232,11894,1,0,0:0:0:0:
280,232,12049,1,0,0:0:0:0:
280,232,12204,1,0,0:0:0:0:
280,232,12359,1,0,0:0:0:0:
268,216,12824,1,8,0:0:0:0:
268,216,13289,1,8,0:0:0:0:
284,224,13755,1,12,0:0:0:0:
280,232,13910,1,0,0:0:0:0:
280,232,14065,1,0,0:0:0:0:
284,216,14220,1,12,0:0:0:0:
284,224,14685,1,12,0:0:0:0:
276,232,14840,1,0,0:0:0:0:
276,232,14995,1,0,0:0:0:0:
284,216,15150,1,12,0:0:0:0:
296,212,15460,1,8,0:0:0:0:
260,216,15615,1,0,0:0:0:0:
260,216,15770,1,0,0:0:0:0:
260,216,15925,1,0,0:0:0:0:
260,216,16080,1,0,0:0:0:0:
296,216,16545,1,8,0:0:0:0:
296,216,17010,1,8,0:0:0:0:
292,224,17475,1,0,0:0:0:0:
292,224,17630,1,0,0:0:0:0:
292,224,17786,1,0,0:0:0:0:
292,224,17941,1,0,0:0:0:0:
292,224,18096,1,0,0:0:0:0:
292,224,18251,1,0,0:0:0:0:
292,224,18406,1,0,0:0:0:0:
292,224,18561,1,0,0:0:0:0:
292,224,18716,1,0,0:0:0:0:
292,224,18871,1,0,0:0:0:0:
292,224,19026,1,0,0:0:0:0:
292,224,19181,1,0,0:0:0:0:
292,224,19336,1,0,0:0:0:0:
292,224,19491,1,0,0:0:0:0:
292,224,19646,1,0,0:0:0:0:
292,224,19801,1,0,0:0:0:0:
296,232,20266,1,8,0:0:0:0:
296,232,20731,1,8,0:0:0:0:
296,228,21196,1,8,0:0:0:0:
296,228,21274,1,8,0:0:0:0:
296,228,21351,1,8,0:0:0:0:
296,228,21429,1,8,0:0:0:0:
296,228,21506,1,8,0:0:0:0:
296,228,21584,1,8,0:0:0:0:
320,228,21661,1,0,0:0:0:0:
320,228,21739,1,0,0:0:0:0:
320,228,21817,1,0,0:0:0:0:
320,228,21894,1,0,0:0:0:0:
320,228,21972,1,0,0:0:0:0:
320,228,22049,1,0,0:0:0:0:
304,220,22127,1,8,0:0:0:0:
304,220,22204,1,8,0:0:0:0:
304,220,22282,1,8,0:0:0:0:
308,220,22359,1,8,0:0:0:0:
308,220,22437,1,8,0:0:0:0:
336,208,22514,1,8,0:0:0:0:
304,216,22592,1,0,0:0:0:0:
304,216,22669,1,0,0:0:0:0:
340,208,22747,1,0,0:0:0:0:
340,208,22824,1,0,0:0:0:0:
304,220,22902,1,0,0:0:0:0:
320,224,23057,1,0,0:0:0:0:
320,228,23212,1,0,0:0:0:0:
320,228,23367,1,0,0:0:0:0:
292,228,23522,1,0,0:0:0:0:
292,228,23677,1,0,0:0:0:0:
292,228,23832,1,0,0:0:0:0:
284,220,23987,1,8,0:0:0:0:
284,220,24452,1,8,0:0:0:0:
308,232,24917,1,0,0:0:0:0:
308,232,25072,1,0,0:0:0:0:
308,232,25227,1,0,0:0:0:0:
308,232,25382,1,0,0:0:0:0:
308,232,25537,1,0,0:0:0:0:
308,232,25693,1,0,0:0:0:0:
308,232,25848,1,0,0:0:0:0:
308,232,26003,1,0,0:0:0:0:
308,232,26158,1,0,0:0:0:0:
308,232,26313,1,0,0:0:0:0:
308,232,26468,1,0,0:0:0:0:
308,232,26623,1,0,0:0:0:0:
308,232,26778,1,0,0:0:0:0:
308,232,26933,1,0,0:0:0:0:
308,232,27088,1,0,0:0:0:0:
308,232,27243,1,0,0:0:0:0:
300,232,27708,1,8,0:0:0:0:
300,232,28173,1,8,0:0:0:0:
292,236,28638,1,12,0:0:0:0:
312,244,28793,1,0,0:0:0:0:
312,244,28948,1,0,0:0:0:0:
292,236,29103,1,12,0:0:0:0:
292,236,29568,1,12,0:0:0:0:
312,244,29724,1,0,0:0:0:0:
312,244,29879,1,0,0:0:0:0:
292,236,30034,1,12,0:0:0:0:
292,224,30189,1,0,0:0:0:0:
288,224,30499,1,12,0:0:0:0:
256,192,30809,12,0,32359,0:0:0:0:
256,196,32592,5,8,0:0:0:0:
256,196,32669,1,8,0:0:0:0:
256,196,32747,1,8,0:0:0:0:
256,196,32824,1,8,0:0:0:0:
256,212,32902,1,0,0:0:0:0:
256,212,32979,1,0,0:0:0:0:
256,212,33057,1,0,0:0:0:0:
256,212,33134,1,0,0:0:0:0:
256,196,33212,1,8,0:0:0:0:
256,196,33289,1,8,0:0:0:0:
256,196,33367,1,8,0:0:0:0:
256,196,33444,1,8,0:0:0:0:
280,192,33522,1,0,0:0:0:0:
280,196,33599,1,0,0:0:0:0:
280,196,33677,1,0,0:0:0:0:
280,196,33755,1,0,0:0:0:0:
280,192,33817,1,0,0:0:0:0:
240,200,35900,1,0,0:0:0:0:
240,200,35969,1,0,0:0:0:0:
232,200,36039,1,8,0:0:0:0:
244,184,37150,1,8,0:0:0:0:
244,188,37219,1,8,0:0:0:0:
244,188,37289,1,8,0:0:0:0:
244,188,37358,1,8,0:0:0:0:
248,188,37428,1,0,0:0:0:0:
224,156,37567,5,8,0:0:0:0:
264,188,37705,1,0,0:0:0:0:
264,188,37914,1,0,0:0:0:0:
264,188,38122,1,0,0:0:0:0:
248,192,38261,1,12,0:0:0:0:
268,188,39372,1,8,0:0:0:0:
268,188,39442,1,8,0:0:0:0:
268,188,39511,1,8,0:0:0:0:
268,188,39580,1,8,0:0:0:0:
280,192,39650,1,0,0:0:0:0:
280,192,39719,1,0,0:0:0:0:
280,192,39789,1,0,0:0:0:0:
280,192,39858,1,0,0:0:0:0:
292,180,39928,1,8,0:0:0:0:
288,180,39997,1,8,0:0:0:0:
288,176,40067,1,8,0:0:0:0:
280,172,40136,1,8,0:0:0:0:
276,184,40205,1,0,0:0:0:0:
288,180,40275,1,0,0:0:0:0:
288,176,40344,1,0,0:0:0:0:
288,172,40414,1,0,0:0:0:0:
288,168,40483,1,0,0:0:0:0:
268,178,40761,1,0,0:0:0:0:
268,188,40830,1,8,0:0:0:0:
278,178,40900,1,0,0:0:0:0:
302,190,40969,1,8,0:0:0:0:
280,178,41039,1,0,0:0:0:0:
304,189,41108,1,8,0:0:0:0:
281,178,41178,1,0,0:0:0:0:
304,189,41247,1,8,0:0:0:0:
281,177,41317,1,0,0:0:0:0:
304,188,41386,1,8,0:0:0:0:
282,176,41455,1,0,0:0:0:0:
304,188,41525,1,8,0:0:0:0:
301,186,41594,1,8,0:0:0:0:
293,184,41664,1,8,0:0:0:0:
292,180,41733,1,8,0:0:0:0:
293,180,41803,1,8,0:0:0:0:
278,175,41872,1,0,0:0:0:0:
301,180,41942,1,0,0:0:0:0:
301,180,42011,1,0,0:0:0:0:
302,180,42080,1,0,0:0:0:0:
310,172,42150,1,8,0:0:0:0:
310,172,42219,1,8,0:0:0:0:
310,172,42289,1,8,0:0:0:0:
310,172,42358,1,8,0:0:0:0:
297,188,42428,1,0,0:0:0:0:
296,179,42497,1,0,0:0:0:0:
300,176,42567,1,0,0:0:0:0:
300,175,42636,1,0,0:0:0:0:
300,175,42705,1,0,0:0:0:0:
268,178,42983,1,0,0:0:0:0:
268,188,43052,1,8,0:0:0:0:
278,178,43122,1,0,0:0:0:0:
302,190,43191,1,8,0:0:0:0:
280,178,43261,1,0,0:0:0:0:
304,189,43330,1,8,0:0:0:0:
281,178,43400,1,0,0:0:0:0:
304,189,43469,1,8,0:0:0:0:
281,177,43539,1,0,0:0:0:0:
304,188,43608,1,8,0:0:0:0:
282,176,43677,1,0,0:0:0:0:
290,177,43747,1,8,0:0:0:0:
268,178,43817,1,0,0:0:0:0:
268,188,43886,1,8,0:0:0:0:
278,178,43956,1,0,0:0:0:0:
302,190,44025,1,8,0:0:0:0:
280,178,44095,1,0,0:0:0:0:
304,189,44164,1,8,0:0:0:0:
281,178,44234,1,0,0:0:0:0:
304,189,44303,1,8,0:0:0:0:
281,177,44373,1,0,0:0:0:0:
304,188,44442,1,8,0:0:0:0:
282,176,44511,1,0,0:0:0:0:
292,183,44581,1,8,0:0:0:0:
268,178,44650,1,0,0:0:0:0:
268,188,44719,1,8,0:0:0:0:
278,178,44789,1,0,0:0:0:0:
302,190,44858,1,8,0:0:0:0:
280,178,44928,1,0,0:0:0:0:
304,189,44997,1,8,0:0:0:0:
281,178,45067,1,0,0:0:0:0:
304,189,45136,1,8,0:0:0:0:
281,177,45206,1,0,0:0:0:0:
304,188,45275,1,8,0:0:0:0:
282,176,45344,1,0,0:0:0:0:
285,188,45414,1,8,0:0:0:0:
268,178,45483,1,0,0:0:0:0:
268,188,45552,1,8,0:0:0:0:
278,178,45622,1,0,0:0:0:0:
302,190,45691,1,8,0:0:0:0:
280,178,45761,1,0,0:0:0:0:
304,189,45830,1,8,0:0:0:0:
281,178,45900,1,0,0:0:0:0:
281,187,45969,1,8,0:0:0:0:
261,179,46039,1,0,0:0:0:0:
321,192,46108,1,8,0:0:0:0:
322,187,46178,1,0,0:0:0:0:
310,187,46247,1,8,0:0:0:0:
327,188,46317,1,0,0:0:0:0:
332,191,46386,1,8,0:0:0:0:
310,169,46456,1,0,0:0:0:0:
255,184,46594,1,8,0:0:0:0:
302,174,46664,1,8,0:0:0:0:
302,175,46733,1,8,0:0:0:0:
304,176,46803,1,8,0:0:0:0:
283,173,46872,1,0,0:0:0:0:
285,173,46942,1,0,0:0:0:0:
285,173,47011,1,0,0:0:0:0:
285,174,47081,1,0,0:0:0:0:
282,176,47150,1,0,0:0:0:0:
270,193,47706,1,8,0:0:0:0:
268,193,48261,1,8,0:0:0:0:
268,193,48817,1,8,0:0:0:0:
291,196,49372,1,0,0:0:0:0:
270,199,49928,1,0,0:0:0:0:
271,183,50483,1,0,0:0:0:0:
270,199,51039,1,0,0:0:0:0:
270,199,51594,1,12,0:0:0:0:
271,208,51733,1,12,0:0:0:0:
286,197,51872,1,12,0:0:0:0:
261,197,52150,1,0,0:0:0:0:
264,199,52219,1,0,0:0:0:0:
271,198,52289,1,0,0:0:0:0:
261,197,52428,1,0,0:0:0:0:
264,199,52497,1,0,0:0:0:0:
271,198,52567,1,0,0:0:0:0:
261,197,52706,1,0,0:0:0:0:
264,199,52775,1,0,0:0:0:0:
271,198,52845,1,0,0:0:0:0:
293,247,52983,1,0,0:0:0:0:
299,244,53122,1,0,0:0:0:0:
300,243,53261,1,0,0:0:0:0:
300,243,53400,1,0,0:0:0:0:
286,227,53539,1,0,0:0:0:0:
290,224,53678,1,0,0:0:0:0:
279,209,53817,1,8,0:0:0:0:
291,201,53956,1,0,0:0:0:0:
269,220,54094,1,8,0:0:0:0:
302,225,54372,1,0,0:0:0:0:
302,225,54442,1,0,0:0:0:0:
307,237,54511,1,0,0:0:0:0:
302,225,54581,1,0,0:0:0:0:
311,237,54650,1,0,0:0:0:0:
311,237,54719,1,0,0:0:0:0:
312,236,54789,1,0,0:0:0:0:
313,233,54858,1,0,0:0:0:0:
290,212,54928,1,8,0:0:0:0:
316,250,55483,1,0,0:0:0:0:
304,245,55761,1,0,0:0:0:0:
274,213,56039,1,8,0:0:0:0:
310,216,56178,1,0,0:0:0:0:
300,231,56317,1,8,0:0:0:0:
261,197,56595,1,0,0:0:0:0:
264,199,56664,1,0,0:0:0:0:
271,198,56734,1,0,0:0:0:0:
261,197,56873,1,0,0:0:0:0:
264,199,56942,1,0,0:0:0:0:
271,198,57012,1,0,0:0:0:0:
261,197,57151,1,0,0:0:0:0:
264,199,57220,1,0,0:0:0:0:
271,198,57290,1,0,0:0:0:0:
270,193,57428,1,0,0:0:0:0:
260,205,57567,1,0,0:0:0:0:
271,201,57706,1,0,0:0:0:0:
271,201,57845,1,0,0:0:0:0:
271,201,57983,1,0,0:0:0:0:
271,201,58122,1,0,0:0:0:0:
260,205,58261,1,12,0:0:0:0:
267,192,58817,1,8,0:0:0:0:
266,194,58886,1,8,0:0:0:0:
261,197,58956,1,8,0:0:0:0:
261,194,59025,1,8,0:0:0:0:
259,194,59095,1,8,0:0:0:0:
241,191,59164,1,8,0:0:0:0:
241,191,59233,1,8,0:0:0:0:
241,191,59303,1,8,0:0:0:0:
271,184,59372,1,0,0:0:0:0:
302,225,59928,1,0,0:0:0:0:
302,225,59998,1,0,0:0:0:0:
307,237,60067,1,0,0:0:0:0:
302,225,60137,1,0,0:0:0:0:
311,237,60206,1,0,0:0:0:0:
311,237,60275,1,0,0:0:0:0:
312,236,60345,1,0,0:0:0:0:
313,233,60414,1,0,0:0:0:0:
290,212,60484,1,8,0:0:0:0:
314,213,60622,1,0,0:0:0:0:
311,213,60761,1,8,0:0:0:0:
261,197,61039,1,0,0:0:0:0:
264,199,61108,1,0,0:0:0:0:
271,198,61178,1,0,0:0:0:0:
261,197,61317,1,0,0:0:0:0:
264,199,61386,1,0,0:0:0:0:
271,198,61456,1,0,0:0:0:0:
261,197,61595,1,0,0:0:0:0:
264,199,61664,1,0,0:0:0:0:
271,198,61734,1,0,0:0:0:0:
270,193,61872,1,0,0:0:0:0:
260,205,62011,1,0,0:0:0:0:
271,201,62150,1,0,0:0:0:0:
271,201,62289,1,0,0:0:0:0:
271,201,62427,1,0,0:0:0:0:
271,201,62566,1,0,0:0:0:0:
260,205,62705,1,8,0:0:0:0:
240,201,62845,1,0,0:0:0:0:
251,186,62983,1,8,0:0:0:0:
302,225,63261,1,0,0:0:0:0:
302,225,63331,1,0,0:0:0:0:
307,237,63400,1,0,0:0:0:0:
302,225,63470,1,0,0:0:0:0:
311,237,63539,1,0,0:0:0:0:
311,237,63608,1,0,0:0:0:0:
312,236,63678,1,0,0:0:0:0:
313,233,63747,1,0,0:0:0:0:
290,212,63817,1,8,0:0:0:0:
316,250,64372,1,0,0:0:0:0:
304,245,64650,1,0,0:0:0:0:
274,213,64928,1,8,0:0:0:0:
310,216,65067,1,0,0:0:0:0:
300,231,65206,1,8,0:0:0:0:
261,197,65483,1,0,0:0:0:0:
264,199,65552,1,0,0:0:0:0:
271,198,65622,1,0,0:0:0:0:
261,197,65761,1,0,0:0:0:0:
264,199,65830,1,0,0:0:0:0:
271,198,65900,1,0,0:0:0:0:
261,197,66039,1,0,0:0:0:0:
264,199,66108,1,0,0:0:0:0:
271,198,66178,1,0,0:0:0:0:
257,208,66317,1,0,0:0:0:0:
265,208,66456,1,0,0:0:0:0:
266,207,66595,1,0,0:0:0:0:
267,209,66734,1,0,0:0:0:0:
260,206,66872,1,0,0:0:0:0:
260,204,67011,1,0,0:0:0:0:
256,195,67150,1,12,0:0:0:0:
271,198,67706,1,8,0:0:0:0:
271,200,67775,1,8,0:0:0:0:
271,200,67845,1,8,0:0:0:0:
271,200,67914,1,8,0:0:0:0:
271,198,67984,1,8,0:0:0:0:
271,200,68053,1,8,0:0:0:0:
271,200,68122,1,8,0:0:0:0:
271,200,68192,1,8,0:0:0:0:
273,202,68261,5,0,0:0:0:0:
290,194,68817,1,0,0:0:0:0:
290,194,68886,1,0,0:0:0:0:
290,194,68956,1,0,0:0:0:0:
290,194,69025,1,0,0:0:0:0:
289,193,69095,1,0,0:0:0:0:
284,191,69164,1,0,0:0:0:0:
284,191,69234,1,0,0:0:0:0:
284,191,69303,1,0,0:0:0:0:
301,191,69372,1,8,0:0:0:0:
291,209,69650,1,8,0:0:0:0:
281,212,69789,1,0,0:0:0:0:
305,194,69928,1,8,0:0:0:0:
281,212,70067,1,0,0:0:0:0:
271,200,70136,1,0,0:0:0:0:
291,209,70206,1,8,0:0:0:0:
281,212,70345,1,0,0:0:0:0:
291,209,70484,1,8,0:0:0:0:
261,203,70622,1,0,0:0:0:0:
261,203,70692,1,0,0:0:0:0:
291,209,70761,1,8,0:0:0:0:
269,211,70900,1,0,0:0:0:0:
291,209,71039,1,8,0:0:0:0:
276,210,71178,1,0,0:0:0:0:
277,209,71247,1,0,0:0:0:0:
291,209,71317,1,8,0:0:0:0:
278,208,71456,1,0,0:0:0:0:
291,209,71595,1,8,0:0:0:0:
278,208,71734,1,0,0:0:0:0:
278,208,71803,1,0,0:0:0:0:
291,209,71872,1,8,0:0:0:0:
278,208,72011,1,0,0:0:0:0:
291,209,72150,1,8,0:0:0:0:
278,208,72289,1,0,0:0:0:0:
278,208,72359,1,0,0:0:0:0:
291,209,72428,1,8,0:0:0:0:
278,208,72567,1,0,0:0:0:0:
291,209,72706,1,8,0:0:0:0:
264,203,72845,1,0,0:0:0:0:
281,203,72984,1,8,0:0:0:0:
305,205,73122,1,0,0:0:0:0:
284,203,73261,1,8,0:0:0:0:
305,205,73400,1,0,0:0:0:0:
286,202,73539,1,8,0:0:0:0:
305,205,73678,1,0,0:0:0:0:
291,209,73817,1,8,0:0:0:0:
282,208,73956,1,0,0:0:0:0:
278,208,74025,1,0,0:0:0:0:
291,209,74095,1,8,0:0:0:0:
282,208,74234,1,0,0:0:0:0:
291,209,74372,1,8,0:0:0:0:
282,208,74511,1,0,0:0:0:0:
282,208,74581,1,0,0:0:0:0:
291,209,74650,1,8,0:0:0:0:
282,208,74789,1,0,0:0:0:0:
291,209,74928,1,8,0:0:0:0:
283,208,75067,1,0,0:0:0:0:
282,208,75136,1,0,0:0:0:0:
291,209,75206,1,8,0:0:0:0:
283,208,75345,1,0,0:0:0:0:
291,209,75484,1,8,0:0:0:0:
283,208,75622,1,0,0:0:0:0:
282,208,75692,1,0,0:0:0:0:
291,209,75761,1,8,0:0:0:0:
283,208,75900,1,0,0:0:0:0:
291,209,76039,1,8,0:0:0:0:
283,208,76178,1,0,0:0:0:0:
282,208,76248,1,0,0:0:0:0:
291,209,76317,1,8,0:0:0:0:
284,208,76456,1,0,0:0:0:0:
291,209,76595,1,8,0:0:0:0:
284,214,76873,1,0,0:0:0:0:
284,214,76942,1,0,0:0:0:0:
285,212,77011,1,0,0:0:0:0:
283,208,77081,1,0,0:0:0:0:
303,208,77150,1,8,0:0:0:0:
270,199,78261,1,12,0:0:0:0:
271,208,78400,1,12,0:0:0:0:
286,197,78539,1,12,0:0:0:0:
261,197,78817,1,0,0:0:0:0:
264,199,78886,1,0,0:0:0:0:
271,198,78956,1,0,0:0:0:0:
261,197,79095,1,0,0:0:0:0:
264,199,79164,1,0,0:0:0:0:
271,198,79234,1,0,0:0:0:0:
261,197,79373,1,0,0:0:0:0:
264,199,79442,1,0,0:0:0:0:
271,198,79512,1,0,0:0:0:0:
293,247,79650,1,0,0:0:0:0:
299,244,79789,1,0,0:0:0:0:
300,243,79928,1,0,0:0:0:0:
300,243,80067,1,0,0:0:0:0:
286,227,80206,1,0,0:0:0:0:
290,224,80345,1,0,0:0:0:0:
279,209,80484,1,8,0:0:0:0:
291,201,80623,1,0,0:0:0:0:
269,220,80761,1,8,0:0:0:0:
302,225,81039,1,0,0:0:0:0:
302,225,81109,1,0,0:0:0:0:
307,237,81178,1,0,0:0:0:0:
302,225,81248,1,0,0:0:0:0:
311,237,81317,1,0,0:0:0:0:
311,237,81386,1,0,0:0:0:0:
312,236,81456,1,0,0:0:0:0:
313,233,81525,1,0,0:0:0:0:
290,212,81595,1,8,0:0:0:0:
316,250,82150,1,0,0:0:0:0:
304,245,82428,1,0,0:0:0:0:
274,213,82706,1,8,0:0:0:0:
310,216,82845,1,0,0:0:0:0:
300,231,82984,1,8,0:0:0:0:
261,197,83262,1,0,0:0:0:0:
264,199,83331,1,0,0:0:0:0:
271,198,83401,1,0,0:0:0:0:
261,197,83540,1,0,0:0:0:0:
264,199,83609,1,0,0:0:0:0:
271,198,83679,1,0,0:0:0:0:
261,197,83818,1,0,0:0:0:0:
264,199,83887,1,0,0:0:0:0:
271,198,83957,1,0,0:0:0:0:
270,193,84095,1,0,0:0:0:0:
260,205,84234,1,0,0:0:0:0:
271,201,84373,1,0,0:0:0:0:
271,201,84512,1,0,0:0:0:0:
271,201,84650,1,0,0:0:0:0:
271,201,84789,1,0,0:0:0:0:
260,205,84928,1,12,0:0:0:0:
267,192,85484,1,8,0:0:0:0:
266,194,85553,1,8,0:0:0:0:
261,197,85623,1,8,0:0:0:0:
261,194,85692,1,8,0:0:0:0:
259,194,85762,1,8,0:0:0:0:
241,191,85831,1,8,0:0:0:0:
241,191,85900,1,8,0:0:0:0:
241,191,85970,1,8,0:0:0:0:
271,184,86039,1,0,0:0:0:0:
302,225,86595,1,0,0:0:0:0:
302,225,86665,1,0,0:0:0:0:
307,237,86734,1,0,0:0:0:0:
302,225,86804,1,0,0:0:0:0:
311,237,86873,1,0,0:0:0:0:
311,237,86942,1,0,0:0:0:0:
312,236,87012,1,0,0:0:0:0:
313,233,87081,1,0,0:0:0:0:
290,212,87151,1,8,0:0:0:0:
314,213,87289,1,0,0:0:0:0:
311,213,87428,1,8,0:0:0:0:
261,197,87706,1,0,0:0:0:0:
264,199,87775,1,0,0:0:0:0:
271,198,87845,1,0,0:0:0:0:
261,197,87984,1,0,0:0:0:0:
264,199,88053,1,0,0:0:0:0:
271,198,88123,1,0,0:0:0:0:
261,197,88262,1,0,0:0:0:0:
264,199,88331,1,0,0:0:0:0:
271,198,88401,1,0,0:0:0:0:
270,193,88539,1,0,0:0:0:0:
260,205,88678,1,0,0:0:0:0:
271,201,88817,1,0,0:0:0:0:
271,201,88956,1,0,0:0:0:0:
271,201,89094,1,0,0:0:0:0:
271,201,89233,1,0,0:0:0:0:
260,205,89372,1,8,0:0:0:0:
240,201,89512,1,0,0:0:0:0:
251,186,89650,1,8,0:0:0:0:
302,225,89928,1,0,0:0:0:0:
302,225,89998,1,0,0:0:0:0:
307,237,90067,1,0,0:0:0:0:
302,225,90137,1,0,0:0:0:0:
311,237,90206,1,0,0:0:0:0:
311,237,90275,1,0,0:0:0:0:
312,236,90345,1,0,0:0:0:0:
313,233,90414,1,0,0:0:0:0:
290,212,90484,1,8,0:0:0:0:
316,250,91039,1,0,0:0:0:0:
304,245,91317,1,0,0:0:0:0:
274,213,91595,1,8,0:0:0:0:
310,216,91734,1,0,0:0:0:0:
300,231,91873,1,8,0:0:0:0:
261,197,92150,1,0,0:0:0:0:
264,199,92219,1,0,0:0:0:0:
271,198,92289,1,0,0:0:0:0:
261,197,92428,1,0,0:0:0:0:
264,199,92497,1,0,0:0:0:0:
271,198,92567,1,0,0:0:0:0:
261,197,92706,1,0,0:0:0:0:
264,199,92775,1,0,0:0:0:0:
271,198,92845,1,0,0:0:0:0:
257,208,92984,1,0,0:0:0:0:
265,208,93123,1,0,0:0:0:0:
266,207,93262,1,0,0:0:0:0:
267,209,93401,1,0,0:0:0:0:
260,206,93539,1,0,0:0:0:0:
260,204,93678,1,0,0:0:0:0:
256,195,93817,1,12,0:0:0:0:
271,198,94373,1,8,0:0:0:0:
271,200,94442,1,8,0:0:0:0:
271,200,94512,1,8,0:0:0:0:
271,200,94581,1,8,0:0:0:0:
271,198,94651,1,8,0:0:0:0:
271,200,94720,1,8,0:0:0:0:
271,200,94789,1,8,0:0:0:0:
271,200,94859,1,8,0:0:0:0:
273,202,94928,5,0,0:0:0:0:
290,194,95484,1,8,0:0:0:0:
290,194,95553,1,8,0:0:0:0:
290,194,95623,1,8,0:0:0:0:
290,194,95692,1,8,0:0:0:0:
289,193,95762,1,8,0:0:0:0:
284,191,95831,1,8,0:0:0:0:
284,191,95901,1,8,0:0:0:0:
284,191,95970,1,8,0:0:0:0:
301,191,96039,1,0,0:0:0:0:
268,178,96317,1,0,0:0:0:0:
268,188,96386,1,8,0:0:0:0:
278,178,96456,1,0,0:0:0:0:
302,190,96525,1,8,0:0:0:0:
280,178,96595,1,0,0:0:0:0:
304,189,96664,1,8,0:0:0:0:
281,178,96734,1,0,0:0:0:0:
304,189,96803,1,8,0:0:0:0:
281,177,96873,1,0,0:0:0:0:
304,188,96942,1,8,0:0:0:0:
282,176,97011,1,0,0:0:0:0:
290,177,97081,1,8,0:0:0:0:
268,178,97151,1,0,0:0:0:0:
268,188,97220,1,8,0:0:0:0:
278,178,97290,1,0,0:0:0:0:
302,190,97359,1,8,0:0:0:0:
280,178,97429,1,0,0:0:0:0:
304,189,97498,1,8,0:0:0:0:
281,178,97568,1,0,0:0:0:0:
304,189,97637,1,8,0:0:0:0:
281,177,97707,1,0,0:0:0:0:
304,188,97776,1,8,0:0:0:0:
282,176,97845,1,0,0:0:0:0:
292,183,97915,1,8,0:0:0:0:
268,178,97984,1,0,0:0:0:0:
268,188,98053,1,8,0:0:0:0:
278,178,98123,1,0,0:0:0:0:
302,190,98192,1,8,0:0:0:0:
268,178,98262,1,0,0:0:0:0:
268,188,98331,1,8,0:0:0:0:
278,178,98401,1,0,0:0:0:0:
302,190,98470,1,8,0:0:0:0:
280,178,98540,1,0,0:0:0:0:
304,189,98609,1,8,0:0:0:0:
281,178,98679,1,0,0:0:0:0:
304,189,98748,1,8,0:0:0:0:
281,177,98818,1,0,0:0:0:0:
304,188,98887,1,8,0:0:0:0:
282,176,98956,1,0,0:0:0:0:
290,177,99026,1,8,0:0:0:0:
268,178,99096,1,0,0:0:0:0:
268,188,99165,1,8,0:0:0:0:
278,178,99235,1,0,0:0:0:0:
302,190,99304,1,8,0:0:0:0:
280,178,99374,1,0,0:0:0:0:
304,189,99443,1,8,0:0:0:0:
281,178,99513,1,0,0:0:0:0:
304,189,99582,1,8,0:0:0:0:
281,177,99652,1,0,0:0:0:0:
304,188,99721,1,8,0:0:0:0:
282,176,99790,1,0,0:0:0:0:
292,183,99860,1,8,0:0:0:0:
268,178,99929,1,0,0:0:0:0:
268,188,99998,1,8,0:0:0:0:
278,178,100068,1,0,0:0:0:0:
302,190,100137,1,8,0:0:0:0:
268,178,100206,1,0,0:0:0:0:
268,188,100275,1,8,0:0:0:0:
278,178,100345,1,0,0:0:0:0:
302,190,100414,1,8,0:0:0:0:
280,178,100484,1,0,0:0:0:0:
304,189,100553,1,8,0:0:0:0:
281,178,100623,1,0,0:0:0:0:
304,189,100692,1,8,0:0:0:0:
281,177,100762,1,0,0:0:0:0:
304,188,100831,1,8,0:0:0:0:
282,176,100900,1,0,0:0:0:0:
290,177,100970,1,8,0:0:0:0:
268,178,101040,1,0,0:0:0:0:
268,188,101109,1,8,0:0:0:0:
278,178,101179,1,0,0:0:0:0:
302,190,101248,1,8,0:0:0:0:
280,178,101318,1,0,0:0:0:0:
304,189,101387,1,8,0:0:0:0:
281,178,101457,1,0,0:0:0:0:
304,189,101526,1,8,0:0:0:0:
281,177,101596,1,0,0:0:0:0:
304,188,101665,1,8,0:0:0:0:
282,176,101734,1,0,0:0:0:0:
292,183,101804,1,8,0:0:0:0:
268,178,101873,1,0,0:0:0:0:
268,188,101942,1,8,0:0:0:0:
278,178,102012,1,0,0:0:0:0:
302,190,102081,1,8,0:0:0:0:
268,178,102151,1,0,0:0:0:0:
268,188,102220,1,8,0:0:0:0:
278,178,102290,1,0,0:0:0:0:
302,190,102359,1,8,0:0:0:0:
280,178,102429,1,0,0:0:0:0:
304,189,102498,1,8,0:0:0:0:
281,178,102568,1,0,0:0:0:0:
304,189,102637,1,8,0:0:0:0:
281,177,102707,1,0,0:0:0:0:
304,188,102776,1,8,0:0:0:0:
282,176,102845,1,0,0:0:0:0:
290,177,102915,1,8,0:0:0:0:
268,178,102985,1,0,0:0:0:0:
268,188,103054,1,8,0:0:0:0:
278,178,103124,1,0,0:0:0:0:
302,190,103193,1,8,0:0:0:0:
280,178,103263,1,0,0:0:0:0:
304,189,103332,1,8,0:0:0:0:
281,178,103402,1,0,0:0:0:0:
304,189,103471,1,8,0:0:0:0:
271,184,103817,1,8,0:0:0:0:
271,184,103887,1,8,0:0:0:0:
271,184,103956,1,8,0:0:0:0:
271,184,104026,1,8,0:0:0:0:
283,173,104095,1,0,0:0:0:0:
285,174,104164,1,0,0:0:0:0:
289,173,104234,1,0,0:0:0:0:
291,171,104303,1,0,0:0:0:0:
328,170,104373,1,8,0:0:0:0:
317,176,104442,1,8,0:0:0:0:
328,170,104512,1,8,0:0:0:0:
317,176,104581,1,8,0:0:0:0:
306,178,104651,1,0,0:0:0:0:
309,178,104720,1,0,0:0:0:0:
310,178,104789,1,0,0:0:0:0:
313,176,104859,1,0,0:0:0:0:
305,203,104928,1,8,0:0:0:0:
324,226,104998,1,0,0:0:0:0:
288,171,105067,1,0,0:0:0:0:
299,183,105137,1,0,0:0:0:0:
300,183,105206,1,0,0:0:0:0:
300,183,105276,1,0,0:0:0:0:
301,179,105345,1,0,0:0:0:0:
302,175,105414,1,0,0:0:0:0:
298,173,105484,1,8,0:0:0:0:
302,174,105553,1,0,0:0:0:0:
302,174,105623,1,0,0:0:0:0:
302,174,105692,1,0,0:0:0:0:
302,174,105762,1,0,0:0:0:0:
302,174,105831,1,0,0:0:0:0:
302,174,105901,1,0,0:0:0:0:
302,174,105970,1,0,0:0:0:0:
302,174,106039,1,0,0:0:0:0:
302,174,106109,1,0,0:0:0:0:
303,174,106178,1,0,0:0:0:0:
303,174,106248,1,0,0:0:0:0:
303,174,106317,1,0,0:0:0:0:
301,172,106387,1,0,0:0:0:0:
301,172,106456,1,0,0:0:0:0:
288,154,106526,1,0,0:0:0:0:
304,177,106595,1,8,0:0:0:0:
302,174,106664,1,0,0:0:0:0:
302,174,106734,1,0,0:0:0:0:
302,174,106803,1,0,0:0:0:0:
302,174,106873,1,0,0:0:0:0:
302,174,106942,1,0,0:0:0:0:
302,174,107012,1,0,0:0:0:0:
302,174,107081,1,0,0:0:0:0:
302,174,107150,1,0,0:0:0:0:
302,174,107220,1,0,0:0:0:0:
303,174,107289,1,0,0:0:0:0:
303,174,107359,1,0,0:0:0:0:
303,174,107428,1,0,0:0:0:0:
301,172,107498,1,0,0:0:0:0:
301,172,107567,1,0,0:0:0:0:
288,154,107637,1,0,0:0:0:0:
304,177,107706,1,8,0:0:0:0:
302,174,107776,1,0,0:0:0:0:
302,174,107846,1,0,0:0:0:0:
302,174,107915,1,0,0:0:0:0:
302,174,107985,1,0,0:0:0:0:
302,174,108054,1,0,0:0:0:0:
302,174,108124,1,0,0:0:0:0:
302,174,108193,1,0,0:0:0:0:
302,174,108262,1,0,0:0:0:0:
302,174,108332,1,0,0:0:0:0:
303,174,108401,1,0,0:0:0:0:
303,174,108471,1,0,0:0:0:0:
303,174,108540,1,0,0:0:0:0:
301,172,108610,1,0,0:0:0:0:
301,172,108679,1,0,0:0:0:0:
288,154,108749,1,0,0:0:0:0:
304,177,108817,1,8,0:0:0:0:
280,173,109095,1,4,0:0:0:0:
340,175,109373,1,0,0:0:0:0:
323,179,109442,1,0,0:0:0:0:
323,179,109512,1,0,0:0:0:0:
323,179,109581,1,0,0:0:0:0:
323,179,109651,1,0,0:0:0:0:
323,179,109720,1,0,0:0:0:0:
323,179,109790,1,0,0:0:0:0:
322,179,109859,1,0,0:0:0:0:
311,185,109928,1,8,0:0:0:0:
302,174,109998,1,0,0:0:0:0:
302,174,110068,1,0,0:0:0:0:
302,174,110137,1,0,0:0:0:0:
302,174,110207,1,0,0:0:0:0:
302,174,110276,1,0,0:0:0:0:
302,174,110346,1,0,0:0:0:0:
302,174,110415,1,0,0:0:0:0:
302,174,110484,1,0,0:0:0:0:
302,174,110554,1,0,0:0:0:0:
303,174,110623,1,0,0:0:0:0:
303,174,110693,1,0,0:0:0:0:
303,174,110762,1,0,0:0:0:0:
301,172,110832,1,0,0:0:0:0:
301,172,110901,1,0,0:0:0:0:
288,154,110971,1,0,0:0:0:0:
323,186,111040,1,8,0:0:0:0:
302,174,111109,1,0,0:0:0:0:
302,174,111179,1,0,0:0:0:0:
302,174,111248,1,0,0:0:0:0:
302,174,111318,1,0,0:0:0:0:
302,174,111387,1,0,0:0:0:0:
302,174,111457,1,0,0:0:0:0:
302,174,111526,1,0,0:0:0:0:
302,174,111595,1,0,0:0:0:0:
302,174,111665,1,0,0:0:0:0:
303,174,111734,1,0,0:0:0:0:
303,174,111804,1,0,0:0:0:0:
303,174,111873,1,0,0:0:0:0:
301,172,111943,1,0,0:0:0:0:
301,172,112012,1,0,0:0:0:0:
288,154,112082,1,0,0:0:0:0:
327,180,112151,1,8,0:0:0:0:
302,174,112220,1,0,0:0:0:0:
302,174,112290,1,0,0:0:0:0:
302,174,112359,1,0,0:0:0:0:
302,174,112429,1,0,0:0:0:0:
302,174,112498,1,0,0:0:0:0:
302,174,112568,1,0,0:0:0:0:
302,174,112637,1,0,0:0:0:0:
302,174,112706,1,0,0:0:0:0:
302,174,112776,1,0,0:0:0:0:
303,174,112845,1,0,0:0:0:0:
303,174,112915,1,0,0:0:0:0:
303,174,112984,1,0,0:0:0:0:
301,172,113054,1,0,0:0:0:0:
301,172,113123,1,0,0:0:0:0:
288,154,113193,1,0,0:0:0:0:
327,180,113262,1,8,0:0:0:0:
280,181,113540,1,4,0:0:0:0:
340,175,113817,1,0,0:0:0:0:
323,179,113886,1,0,0:0:0:0:
323,179,113956,1,0,0:0:0:0:
323,179,114025,1,0,0:0:0:0:
323,179,114095,1,0,0:0:0:0:
323,179,114164,1,0,0:0:0:0:
323,179,114234,1,0,0:0:0:0:
322,179,114303,1,0,0:0:0:0:
327,180,114373,1,8,0:0:0:0:
302,174,114442,1,0,0:0:0:0:
302,174,114512,1,0,0:0:0:0:
302,174,114581,1,0,0:0:0:0:
302,174,114651,1,0,0:0:0:0:
302,174,114720,1,0,0:0:0:0:
302,174,114790,1,0,0:0:0:0:
302,174,114859,1,0,0:0:0:0:
302,174,114928,1,0,0:0:0:0:
302,174,114998,1,0,0:0:0:0:
303,174,115067,1,0,0:0:0:0:
303,174,115137,1,0,0:0:0:0:
303,174,115206,1,0,0:0:0:0:
301,172,115276,1,0,0:0:0:0:
301,172,115345,1,0,0:0:0:0:
288,154,115415,1,0,0:0:0:0:
327,180,115484,1,8,0:0:0:0:
302,174,115553,1,0,0:0:0:0:
302,174,115623,1,0,0:0:0:0:
302,174,115692,1,0,0:0:0:0:
302,174,115762,1,0,0:0:0:0:
302,174,115831,1,0,0:0:0:0:
302,174,115901,1,0,0:0:0:0:
302,174,115970,1,0,0:0:0:0:
302,174,116039,1,0,0:0:0:0:
302,174,116109,1,0,0:0:0:0:
303,174,116178,1,0,0:0:0:0:
303,174,116248,1,0,0:0:0:0:
303,174,116317,1,0,0:0:0:0:
301,172,116387,1,0,0:0:0:0:
301,172,116456,1,0,0:0:0:0:
288,154,116526,1,0,0:0:0:0:
327,180,116595,1,8,0:0:0:0:
302,174,116665,1,0,0:0:0:0:
302,174,116735,1,0,0:0:0:0:
302,174,116804,1,0,0:0:0:0:
302,174,116874,1,0,0:0:0:0:
302,174,116943,1,0,0:0:0:0:
302,174,117013,1,0,0:0:0:0:
302,174,117082,1,0,0:0:0:0:
302,174,117151,1,0,0:0:0:0:
302,174,117221,1,0,0:0:0:0:
303,174,117290,1,0,0:0:0:0:
303,174,117360,1,0,0:0:0:0:
303,174,117429,1,0,0:0:0:0:
301,172,117499,1,0,0:0:0:0:
301,172,117568,1,0,0:0:0:0:
288,154,117638,1,0,0:0:0:0:
327,180,117706,1,8,0:0:0:0:
277,183,117984,1,4,0:0:0:0:
340,175,118262,1,0,0:0:0:0:
323,179,118331,1,0,0:0:0:0:
323,179,118401,1,0,0:0:0:0:
323,179,118470,1,0,0:0:0:0:
323,179,118540,1,0,0:0:0:0:
323,179,118609,1,0,0:0:0:0:
323,179,118679,1,0,0:0:0:0:
322,179,118748,1,0,0:0:0:0:
327,180,118817,1,8,0:0:0:0:
302,174,118887,1,0,0:0:0:0:
302,174,118957,1,0,0:0:0:0:
302,174,119026,1,0,0:0:0:0:
302,174,119096,1,0,0:0:0:0:
302,174,119165,1,0,0:0:0:0:
302,174,119235,1,0,0:0:0:0:
302,174,119304,1,0,0:0:0:0:
302,174,119373,1,0,0:0:0:0:
302,174,119443,1,0,0:0:0:0:
303,174,119512,1,0,0:0:0:0:
303,174,119582,1,0,0:0:0:0:
303,174,119651,1,0,0:0:0:0:
301,172,119721,1,0,0:0:0:0:
301,172,119790,1,0,0:0:0:0:
288,154,119860,1,0,0:0:0:0:
289,180,119929,1,8,0:0:0:0:
272,195,119998,1,0,0:0:0:0:
277,195,120067,1,0,0:0:0:0:
277,195,120137,1,0,0:0:0:0:
277,195,120206,1,0,0:0:0:0:
277,195,120276,1,0,0:0:0:0:
277,195,120345,1,0,0:0:0:0:
277,195,120415,1,0,0:0:0:0:
276,196,120484,1,0,0:0:0:0:
274,188,120762,1,8,0:0:0:0:
274,188,120831,1,8,0:0:0:0:
274,188,120901,1,8,0:0:0:0:
274,188,120970,1,8,0:0:0:0:
292,192,121040,1,0,0:0:0:0:
273,191,121317,1,0,0:0:0:0:
273,191,121387,1,0,0:0:0:0:
271,193,121456,1,0,0:0:0:0:
273,191,121526,1,0,0:0:0:0:
275,179,121595,1,8,0:0:0:0:
294,196,121873,1,8,0:0:0:0:
294,196,121942,1,8,0:0:0:0:
294,196,122012,1,8,0:0:0:0:
292,195,122081,1,8,0:0:0:0:
306,193,122151,1,0,0:0:0:0:
306,193,122220,1,0,0:0:0:0:
306,193,122290,1,0,0:0:0:0:
306,193,122359,1,0,0:0:0:0:
304,188,122429,1,8,0:0:0:0:
302,188,122498,1,8,0:0:0:0:
302,188,122567,1,8,0:0:0:0:
302,188,122637,1,8,0:0:0:0:
294,189,122706,1,8,0:0:0:0:
268,178,122984,1,0,0:0:0:0:
268,188,123053,1,8,0:0:0:0:
278,178,123123,1,0,0:0:0:0:
302,190,123192,1,8,0:0:0:0:
280,178,123262,1,0,0:0:0:0:
304,189,123331,1,8,0:0:0:0:
281,178,123401,1,0,0:0:0:0:
304,189,123470,1,8,0:0:0:0:
281,177,123540,1,0,0:0:0:0:
304,188,123609,1,8,0:0:0:0:
282,176,123678,1,0,0:0:0:0:
290,177,123748,1,8,0:0:0:0:
268,178,123818,1,0,0:0:0:0:
268,188,123887,1,8,0:0:0:0:
278,178,123957,1,0,0:0:0:0:
302,190,124026,1,8,0:0:0:0:
280,178,124096,1,0,0:0:0:0:
304,189,124165,1,8,0:0:0:0:
281,178,124235,1,0,0:0:0:0:
304,189,124304,1,8,0:0:0:0:
281,177,124374,1,0,0:0:0:0:
304,188,124443,1,8,0:0:0:0:
282,176,124512,1,0,0:0:0:0:
292,183,124582,1,8,0:0:0:0:
268,178,124651,1,0,0:0:0:0:
268,188,124720,1,8,0:0:0:0:
278,178,124790,1,0,0:0:0:0:
302,190,124859,1,8,0:0:0:0:
280,178,124929,1,0,0:0:0:0:
304,189,124998,1,8,0:0:0:0:
281,178,125068,1,0,0:0:0:0:
304,189,125137,1,8,0:0:0:0:
281,177,125207,1,0,0:0:0:0:
304,188,125276,1,8,0:0:0:0:
282,176,125345,1,0,0:0:0:0:
285,188,125415,1,8,0:0:0:0:
268,178,125484,1,0,0:0:0:0:
268,188,125553,1,8,0:0:0:0:
278,178,125623,1,0,0:0:0:0:
302,190,125692,1,8,0:0:0:0:
280,178,125762,1,0,0:0:0:0:
304,189,125831,1,8,0:0:0:0:
281,178,125901,1,0,0:0:0:0:
304,189,125970,1,8,0:0:0:0:
281,177,126040,1,0,0:0:0:0:
304,188,126109,1,8,0:0:0:0:
282,176,126178,1,0,0:0:0:0:
277,187,126248,1,8,0:0:0:0:
294,184,126318,1,0,0:0:0:0:
275,173,126387,1,8,0:0:0:0:
297,179,126457,1,0,0:0:0:0:
273,188,126526,1,8,0:0:0:0:
268,178,126595,1,0,0:0:0:0:
268,188,126664,1,8,0:0:0:0:
278,178,126734,1,0,0:0:0:0:
302,190,126803,1,8,0:0:0:0:
280,178,126873,1,0,0:0:0:0:
304,189,126942,1,8,0:0:0:0:
281,178,127012,1,0,0:0:0:0:
304,189,127081,1,8,0:0:0:0:
281,177,127151,1,0,0:0:0:0:
304,188,127220,1,8,0:0:0:0:
282,176,127289,1,0,0:0:0:0:
290,177,127359,1,8,0:0:0:0:
268,178,127429,1,0,0:0:0:0:
268,188,127498,1,8,0:0:0:0:
278,178,127568,1,0,0:0:0:0:
302,190,127637,1,8,0:0:0:0:
280,178,127707,1,0,0:0:0:0:
304,189,127776,1,8,0:0:0:0:
281,178,127846,1,0,0:0:0:0:
304,189,127915,1,8,0:0:0:0:
281,177,127985,1,0,0:0:0:0:
304,188,128054,1,8,0:0:0:0:
282,176,128123,1,0,0:0:0:0:
292,183,128193,1,8,0:0:0:0:
268,178,128262,1,0,0:0:0:0:
268,188,128331,1,8,0:0:0:0:
278,178,128401,1,0,0:0:0:0:
302,190,128470,1,8,0:0:0:0:
280,178,128540,1,0,0:0:0:0:
304,189,128609,1,8,0:0:0:0:
281,178,128679,1,0,0:0:0:0:
304,189,128748,1,8,0:0:0:0:
281,177,128818,1,0,0:0:0:0:
304,188,128887,1,8,0:0:0:0:
282,176,128956,1,0,0:0:0:0:
285,188,129026,1,8,0:0:0:0:
268,178,129095,1,0,0:0:0:0:
268,188,129164,1,8,0:0:0:0:
278,178,129234,1,0,0:0:0:0:
302,190,129303,1,8,0:0:0:0:
280,178,129373,1,0,0:0:0:0:
304,189,129442,1,8,0:0:0:0:
281,178,129512,1,0,0:0:0:0:
304,189,129581,1,8,0:0:0:0:
281,177,129651,1,0,0:0:0:0:
304,188,129720,1,8,0:0:0:0:
282,176,129789,1,0,0:0:0:0:
277,187,129859,1,8,0:0:0:0:
294,184,129929,1,0,0:0:0:0:
275,173,129998,1,8,0:0:0:0:
297,179,130068,1,0,0:0:0:0:
277,184,130137,1,8,0:0:0:0:
295,173,130206,1,0,0:0:0:0:
271,184,130484,1,8,0:0:0:0:
271,184,130554,1,8,0:0:0:0:
271,184,130623,1,8,0:0:0:0:
271,184,130693,1,8,0:0:0:0:
283,173,130762,1,0,0:0:0:0:
285,174,130831,1,0,0:0:0:0:
289,173,130901,1,0,0:0:0:0:
291,171,130970,1,0,0:0:0:0:
328,170,131040,1,8,0:0:0:0:
317,176,131109,1,8,0:0:0:0:
328,170,131179,1,8,0:0:0:0:
317,176,131248,1,8,0:0:0:0:
306,178,131318,1,0,0:0:0:0:
309,178,131387,1,0,0:0:0:0:
310,178,131456,1,0,0:0:0:0:
313,176,131526,1,0,0:0:0:0:
305,203,131595,1,8,0:0:0:0:
361,290,131665,1,0,0:0:0:0:
361,290,131734,1,0,0:0:0:0:
361,290,131804,1,0,0:0:0:0:
312,193,131873,1,8,0:0:0:0:
322,188,131943,1,0,0:0:0:0:
322,188,132012,1,0,0:0:0:0:
322,188,132081,1,0,0:0:0:0:
312,193,132151,1,8,0:0:0:0:
322,188,132220,1,0,0:0:0:0:
322,188,132289,1,0,0:0:0:0:
322,188,132358,1,0,0:0:0:0:
312,193,132429,1,8,0:0:0:0:
322,188,132498,1,0,0:0:0:0:
322,188,132567,1,0,0:0:0:0:
322,188,132636,1,0,0:0:0:0:
312,193,132706,1,8,0:0:0:0:
322,188,132776,1,0,0:0:0:0:
322,188,132845,1,0,0:0:0:0:
322,188,132914,1,0,0:0:0:0:
312,193,132984,1,8,0:0:0:0:
322,188,133054,1,0,0:0:0:0:
322,188,133123,1,0,0:0:0:0:
322,188,133192,1,0,0:0:0:0:
312,193,133262,1,8,0:0:0:0:
322,188,133331,1,0,0:0:0:0:
322,188,133400,1,0,0:0:0:0:
322,188,133469,1,0,0:0:0:0:
312,193,133540,1,8,0:0:0:0:
312,193,133609,1,0,0:0:0:0:
312,193,133679,1,0,0:0:0:0:
310,191,133748,1,0,0:0:0:0:
310,191,133818,1,0,0:0:0:0:
310,191,133887,1,0,0:0:0:0:
312,193,133956,1,0,0:0:0:0:
310,191,134026,1,0,0:0:0:0:
312,193,134095,1,8,0:0:0:0:
311,191,134165,1,0,0:0:0:0:
312,193,134234,1,0,0:0:0:0:
311,191,134304,1,0,0:0:0:0:
312,193,134373,1,8,0:0:0:0:
311,191,134443,1,0,0:0:0:0:
312,193,134512,1,0,0:0:0:0:
311,191,134581,1,0,0:0:0:0:
312,193,134651,1,8,0:0:0:0:
311,191,134720,1,0,0:0:0:0:
312,193,134790,1,0,0:0:0:0:
311,191,134859,1,0,0:0:0:0:
312,193,134929,1,8,0:0:0:0:
311,191,134998,1,0,0:0:0:0:
312,193,135068,1,0,0:0:0:0:
311,191,135137,1,0,0:0:0:0:
311,191,135206,1,0,0:0:0:0:
312,193,135276,1,0,0:0:0:0:
311,191,135345,1,0,0:0:0:0:
311,191,135415,1,0,0:0:0:0:
312,193,135485,1,0,0:0:0:0:
311,191,135554,1,0,0:0:0:0:
311,191,135623,1,0,0:0:0:0:
312,193,135693,1,0,0:0:0:0:
311,191,135762,1,0,0:0:0:0:
311,191,135831,1,0,0:0:0:0:
312,193,135901,1,0,0:0:0:0:
311,191,135970,1,0,0:0:0:0:
311,191,136040,1,0,0:0:0:0:
312,193,136110,1,0,0:0:0:0:
311,191,136179,1,0,0:0:0:0:
264,203,136248,1,0,0:0:0:0:
312,193,136318,1,8,0:0:0:0:
272,194,136387,1,0,0:0:0:0:
290,188,136456,1,0,0:0:0:0:
290,188,136526,1,0,0:0:0:0:
312,193,136595,1,8,0:0:0:0:
311,191,136665,1,0,0:0:0:0:
312,193,136735,1,0,0:0:0:0:
311,191,136804,1,0,0:0:0:0:
312,193,136873,1,8,0:0:0:0:
311,191,136943,1,0,0:0:0:0:
312,193,137013,1,0,0:0:0:0:
311,191,137082,1,0,0:0:0:0:
312,193,137151,1,8,0:0:0:0:
311,191,137220,1,0,0:0:0:0:
312,193,137290,1,0,0:0:0:0:
311,191,137359,1,0,0:0:0:0:
311,191,137429,1,0,0:0:0:0:
312,193,137499,1,0,0:0:0:0:
311,191,137568,1,0,0:0:0:0:
311,191,137637,1,0,0:0:0:0:
312,193,137707,1,0,0:0:0:0:
311,191,137776,1,0,0:0:0:0:
311,191,137845,1,0,0:0:0:0:
312,193,137915,1,0,0:0:0:0:
311,191,137984,1,0,0:0:0:0:
311,191,138054,1,0,0:0:0:0:
312,193,138124,1,0,0:0:0:0:
311,191,138193,1,0,0:0:0:0:
311,191,138262,1,0,0:0:0:0:
312,193,138332,1,0,0:0:0:0:
315,213,138401,1,0,0:0:0:0:
315,209,138470,1,0,0:0:0:0:
312,193,138540,1,8,0:0:0:0:
311,191,138609,1,0,0:0:0:0:
312,193,138679,1,0,0:0:0:0:
311,191,138748,1,0,0:0:0:0:
312,193,138818,1,8,0:0:0:0:
311,191,138887,1,0,0:0:0:0:
312,193,138957,1,0,0:0:0:0:
311,191,139026,1,0,0:0:0:0:
312,193,139095,1,8,0:0:0:0:
311,191,139165,1,0,0:0:0:0:
312,193,139235,1,0,0:0:0:0:
311,191,139304,1,0,0:0:0:0:
312,193,139373,1,8,0:0:0:0:
295,193,139443,1,8,0:0:0:0:
312,193,139512,1,8,0:0:0:0:
311,191,139582,1,8,0:0:0:0:
334,197,139651,1,0,0:0:0:0:
336,194,139720,1,0,0:0:0:0:
342,193,139790,1,0,0:0:0:0:
345,193,139859,1,0,0:0:0:0:
323,187,139929,1,8,0:0:0:0:
350,200,139998,1,8,0:0:0:0:
350,200,140068,1,8,0:0:0:0:
349,195,140137,1,8,0:0:0:0:
367,197,140207,1,0,0:0:0:0:
329,180,140276,1,0,0:0:0:0:
329,180,140345,1,0,0:0:0:0:
329,180,140415,1,0,0:0:0:0:
333,190,140484,1,8,0:0:0:0:
319,235,140623,1,0,0:0:0:0:
291,231,140762,1,8,0:0:0:0:
319,235,140901,1,0,0:0:0:0:
291,231,141040,1,8,0:0:0:0:
319,235,141179,1,0,0:0:0:0:
291,231,141318,1,8,0:0:0:0:
319,235,141457,1,0,0:0:0:0:
291,231,141595,1,8,0:0:0:0:
319,235,141734,1,0,0:0:0:0:
291,231,141873,1,8,0:0:0:0:
319,235,142012,1,0,0:0:0:0:
291,231,142151,1,8,0:0:0:0:
319,235,142290,1,0,0:0:0:0:
291,231,142429,1,8,0:0:0:0:
319,235,142568,1,0,0:0:0:0:
294,237,142707,1,12,0:0:0:0:
307,240,142984,1,0,0:0:0:0:
325,214,143123,1,12,0:0:0:0:
291,231,143262,1,0,0:0:0:0:
325,214,143540,1,12,0:0:0:0:
320,228,143818,1,0,0:0:0:0:
325,214,143957,1,12,0:0:0:0:
320,232,144095,1,0,0:0:0:0:
325,214,144373,1,12,0:0:0:0:
338,213,144651,1,0,0:0:0:0:
325,214,144929,1,12,0:0:0:0:
319,235,145068,1,0,0:0:0:0:
291,231,145207,1,8,0:0:0:0:
319,235,145346,1,0,0:0:0:0:
291,231,145485,1,8,0:0:0:0:
319,235,145624,1,0,0:0:0:0:
291,231,145763,1,8,0:0:0:0:
319,235,145902,1,0,0:0:0:0:
291,231,146040,1,8,0:0:0:0:
319,235,146179,1,0,0:0:0:0:
291,231,146318,1,8,0:0:0:0:
319,235,146457,1,0,0:0:0:0:
291,231,146596,1,8,0:0:0:0:
319,235,146735,1,0,0:0:0:0:
291,231,146874,1,8,0:0:0:0:
319,235,147013,1,0,0:0:0:0:
294,237,147152,1,12,0:0:0:0:
307,240,147429,1,0,0:0:0:0:
325,214,147568,1,12,0:0:0:0:
291,231,147707,1,0,0:0:0:0:
325,214,147985,1,12,0:0:0:0:
320,228,148263,1,0,0:0:0:0:
325,214,148402,1,12,0:0:0:0:
320,232,148540,1,0,0:0:0:0:
325,214,148818,1,12,0:0:0:0:
338,213,149096,1,0,0:0:0:0:
325,214,149374,1,12,0:0:0:0:
319,235,149512,1,0,0:0:0:0:
291,231,149651,1,8,0:0:0:0:
319,235,149790,1,0,0:0:0:0:
291,231,149929,1,8,0:0:0:0:
319,235,150068,1,0,0:0:0:0:
291,231,150207,1,8,0:0:0:0:
319,235,150346,1,0,0:0:0:0:
291,231,150484,1,8,0:0:0:0:
319,235,150623,1,0,0:0:0:0:
291,231,150762,1,8,0:0:0:0:
319,235,150901,1,0,0:0:0:0:
291,231,151040,1,8,0:0:0:0:
319,235,151179,1,0,0:0:0:0:
291,231,151318,1,8,0:0:0:0:
319,235,151457,1,0,0:0:0:0:
294,237,151596,1,12,0:0:0:0:
307,240,151873,1,0,0:0:0:0:
325,214,152012,1,12,0:0:0:0:
291,231,152151,1,0,0:0:0:0:
325,214,152429,1,12,0:0:0:0:
320,228,152707,1,0,0:0:0:0:
325,214,152846,1,12,0:0:0:0:
320,232,152984,1,0,0:0:0:0:
325,214,153262,1,12,0:0:0:0:
338,213,153540,1,0,0:0:0:0:
325,214,153818,1,12,0:0:0:0:
319,235,153957,1,0,0:0:0:0:
291,231,154096,1,8,0:0:0:0:
319,235,154235,1,0,0:0:0:0:
291,231,154374,1,8,0:0:0:0:
319,235,154513,1,0,0:0:0:0:
291,231,154652,1,8,0:0:0:0:
319,235,154791,1,0,0:0:0:0:
291,231,154929,1,8,0:0:0:0:
319,235,155068,1,0,0:0:0:0:
291,231,155207,1,8,0:0:0:0:
319,235,155346,1,0,0:0:0:0:
291,231,155485,1,8,0:0:0:0:
319,235,155624,1,0,0:0:0:0:
291,231,155763,1,8,0:0:0:0:
319,235,155902,1,0,0:0:0:0:
294,237,156041,1,12,0:0:0:0:
307,240,156318,1,0,0:0:0:0:
325,214,156457,1,12,0:0:0:0:
291,231,156596,1,0,0:0:0:0:
325,214,156874,1,12,0:0:0:0:
320,228,157152,1,0,0:0:0:0:
325,214,157291,1,12,0:0:0:0:
320,232,157429,1,0,0:0:0:0:
325,214,157707,1,12,0:0:0:0:
338,213,157985,1,0,0:0:0:0:
296,186,158262,1,0,0:0:0:0:
301,206,158401,1,0,0:0:0:0:
274,175,158540,1,0,0:0:0:0:
291,186,158679,1,0,0:0:0:0:
292,178,158818,1,0,0:0:0:0:
269,168,158957,1,0,0:0:0:0:
269,168,159096,1,0,0:0:0:0:
269,168,159165,1,0,0:0:0:0:
269,168,159234,1,0,0:0:0:0:
269,168,159304,1,0,0:0:0:0:
303,178,159373,1,8,0:0:0:0:
273,195,159512,1,0,0:0:0:0:
266,194,159651,1,0,0:0:0:0:
266,194,159790,1,0,0:0:0:0:
287,194,159929,1,0,0:0:0:0:
266,193,160068,1,0,0:0:0:0:
267,190,160207,1,0,0:0:0:0:
268,188,160346,1,0,0:0:0:0:
278,202,160484,1,8,0:0:0:0:
280,194,160623,1,0,0:0:0:0:
281,194,160762,1,0,0:0:0:0:
281,194,160901,1,0,0:0:0:0:
281,194,161040,1,0,0:0:0:0:
281,194,161179,1,0,0:0:0:0:
269,168,161318,1,0,0:0:0:0:
269,168,161387,1,0,0:0:0:0:
269,168,161456,1,0,0:0:0:0:
269,168,161526,1,0,0:0:0:0:
303,178,161595,1,8,0:0:0:0:
284,208,161735,1,0,0:0:0:0:
284,208,161873,1,0,0:0:0:0:
284,208,162012,1,0,0:0:0:0:
284,208,162151,1,0,0:0:0:0:
284,208,162290,1,0,0:0:0:0:
284,208,162429,1,0,0:0:0:0:
284,208,162568,1,0,0:0:0:0:
278,202,162707,1,8,0:0:0:0:
280,194,162846,1,0,0:0:0:0:
281,194,162985,1,0,0:0:0:0:
281,194,163124,1,0,0:0:0:0:
281,194,163263,1,0,0:0:0:0:
281,194,163402,1,0,0:0:0:0:
269,168,163541,1,0,0:0:0:0:
269,168,163610,1,0,0:0:0:0:
269,168,163679,1,0,0:0:0:0:
269,168,163749,1,0,0:0:0:0:
303,178,163818,1,8,0:0:0:0:
284,208,163957,1,0,0:0:0:0:
284,208,164095,1,0,0:0:0:0:
284,208,164234,1,0,0:0:0:0:
284,208,164373,1,0,0:0:0:0:
284,208,164512,1,0,0:0:0:0:
284,208,164651,1,0,0:0:0:0:
284,208,164790,1,0,0:0:0:0:
278,202,164929,1,8,0:0:0:0:
280,194,165068,1,0,0:0:0:0:
281,194,165207,1,0,0:0:0:0:
281,194,165346,1,0,0:0:0:0:
281,194,165485,1,0,0:0:0:0:
281,194,165624,1,0,0:0:0:0:
269,168,165763,1,0,0:0:0:0:
269,168,165832,1,0,0:0:0:0:
269,168,165901,1,0,0:0:0:0:
269,168,165971,1,0,0:0:0:0:
303,178,166040,1,8,0:0:0:0:
306,193,166179,1,0,0:0:0:0:
296,193,166318,1,0,0:0:0:0:
296,193,166457,1,0,0:0:0:0:
285,198,166596,1,8,0:0:0:0:
296,183,166735,1,8,0:0:0:0:
294,189,166873,1,0,0:0:0:0:
294,189,167012,1,0,0:0:0:0:
285,200,167151,1,0,0:0:0:0:
269,168,167290,1,0,0:0:0:0:
269,168,167429,1,0,0:0:0:0:
269,168,167568,1,0,0:0:0:0:
269,168,167707,1,0,0:0:0:0:
269,168,167846,1,0,0:0:0:0:
269,168,167985,1,0,0:0:0:0:
269,168,168054,1,0,0:0:0:0:
269,168,168123,1,0,0:0:0:0:
269,168,168193,1,0,0:0:0:0:
303,178,168262,1,8,0:0:0:0:
300,179,168401,1,0,0:0:0:0:
299,179,168540,1,0,0:0:0:0:
299,179,168679,1,0,0:0:0:0:
299,179,168818,1,0,0:0:0:0:
303,178,168957,1,0,0:0:0:0:
296,178,169096,1,0,0:0:0:0:
296,178,169235,1,0,0:0:0:0:
276,183,169373,5,8,0:0:0:0:
283,174,169512,1,0,0:0:0:0:
282,176,169651,1,0,0:0:0:0:
282,176,169790,1,0,0:0:0:0:
282,176,169929,1,0,0:0:0:0:
276,174,170068,1,0,0:0:0:0:
269,168,170207,1,0,0:0:0:0:
269,168,170276,1,0,0:0:0:0:
269,168,170345,1,0,0:0:0:0:
269,168,170415,1,0,0:0:0:0:
303,178,170484,1,8,0:0:0:0:
276,173,170623,1,0,0:0:0:0:
276,173,170762,1,0,0:0:0:0:
276,173,170901,1,0,0:0:0:0:
276,173,171040,1,0,0:0:0:0:
276,173,171179,1,0,0:0:0:0:
276,173,171318,1,0,0:0:0:0:
276,173,171457,1,0,0:0:0:0:
285,203,171596,1,8,0:0:0:0:
276,173,171735,1,0,0:0:0:0:
276,174,171874,1,0,0:0:0:0:
276,173,172012,1,0,0:0:0:0:
276,173,172151,1,0,0:0:0:0:
276,173,172290,1,0,0:0:0:0:
269,168,172429,1,0,0:0:0:0:
269,168,172498,1,0,0:0:0:0:
269,168,172567,1,0,0:0:0:0:
269,168,172637,1,0,0:0:0:0:
303,178,172706,1,8,0:0:0:0:
276,173,172846,1,0,0:0:0:0:
276,173,172985,1,0,0:0:0:0:
276,173,173124,1,0,0:0:0:0:
270,170,173262,1,0,0:0:0:0:
270,170,173401,1,0,0:0:0:0:
270,170,173540,1,0,0:0:0:0:
273,170,173679,1,0,0:0:0:0:
296,198,173818,1,8,0:0:0:0:
276,173,173957,1,0,0:0:0:0:
276,173,174096,1,0,0:0:0:0:
269,168,174235,1,0,0:0:0:0:
269,168,174374,1,0,0:0:0:0:
292,164,174512,1,0,0:0:0:0:
269,168,174651,1,0,0:0:0:0:
269,168,174720,1,0,0:0:0:0:
269,168,174789,1,0,0:0:0:0:
269,168,174859,1,0,0:0:0:0:
303,178,174928,1,8,0:0:0:0:
318,176,175068,1,0,0:0:0:0:
318,176,175207,1,0,0:0:0:0:
309,193,175346,1,0,0:0:0:0:
305,163,175485,1,8,0:0:0:0:
307,168,175624,1,8,0:0:0:0:
301,175,175762,1,0,0:0:0:0:
301,177,175901,1,0,0:0:0:0:
279,190,176040,1,8,0:0:0:0:
312,197,176318,1,8,0:0:0:0:
313,223,176457,1,8,0:0:0:0:
318,221,176735,1,8,0:0:0:0:
318,224,176874,1,8,0:0:0:0:
318,224,176943,1,8,0:0:0:0:
318,224,177012,1,8,0:0:0:0:
318,224,177082,1,8,0:0:0:0:
279,190,177151,1,0,0:0:0:0:
313,223,177290,1,8,0:0:0:0:
306,180,177429,1,8,0:0:0:0:
328,227,177707,1,8,0:0:0:0:
316,231,177985,1,8,0:0:0:0:
321,231,178124,1,8,0:0:0:0:
320,227,178262,1,8,0:0:0:0:
312,197,178540,1,8,0:0:0:0:
313,223,178679,1,8,0:0:0:0:
318,221,178957,1,8,0:0:0:0:
318,224,179096,5,8,0:0:0:0:
318,224,179165,1,8,0:0:0:0:
318,224,179234,1,8,0:0:0:0:
318,224,179304,1,8,0:0:0:0:
312,197,179374,1,0,0:0:0:0:
313,223,179512,1,8,0:0:0:0:
306,180,179651,1,8,0:0:0:0:
328,227,179929,1,8,0:0:0:0:
261,145,180207,5,12,0:0:0:0:
261,145,180485,1,12,0:0:0:0:
312,197,180762,1,8,0:0:0:0:
313,223,180901,1,8,0:0:0:0:
318,221,181179,1,8,0:0:0:0:
318,224,181318,1,8,0:0:0:0:
318,224,181387,1,8,0:0:0:0:
318,224,181456,1,8,0:0:0:0:
318,224,181526,1,8,0:0:0:0:
304,196,181596,1,0,0:0:0:0:
313,223,181734,1,8,0:0:0:0:
306,180,181873,1,8,0:0:0:0:
328,227,182151,1,8,0:0:0:0:
325,206,182429,1,8,0:0:0:0:
324,207,182568,1,8,0:0:0:0:
328,210,182707,1,8,0:0:0:0:
312,197,182985,1,8,0:0:0:0:
313,223,183124,1,8,0:0:0:0:
318,221,183402,1,8,0:0:0:0:
318,224,183541,5,8,0:0:0:0:
318,224,183610,1,8,0:0:0:0:
318,224,183679,1,8,0:0:0:0:
318,224,183749,1,8,0:0:0:0:
296,204,183818,1,0,0:0:0:0:
313,223,183957,1,8,0:0:0:0:
306,180,184096,1,8,0:0:0:0:
309,231,184374,1,0,0:0:0:0:
309,231,184513,1,0,0:0:0:0:
309,222,184651,1,0,0:0:0:0:
313,222,184790,1,0,0:0:0:0:
319,218,184929,1,8,0:0:0:0:
312,197,185207,1,8,0:0:0:0:
313,223,185346,1,8,0:0:0:0:
318,221,185624,1,8,0:0:0:0:
318,224,185763,1,8,0:0:0:0:
318,224,185832,1,8,0:0:0:0:
318,224,185901,1,8,0:0:0:0:
318,224,185971,1,8,0:0:0:0:
296,204,186040,1,0,0:0:0:0:
313,223,186179,1,8,0:0:0:0:
306,180,186318,1,8,0:0:0:0:
328,227,186596,1,8,0:0:0:0:
316,231,186874,1,8,0:0:0:0:
321,231,187013,1,8,0:0:0:0:
320,227,187151,1,8,0:0:0:0:
312,197,187429,1,8,0:0:0:0:
313,223,187568,1,8,0:0:0:0:
318,221,187846,1,8,0:0:0:0:
318,224,187985,1,8,0:0:0:0:
318,224,188054,1,8,0:0:0:0:
318,224,188123,1,8,0:0:0:0:
318,224,188193,1,8,0:0:0:0:
284,188,188263,1,0,0:0:0:0:
313,223,188401,1,8,0:0:0:0:
306,180,188540,1,8,0:0:0:0:
284,188,188818,1,8,0:0:0:0:
283,190,188888,1,8,0:0:0:0:
286,189,188957,1,8,0:0:0:0:
286,187,189026,1,8,0:0:0:0:
312,197,189096,1,0,0:0:0:0:
316,201,189165,1,0,0:0:0:0:
317,201,189235,1,0,0:0:0:0:
318,198,189304,1,0,0:0:0:0:
293,200,189374,1,8,0:0:0:0:
305,203,189651,1,8,0:0:0:0:
361,290,189721,1,0,0:0:0:0:
361,290,189790,1,0,0:0:0:0:
361,290,189860,1,0,0:0:0:0:
312,193,189929,1,8,0:0:0:0:
322,188,189999,1,0,0:0:0:0:
322,188,190068,1,0,0:0:0:0:
322,188,190137,1,0,0:0:0:0:
312,193,190207,1,8,0:0:0:0:
322,188,190276,1,0,0:0:0:0:
322,188,190345,1,0,0:0:0:0:
322,188,190414,1,0,0:0:0:0:
312,193,190485,1,8,0:0:0:0:
322,188,190554,1,0,0:0:0:0:
322,188,190623,1,0,0:0:0:0:
322,188,190692,1,0,0:0:0:0:
312,193,190762,1,8,0:0:0:0:
322,188,190832,1,0,0:0:0:0:
322,188,190901,1,0,0:0:0:0:
322,188,190970,1,0,0:0:0:0:
312,193,191040,1,8,0:0:0:0:
322,188,191110,1,0,0:0:0:0:
322,188,191179,1,0,0:0:0:0:
322,188,191248,1,0,0:0:0:0:
312,193,191318,1,8,0:0:0:0:
322,188,191387,1,0,0:0:0:0:
322,188,191456,1,0,0:0:0:0:
322,188,191525,1,0,0:0:0:0:
312,193,191596,1,8,0:0:0:0:
312,193,191665,1,0,0:0:0:0:
312,193,191735,1,0,0:0:0:0:
310,191,191804,1,0,0:0:0:0:
310,191,191874,1,8,0:0:0:0:
310,191,191943,1,0,0:0:0:0:
312,193,192012,1,0,0:0:0:0:
310,191,192082,1,0,0:0:0:0:
312,193,192151,1,8,0:0:0:0:
311,191,192221,1,0,0:0:0:0:
312,193,192290,1,0,0:0:0:0:
311,191,192360,1,0,0:0:0:0:
312,193,192429,1,8,0:0:0:0:
311,191,192499,1,0,0:0:0:0:
312,193,192568,1,0,0:0:0:0:
311,191,192637,1,0,0:0:0:0:
312,193,192707,1,8,0:0:0:0:
311,191,192776,1,0,0:0:0:0:
312,193,192846,1,0,0:0:0:0:
311,191,192915,1,0,0:0:0:0:
312,193,192985,1,8,0:0:0:0:
314,191,193263,1,8,0:0:0:0:
320,191,193402,1,8,0:0:0:0:
320,191,193540,1,8,0:0:0:0:
321,191,193679,1,8,0:0:0:0:
321,191,193818,1,8,0:0:0:0:
312,193,194096,1,8,0:0:0:0:
311,191,194166,1,0,0:0:0:0:
312,193,194235,1,0,0:0:0:0:
311,191,194304,1,0,0:0:0:0:
312,193,194374,1,8,0:0:0:0:
311,191,194443,1,0,0:0:0:0:
312,193,194513,1,0,0:0:0:0:
311,191,194582,1,0,0:0:0:0:
312,193,194652,1,8,0:0:0:0:
311,191,194721,1,0,0:0:0:0:
312,193,194791,1,0,0:0:0:0:
311,191,194860,1,0,0:0:0:0:
312,193,194930,1,8,0:0:0:0:
311,191,194999,1,0,0:0:0:0:
312,193,195069,1,0,0:0:0:0:
311,191,195138,1,0,0:0:0:0:
312,193,195208,1,8,0:0:0:0:
311,191,195277,1,0,0:0:0:0:
312,193,195347,1,0,0:0:0:0:
311,191,195416,1,0,0:0:0:0:
312,193,195486,1,8,0:0:0:0:
311,191,195554,1,0,0:0:0:0:
312,193,195624,1,0,0:0:0:0:
311,191,195693,1,0,0:0:0:0:
312,193,195763,1,8,0:0:0:0:
311,191,195832,1,0,0:0:0:0:
312,193,195902,1,0,0:0:0:0:
311,191,195971,1,0,0:0:0:0:
312,193,196041,1,8,0:0:0:0:
311,191,196110,1,0,0:0:0:0:
312,193,196180,1,0,0:0:0:0:
311,191,196249,1,0,0:0:0:0:
312,193,196319,1,8,0:0:0:0:
311,191,196388,1,0,0:0:0:0:
312,193,196458,1,0,0:0:0:0:
311,191,196527,1,0,0:0:0:0:
312,193,196597,1,8,0:0:0:0:
311,191,196665,1,0,0:0:0:0:
312,193,196735,1,0,0:0:0:0:
311,191,196804,1,0,0:0:0:0:
312,193,196874,1,8,0:0:0:0:
270,197,197152,5,8,0:0:0:0:
270,197,197221,1,8,0:0:0:0:
270,197,197290,1,8,0:0:0:0:
270,197,197360,1,8,0:0:0:0:
270,197,197429,1,0,0:0:0:0:
270,197,197499,1,0,0:0:0:0:
270,197,197568,1,0,0:0:0:0:
270,197,197638,1,0,0:0:0:0:
299,199,197707,1,8,0:0:0:0:
299,199,197777,1,8,0:0:0:0:
299,199,197846,1,8,0:0:0:0:
307,193,197915,1,8,0:0:0:0:
334,191,197985,1,0,0:0:0:0:
334,191,198054,1,0,0:0:0:0:
334,191,198124,1,0,0:0:0:0:
334,191,198193,1,0,0:0:0:0:
279,207,198263,1,8,0:0:0:0:
305,203,198540,1,8,0:0:0:0:
361,290,198610,1,0,0:0:0:0:
361,290,198679,1,0,0:0:0:0:
361,290,198749,1,0,0:0:0:0:
312,193,198818,1,8,0:0:0:0:
322,188,198888,1,0,0:0:0:0:
322,188,198957,1,0,0:0:0:0:
322,188,199026,1,0,0:0:0:0:
312,193,199096,1,8,0:0:0:0:
322,188,199165,1,0,0:0:0:0:
322,188,199234,1,0,0:0:0:0:
322,188,199303,1,0,0:0:0:0:
312,193,199374,1,8,0:0:0:0:
322,188,199443,1,0,0:0:0:0:
322,188,199512,1,0,0:0:0:0:
322,188,199581,1,0,0:0:0:0:
312,193,199651,1,8,0:0:0:0:
322,188,199721,1,0,0:0:0:0:
322,188,199790,1,0,0:0:0:0:
322,188,199859,1,0,0:0:0:0:
312,193,199929,1,8,0:0:0:0:
322,188,199999,1,0,0:0:0:0:
322,188,200068,1,0,0:0:0:0:
322,188,200137,1,0,0:0:0:0:
312,193,200207,1,8,0:0:0:0:
322,188,200276,1,0,0:0:0:0:
322,188,200345,1,0,0:0:0:0:
322,188,200414,1,0,0:0:0:0:
312,193,200485,1,8,0:0:0:0:
312,193,200554,1,0,0:0:0:0:
312,193,200624,1,0,0:0:0:0:
310,191,200693,1,0,0:0:0:0:
311,183,200763,1,8,0:0:0:0:
310,191,200832,1,0,0:0:0:0:
312,193,200901,1,0,0:0:0:0:
310,191,200971,1,0,0:0:0:0:
312,193,201040,1,8,0:0:0:0:
311,191,201110,1,0,0:0:0:0:
312,193,201179,1,0,0:0:0:0:
311,191,201249,1,0,0:0:0:0:
312,193,201318,1,8,0:0:0:0:
311,191,201388,1,0,0:0:0:0:
312,193,201457,1,0,0:0:0:0:
311,191,201526,1,0,0:0:0:0:
312,193,201596,1,8,0:0:0:0:
311,191,201665,1,0,0:0:0:0:
312,193,201735,1,0,0:0:0:0:
311,191,201804,1,0,0:0:0:0:
312,193,201874,1,8,0:0:0:0:
324,229,202152,1,8,0:0:0:0:
324,229,202290,1,8,0:0:0:0:
324,229,202429,1,8,0:0:0:0:
327,225,202568,1,8,0:0:0:0:
327,225,202707,1,8,0:0:0:0:
312,193,202985,1,8,0:0:0:0:
311,191,203055,1,0,0:0:0:0:
312,193,203124,1,0,0:0:0:0:
311,191,203193,1,0,0:0:0:0:
312,193,203263,1,8,0:0:0:0:
311,191,203332,1,0,0:0:0:0:
312,193,203402,1,0,0:0:0:0:
311,191,203471,1,0,0:0:0:0:
312,193,203541,1,8,0:0:0:0:
311,191,203610,1,0,0:0:0:0:
312,193,203680,1,0,0:0:0:0:
311,191,203749,1,0,0:0:0:0:
312,193,203819,1,8,0:0:0:0:
311,191,203888,1,0,0:0:0:0:
312,193,203958,1,0,0:0:0:0:
311,191,204027,1,0,0:0:0:0:
312,193,204097,1,8,0:0:0:0:
311,191,204166,1,0,0:0:0:0:
312,193,204236,1,0,0:0:0:0:
311,191,204305,1,0,0:0:0:0:
312,193,204375,1,8,0:0:0:0:
311,191,204443,1,0,0:0:0:0:
312,193,204513,1,0,0:0:0:0:
311,191,204582,1,0,0:0:0:0:
312,193,204652,1,8,0:0:0:0:
311,191,204721,1,0,0:0:0:0:
312,193,204791,1,0,0:0:0:0:
311,191,204860,1,0,0:0:0:0:
312,193,204930,1,8,0:0:0:0:
311,191,204999,1,0,0:0:0:0:
312,193,205069,1,0,0:0:0:0:
311,191,205138,1,0,0:0:0:0:
312,193,205208,1,8,0:0:0:0:
311,191,205277,1,0,0:0:0:0:
312,193,205347,1,0,0:0:0:0:
311,191,205416,1,0,0:0:0:0:
312,193,205486,1,8,0:0:0:0:
311,191,205554,1,0,0:0:0:0:
312,193,205624,1,0,0:0:0:0:
311,191,205693,1,0,0:0:0:0:
312,193,205763,1,8,0:0:0:0:
351,247,206041,5,8,0:0:0:0:
346,248,206110,1,8,0:0:0:0:
346,248,206179,1,8,0:0:0:0:
346,248,206249,1,8,0:0:0:0:
366,230,206318,1,0,0:0:0:0:
366,230,206388,1,0,0:0:0:0:
366,230,206457,1,0,0:0:0:0:
366,230,206527,1,0,0:0:0:0:
374,249,206596,1,8,0:0:0:0:
374,246,206666,1,8,0:0:0:0:
376,243,206735,1,8,0:0:0:0:
381,235,206804,1,8,0:0:0:0:
371,232,206874,1,0,0:0:0:0:
371,232,206943,1,0,0:0:0:0:
371,232,207013,1,0,0:0:0:0:
369,232,207082,1,0,0:0:0:0:
338,223,207152,1,8,0:0:0:0:
252,179,207429,1,8,0:0:0:0:
258,181,207568,1,8,0:0:0:0:
259,181,207707,1,8,0:0:0:0:
367,237,207846,1,8,0:0:0:0:
373,233,207985,1,8,0:0:0:0:
278,197,208054,1,8,0:0:0:0:
373,233,208124,1,8,0:0:0:0:
284,205,208193,1,8,0:0:0:0:
373,233,208263,1,8,0:0:0:0:
252,179,208402,1,8,0:0:0:0:
258,181,208541,1,8,0:0:0:0:
259,181,208680,1,8,0:0:0:0:
367,237,208819,1,8,0:0:0:0:
373,233,208958,1,8,0:0:0:0:
373,233,209097,1,8,0:0:0:0:
361,266,209166,1,8,0:0:0:0:
373,233,209236,1,8,0:0:0:0:
284,248,209304,1,8,0:0:0:0:
252,179,209374,1,8,0:0:0:0:
258,181,209513,1,8,0:0:0:0:
259,181,209652,1,8,0:0:0:0:
367,237,209791,1,8,0:0:0:0:
373,233,209930,1,8,0:0:0:0:
373,233,210069,1,8,0:0:0:0:
373,233,210208,1,8,0:0:0:0:
314,250,210346,1,8,0:0:0:0:
310,267,210485,1,8,0:0:0:0:
310,267,210554,1,8,0:0:0:0:
310,267,210624,1,8,0:0:0:0:
310,267,210693,1,8,0:0:0:0:
310,267,210763,1,8,0:0:0:0:
310,267,210832,1,8,0:0:0:0:
310,267,210902,1,8,0:0:0:0:
310,267,210971,1,8,0:0:0:0:
310,267,211041,1,8,0:0:0:0:
310,267,211110,1,8,0:0:0:0:
319,266,211179,1,8,0:0:0:0:
319,266,211249,1,8,0:0:0:0:
319,266,211318,1,8,0:0:0:0:
319,266,211388,1,8,0:0:0:0:
324,265,211457,1,8,0:0:0:0:
324,265,211527,1,8,0:0:0:0:
324,265,211596,1,8,0:0:0:0:
270,207,211735,1,0,0:0:0:0:
252,179,211874,1,0,0:0:0:0:
258,181,212013,1,0,0:0:0:0:
259,181,212152,1,0,0:0:0:0:
367,237,212291,1,0,0:0:0:0:
373,233,212430,1,0,0:0:0:0:
300,193,212499,1,0,0:0:0:0:
373,233,212569,1,0,0:0:0:0:
300,193,212638,1,0,0:0:0:0:
373,233,212708,1,0,0:0:0:0:
252,179,212847,1,0,0:0:0:0:
258,181,212986,1,0,0:0:0:0:
259,181,213125,1,0,0:0:0:0:
367,237,213264,1,0,0:0:0:0:
373,233,213403,1,0,0:0:0:0:
373,233,213542,1,0,0:0:0:0:
313,257,213610,1,0,0:0:0:0:
373,233,213681,1,0,0:0:0:0:
306,216,213749,1,0,0:0:0:0:
252,179,213819,1,0,0:0:0:0:
258,181,213958,1,0,0:0:0:0:
259,181,214097,1,0,0:0:0:0:
367,237,214236,1,0,0:0:0:0:
373,233,214375,1,0,0:0:0:0:
373,233,214514,1,0,0:0:0:0:
373,233,214653,1,0,0:0:0:0:
314,250,214791,1,0,0:0:0:0:
310,267,214930,1,0,0:0:0:0:
310,267,214999,1,0,0:0:0:0:
310,267,215069,1,0,0:0:0:0:
310,267,215138,1,0,0:0:0:0:
310,267,215208,1,0,0:0:0:0:
310,267,215277,1,0,0:0:0:0:
310,267,215347,1,0,0:0:0:0:
310,267,215416,1,0,0:0:0:0:
310,267,215486,1,0,0:0:0:0:
310,267,215555,1,0,0:0:0:0:
319,266,215624,1,0,0:0:0:0:
319,266,215694,1,0,0:0:0:0:
319,266,215763,1,0,0:0:0:0:
319,266,215833,1,0,0:0:0:0:
324,265,215902,1,0,0:0:0:0:
324,265,215972,1,0,0:0:0:0:
339,223,216041,1,8,0:0:0:0:
330,249,216110,1,0,0:0:0:0:
328,249,216180,1,0,0:0:0:0:
328,249,216249,1,0,0:0:0:0:
329,246,216318,1,0,0:0:0:0:
329,246,216388,1,0,0:0:0:0:
329,246,216457,1,0,0:0:0:0:
329,246,216527,1,0,0:0:0:0:
330,246,216596,1,0,0:0:0:0:
330,245,216666,1,0,0:0:0:0:
330,245,216735,1,0,0:0:0:0:
332,244,216805,1,0,0:0:0:0:
337,261,216874,1,8,0:0:0:0:
332,244,216943,1,0,0:0:0:0:
337,258,217013,1,8,0:0:0:0:
332,244,217082,1,0,0:0:0:0:
337,257,217152,1,8,0:0:0:0:
326,235,217221,1,0,0:0:0:0:
326,229,217291,1,0,0:0:0:0:
326,229,217360,1,0,0:0:0:0:
325,225,217430,1,0,0:0:0:0:
325,225,217499,1,0,0:0:0:0:
325,225,217568,1,0,0:0:0:0:
322,223,217638,1,0,0:0:0:0:
322,223,217707,1,0,0:0:0:0:
322,223,217777,1,0,0:0:0:0:
322,223,217846,1,0,0:0:0:0:
324,223,217916,1,0,0:0:0:0:
312,262,217985,1,8,0:0:0:0:
326,223,218055,1,0,0:0:0:0:
317,261,218124,1,8,0:0:0:0:
326,223,218193,1,0,0:0:0:0:
318,258,218263,1,8,0:0:0:0:
327,223,218332,1,0,0:0:0:0:
327,223,218402,1,0,0:0:0:0:
328,223,218471,1,0,0:0:0:0:
328,223,218541,1,0,0:0:0:0:
328,223,218610,1,0,0:0:0:0:
328,223,218680,1,0,0:0:0:0:
329,222,218749,1,0,0:0:0:0:
329,222,218818,1,0,0:0:0:0:
329,222,218888,1,0,0:0:0:0:
330,222,218957,1,0,0:0:0:0:
331,222,219027,1,0,0:0:0:0:
333,220,219096,1,0,0:0:0:0:
335,220,219166,1,0,0:0:0:0:
335,220,219235,1,0,0:0:0:0:
335,220,219305,1,0,0:0:0:0:
317,271,219374,1,8,0:0:0:0:
335,220,219443,1,0,0:0:0:0:
336,220,219513,1,0,0:0:0:0:
336,220,219582,1,0,0:0:0:0:
317,271,219652,1,8,0:0:0:0:
336,220,219721,1,0,0:0:0:0:
336,220,219791,1,0,0:0:0:0:
336,220,219860,1,0,0:0:0:0:
317,271,219930,1,8,0:0:0:0:
336,220,219999,1,0,0:0:0:0:
336,221,220068,1,0,0:0:0:0:
336,221,220138,1,0,0:0:0:0:
317,271,220207,1,8,0:0:0:0:
342,219,220277,1,0,0:0:0:0:
342,219,220346,1,0,0:0:0:0:
342,219,220416,1,0,0:0:0:0:
317,271,220485,1,8,0:0:0:0:
342,219,220555,1,0,0:0:0:0:
342,219,220624,1,0,0:0:0:0:
342,219,220693,1,0,0:0:0:0:
346,214,220763,1,0,0:0:0:0:
346,214,220832,1,0,0:0:0:0:
346,214,220902,1,0,0:0:0:0:
346,214,220971,1,0,0:0:0:0:
346,214,221041,1,0,0:0:0:0:
346,214,221110,1,0,0:0:0:0:
346,214,221180,1,0,0:0:0:0:
346,214,221249,1,0,0:0:0:0:
306,285,221318,1,8,0:0:0:0:
346,214,221388,1,0,0:0:0:0:
306,285,221457,1,8,0:0:0:0:
346,214,221527,1,0,0:0:0:0:
306,285,221596,1,8,0:0:0:0:
346,214,221666,1,0,0:0:0:0:
346,214,221735,1,0,0:0:0:0:
346,214,221805,1,0,0:0:0:0:
346,214,221874,1,0,0:0:0:0:
346,214,221943,1,0,0:0:0:0:
346,214,222013,1,0,0:0:0:0:
346,214,222082,1,0,0:0:0:0:
346,214,222152,1,0,0:0:0:0:
346,214,222221,1,0,0:0:0:0:
346,214,222291,1,0,0:0:0:0:
346,214,222360,1,0,0:0:0:0:
306,285,222430,1,8,0:0:0:0:
346,214,222499,1,0,0:0:0:0:
306,285,222568,1,8,0:0:0:0:
346,214,222638,1,0,0:0:0:0:
306,285,222707,1,8,0:0:0:0:
346,214,222777,1,0,0:0:0:0:
346,214,222846,1,0,0:0:0:0:
346,214,222916,1,0,0:0:0:0:
346,214,222985,1,0,0:0:0:0:
346,214,223055,1,0,0:0:0:0:
346,214,223124,1,0,0:0:0:0:
346,214,223193,1,0,0:0:0:0:
346,214,223263,1,0,0:0:0:0:
346,214,223332,1,0,0:0:0:0:
346,214,223402,1,0,0:0:0:0:
346,214,223471,1,0,0:0:0:0:
346,214,223541,1,0,0:0:0:0:
346,214,223610,1,0,0:0:0:0:
346,214,223680,1,0,0:0:0:0:
346,214,223749,1,0,0:0:0:0:
306,285,223818,1,8,0:0:0:0:
306,285,224930,1,8,0:0:0:0:
306,242,225346,1,0,0:0:0:0:
298,242,225416,1,0,0:0:0:0:
306,242,225485,1,8,0:0:0:0:
340,175,226041,1,0,0:0:0:0:
323,179,226110,1,0,0:0:0:0:
323,179,226180,1,0,0:0:0:0:
323,179,226249,1,0,0:0:0:0:
323,179,226319,1,0,0:0:0:0:
323,179,226388,1,0,0:0:0:0:
323,179,226458,1,0,0:0:0:0:
322,179,226527,1,0,0:0:0:0:
327,180,226597,1,8,0:0:0:0:
302,174,226666,1,0,0:0:0:0:
302,174,226736,1,0,0:0:0:0:
302,174,226805,1,0,0:0:0:0:
302,174,226875,1,0,0:0:0:0:
302,174,226944,1,0,0:0:0:0:
302,174,227014,1,0,0:0:0:0:
302,174,227083,1,0,0:0:0:0:
302,174,227152,1,0,0:0:0:0:
302,174,227222,1,0,0:0:0:0:
303,174,227291,1,0,0:0:0:0:
303,174,227361,1,0,0:0:0:0:
303,174,227430,1,0,0:0:0:0:
301,172,227500,1,0,0:0:0:0:
301,172,227569,1,0,0:0:0:0:
288,154,227639,1,0,0:0:0:0:
327,180,227708,1,8,0:0:0:0:
302,174,227777,1,0,0:0:0:0:
302,174,227847,1,0,0:0:0:0:
302,174,227916,1,0,0:0:0:0:
302,174,227986,1,0,0:0:0:0:
302,174,228055,1,0,0:0:0:0:
302,174,228125,1,0,0:0:0:0:
302,174,228194,1,0,0:0:0:0:
302,174,228263,1,0,0:0:0:0:
302,174,228333,1,0,0:0:0:0:
303,174,228402,1,0,0:0:0:0:
303,174,228472,1,0,0:0:0:0:
303,174,228541,1,0,0:0:0:0:
301,172,228611,1,0,0:0:0:0:
301,172,228680,1,0,0:0:0:0:
288,154,228750,1,0,0:0:0:0:
327,180,228819,1,8,0:0:0:0:
302,174,228889,1,0,0:0:0:0:
302,174,228959,1,0,0:0:0:0:
302,174,229028,1,0,0:0:0:0:
302,174,229098,1,0,0:0:0:0:
302,174,229167,1,0,0:0:0:0:
302,174,229237,1,0,0:0:0:0:
302,174,229306,1,0,0:0:0:0:
302,174,229375,1,0,0:0:0:0:
302,174,229445,1,0,0:0:0:0:
303,174,229514,1,0,0:0:0:0:
303,174,229584,1,0,0:0:0:0:
303,174,229653,1,0,0:0:0:0:
301,172,229723,1,0,0:0:0:0:
301,172,229792,1,0,0:0:0:0:
288,154,229862,1,0,0:0:0:0:
327,180,229930,1,8,0:0:0:0:
323,224,229999,1,0,0:0:0:0:
323,224,230069,1,0,0:0:0:0:
323,224,230138,1,0,0:0:0:0:
327,221,230207,1,0,0:0:0:0:
327,221,230277,1,0,0:0:0:0:
327,221,230346,1,0,0:0:0:0:
327,221,230416,1,0,0:0:0:0:
327,221,230485,1,0,0:0:0:0:
327,221,230555,1,0,0:0:0:0:
327,221,230624,1,0,0:0:0:0:
330,221,230694,1,0,0:0:0:0:
330,221,230763,1,0,0:0:0:0:
330,221,230832,1,0,0:0:0:0:
332,220,230902,1,0,0:0:0:0:
332,220,230971,1,0,0:0:0:0:
306,199,231041,1,8,0:0:0:0:
323,224,231110,1,0,0:0:0:0:
323,224,231180,1,0,0:0:0:0:
323,224,231249,1,0,0:0:0:0:
327,221,231318,1,0,0:0:0:0:
327,221,231388,1,0,0:0:0:0:
327,221,231457,1,0,0:0:0:0:
327,221,231527,1,0,0:0:0:0:
327,221,231596,1,0,0:0:0:0:
327,221,231666,1,0,0:0:0:0:
327,221,231735,1,0,0:0:0:0:
330,221,231805,1,0,0:0:0:0:
330,221,231874,1,0,0:0:0:0:
330,221,231943,1,0,0:0:0:0:
332,220,232013,1,0,0:0:0:0:
332,220,232082,1,0,0:0:0:0:
306,199,232152,1,8,0:0:0:0:
323,224,232221,1,0,0:0:0:0:
323,224,232291,1,0,0:0:0:0:
323,224,232360,1,0,0:0:0:0:
327,221,232429,1,0,0:0:0:0:
327,221,232499,1,0,0:0:0:0:
327,221,232568,1,0,0:0:0:0:
327,221,232638,1,0,0:0:0:0:
327,221,232707,1,0,0:0:0:0:
327,221,232777,1,0,0:0:0:0:
327,221,232846,1,0,0:0:0:0:
330,221,232916,1,0,0:0:0:0:
330,221,232985,1,0,0:0:0:0:
330,221,233054,1,0,0:0:0:0:
332,220,233124,1,0,0:0:0:0:
332,220,233193,1,0,0:0:0:0:
306,199,233263,1,8,0:0:0:0:
323,224,233332,1,0,0:0:0:0:
323,224,233402,1,0,0:0:0:0:
323,224,233471,1,0,0:0:0:0:
327,221,233540,1,0,0:0:0:0:
327,221,233610,1,0,0:0:0:0:
327,221,233679,1,0,0:0:0:0:
327,221,233749,1,0,0:0:0:0:
327,221,233818,1,0,0:0:0:0:
327,221,233888,1,0,0:0:0:0:
327,221,233957,1,0,0:0:0:0:
330,221,234027,1,0,0:0:0:0:
330,221,234096,1,0,0:0:0:0:
330,221,234165,1,0,0:0:0:0:
332,220,234235,1,0,0:0:0:0:
332,220,234304,1,0,0:0:0:0:
306,199,234374,1,8,0:0:0:0:
323,224,234444,1,0,0:0:0:0:
323,224,234514,1,0,0:0:0:0:
323,224,234583,1,0,0:0:0:0:
327,221,234652,1,0,0:0:0:0:
327,221,234722,1,0,0:0:0:0:
327,221,234791,1,0,0:0:0:0:
327,221,234861,1,0,0:0:0:0:
327,221,234930,1,0,0:0:0:0:
327,221,235000,1,0,0:0:0:0:
327,221,235069,1,0,0:0:0:0:
330,221,235139,1,0,0:0:0:0:
330,221,235208,1,0,0:0:0:0:
330,221,235277,1,0,0:0:0:0:
332,220,235347,1,0,0:0:0:0:
332,220,235416,1,0,0:0:0:0:
306,199,235485,1,8,0:0:0:0:
323,224,235555,1,0,0:0:0:0:
323,224,235625,1,0,0:0:0:0:
323,224,235694,1,0,0:0:0:0:
327,221,235763,1,0,0:0:0:0:
327,221,235833,1,0,0:0:0:0:
327,221,235902,1,0,0:0:0:0:
327,221,235972,1,0,0:0:0:0:
327,221,236041,1,0,0:0:0:0:
327,221,236111,1,0,0:0:0:0:
327,221,236180,1,0,0:0:0:0:
330,221,236250,1,0,0:0:0:0:
330,221,236319,1,0,0:0:0:0:
330,221,236388,1,0,0:0:0:0:
332,220,236458,1,0,0:0:0:0:
332,220,236527,1,0,0:0:0:0:
306,199,236596,1,8,0:0:0:0:
323,224,236666,1,0,0:0:0:0:
323,224,236736,1,0,0:0:0:0:
323,224,236805,1,0,0:0:0:0:
327,221,236874,1,0,0:0:0:0:
327,221,236944,1,0,0:0:0:0:
327,221,237013,1,0,0:0:0:0:
327,221,237083,1,0,0:0:0:0:
327,221,237152,1,0,0:0:0:0:
327,221,237222,1,0,0:0:0:0:
327,221,237291,1,0,0:0:0:0:
330,221,237361,1,0,0:0:0:0:
330,221,237430,1,0,0:0:0:0:
330,221,237499,1,0,0:0:0:0:
332,220,237569,1,0,0:0:0:0:
332,220,237638,1,0,0:0:0:0:
306,199,237708,1,8,0:0:0:0:
323,224,237777,1,0,0:0:0:0:
323,224,237847,1,0,0:0:0:0:
323,224,237916,1,0,0:0:0:0:
327,221,237985,1,0,0:0:0:0:
327,221,238055,1,0,0:0:0:0:
327,221,238124,1,0,0:0:0:0:
327,221,238194,1,0,0:0:0:0:
327,221,238263,1,0,0:0:0:0:
327,221,238333,1,0,0:0:0:0:
327,221,238402,1,0,0:0:0:0:
330,221,238472,1,0,0:0:0:0:
330,221,238541,1,0,0:0:0:0:
330,221,238610,1,0,0:0:0:0:
332,220,238680,1,0,0:0:0:0:
332,220,238749,1,0,0:0:0:0:
306,199,238819,1,8,0:0:0:0:
323,224,238888,1,0,0:0:0:0:
323,224,238958,1,0,0:0:0:0:
323,224,239027,1,0,0:0:0:0:
327,221,239096,1,0,0:0:0:0:
327,221,239166,1,0,0:0:0:0:
327,221,239235,1,0,0:0:0:0:
327,221,239305,1,0,0:0:0:0:
327,221,239374,1,0,0:0:0:0:
327,221,239444,1,0,0:0:0:0:
327,221,239513,1,0,0:0:0:0:
330,221,239583,1,0,0:0:0:0:
330,221,239652,1,0,0:0:0:0:
330,221,239721,1,0,0:0:0:0:
332,220,239791,1,0,0:0:0:0:
332,220,239860,1,0,0:0:0:0:
306,199,239930,1,8,0:0:0:0:
323,224,239999,1,0,0:0:0:0:
323,224,240069,1,0,0:0:0:0:
323,224,240138,1,0,0:0:0:0:
327,221,240207,1,0,0:0:0:0:
327,221,240277,1,0,0:0:0:0:
327,221,240346,1,0,0:0:0:0:
327,221,240416,1,0,0:0:0:0:
327,221,240485,1,0,0:0:0:0:
327,221,240555,1,0,0:0:0:0:
327,221,240624,1,0,0:0:0:0:
330,221,240694,1,0,0:0:0:0:
330,221,240763,1,0,0:0:0:0:
330,221,240832,1,0,0:0:0:0:
332,220,240902,1,0,0:0:0:0:
332,220,240971,1,0,0:0:0:0:
306,199,241041,1,8,0:0:0:0:
323,224,241110,1,0,0:0:0:0:
323,224,241180,1,0,0:0:0:0:
323,224,241249,1,0,0:0:0:0:
327,221,241318,1,0,0:0:0:0:
327,221,241388,1,0,0:0:0:0:
327,221,241457,1,0,0:0:0:0:
327,221,241527,1,0,0:0:0:0:
327,221,241596,1,0,0:0:0:0:
327,221,241666,1,0,0:0:0:0:
327,221,241735,1,0,0:0:0:0:
330,221,241805,1,0,0:0:0:0:
330,221,241874,1,0,0:0:0:0:
330,221,241943,1,0,0:0:0:0:
332,220,242013,1,0,0:0:0:0:
332,220,242082,1,0,0:0:0:0:
306,199,242152,1,8,0:0:0:0:
267,193,242430,1,0,0:0:0:0:
266,183,242708,1,8,0:0:0:0:
266,183,242777,1,8,0:0:0:0:
271,181,242846,1,8,0:0:0:0:
275,178,242916,1,8,0:0:0:0:
313,191,242985,1,0,0:0:0:0:
316,192,243055,1,0,0:0:0:0:
320,192,243124,1,0,0:0:0:0:
321,192,243194,1,0,0:0:0:0:
360,192,243263,1,8,0:0:0:0:
333,193,243333,1,8,0:0:0:0:
333,192,243402,1,8,0:0:0:0:
333,188,243471,1,8,0:0:0:0:
355,177,243541,1,0,0:0:0:0:
354,177,243610,1,0,0:0:0:0:
351,177,243680,1,0,0:0:0:0:
349,176,243749,1,0,0:0:0:0:
340,175,243819,1,0,0:0:0:0:
323,179,243888,1,0,0:0:0:0:
323,179,243958,1,0,0:0:0:0:
323,179,244027,1,0,0:0:0:0:
323,179,244097,1,0,0:0:0:0:
323,179,244166,1,0,0:0:0:0:
323,179,244236,1,0,0:0:0:0:
322,179,244305,1,0,0:0:0:0:
327,180,244375,1,8,0:0:0:0:
302,174,244444,1,0,0:0:0:0:
302,174,244514,1,0,0:0:0:0:
302,174,244583,1,0,0:0:0:0:
302,174,244653,1,0,0:0:0:0:
302,174,244722,1,0,0:0:0:0:
302,174,244792,1,0,0:0:0:0:
302,174,244861,1,0,0:0:0:0:
302,174,244930,1,0,0:0:0:0:
302,174,245000,1,0,0:0:0:0:
303,174,245069,1,0,0:0:0:0:
303,174,245139,1,0,0:0:0:0:
303,174,245208,1,0,0:0:0:0:
301,172,245278,1,0,0:0:0:0:
301,172,245347,1,0,0:0:0:0:
288,154,245417,1,0,0:0:0:0:
327,180,245486,1,8,0:0:0:0:
302,174,245555,1,0,0:0:0:0:
302,174,245625,1,0,0:0:0:0:
302,174,245694,1,0,0:0:0:0:
302,174,245764,1,0,0:0:0:0:
302,174,245833,1,0,0:0:0:0:
302,174,245903,1,0,0:0:0:0:
302,174,245972,1,0,0:0:0:0:
302,174,246041,1,0,0:0:0:0:
302,174,246111,1,0,0:0:0:0:
303,174,246180,1,0,0:0:0:0:
303,174,246250,1,0,0:0:0:0:
303,174,246319,1,0,0:0:0:0:
301,172,246389,1,0,0:0:0:0:
301,172,246458,1,0,0:0:0:0:
288,154,246528,1,0,0:0:0:0:
327,180,246597,1,8,0:0:0:0:
302,174,246667,1,0,0:0:0:0:
302,174,246737,1,0,0:0:0:0:
302,174,246806,1,0,0:0:0:0:
302,174,246876,1,0,0:0:0:0:
302,174,246945,1,0,0:0:0:0:
302,174,247015,1,0,0:0:0:0:
302,174,247084,1,0,0:0:0:0:
302,174,247153,1,0,0:0:0:0:
302,174,247223,1,0,0:0:0:0:
303,174,247292,1,0,0:0:0:0:
303,174,247362,1,0,0:0:0:0:
303,174,247431,1,0,0:0:0:0:
301,172,247501,1,0,0:0:0:0:
301,172,247570,1,0,0:0:0:0:
288,154,247640,1,0,0:0:0:0:
327,180,247708,1,8,0:0:0:0:
323,224,247777,1,0,0:0:0:0:
323,224,247847,1,0,0:0:0:0:
323,224,247916,1,0,0:0:0:0:
327,221,247985,1,0,0:0:0:0:
327,221,248055,1,0,0:0:0:0:
327,221,248124,1,0,0:0:0:0:
327,221,248194,1,0,0:0:0:0:
327,221,248263,1,0,0:0:0:0:
327,221,248333,1,0,0:0:0:0:
327,221,248402,1,0,0:0:0:0:
330,221,248472,1,0,0:0:0:0:
330,221,248541,1,0,0:0:0:0:
330,221,248610,1,0,0:0:0:0:
332,220,248680,1,0,0:0:0:0:
332,220,248749,1,0,0:0:0:0:
306,199,248819,1,8,0:0:0:0:
323,224,248888,1,0,0:0:0:0:
323,224,248958,1,0,0:0:0:0:
323,224,249027,1,0,0:0:0:0:
327,221,249096,1,0,0:0:0:0:
327,221,249166,1,0,0:0:0:0:
327,221,249235,1,0,0:0:0:0:
327,221,249305,1,0,0:0:0:0:
327,221,249374,1,0,0:0:0:0:
327,221,249444,1,0,0:0:0:0:
327,221,249513,1,0,0:0:0:0:
330,221,249583,1,0,0:0:0:0:
330,221,249652,1,0,0:0:0:0:
330,221,249721,1,0,0:0:0:0:
332,220,249791,1,0,0:0:0:0:
332,220,249860,1,0,0:0:0:0:
306,199,249930,1,8,0:0:0:0:
323,224,249999,1,0,0:0:0:0:
323,224,250069,1,0,0:0:0:0:
323,224,250138,1,0,0:0:0:0:
327,221,250207,1,0,0:0:0:0:
327,221,250277,1,0,0:0:0:0:
327,221,250346,1,0,0:0:0:0:
327,221,250416,1,0,0:0:0:0:
327,221,250485,1,0,0:0:0:0:
327,221,250555,1,0,0:0:0:0:
327,221,250624,1,0,0:0:0:0:
330,221,250694,1,0,0:0:0:0:
330,221,250763,1,0,0:0:0:0:
330,221,250832,1,0,0:0:0:0:
332,220,250902,1,0,0:0:0:0:
332,220,250971,1,0,0:0:0:0:
306,199,251041,1,8,0:0:0:0:
323,224,251110,1,0,0:0:0:0:
323,224,251180,1,0,0:0:0:0:
323,224,251249,1,0,0:0:0:0:
327,221,251318,1,0,0:0:0:0:
327,221,251388,1,0,0:0:0:0:
327,221,251457,1,0,0:0:0:0:
327,221,251527,1,0,0:0:0:0:
327,221,251596,1,0,0:0:0:0:
327,221,251666,1,0,0:0:0:0:
327,221,251735,1,0,0:0:0:0:
330,221,251805,1,0,0:0:0:0:
330,221,251874,1,0,0:0:0:0:
330,221,251943,1,0,0:0:0:0:
332,220,252013,1,0,0:0:0:0:
332,220,252082,1,0,0:0:0:0:
306,199,252152,1,8,0:0:0:0:
323,224,252222,1,0,0:0:0:0:
323,224,252292,1,0,0:0:0:0:
323,224,252361,1,0,0:0:0:0:
327,221,252430,1,0,0:0:0:0:
327,221,252500,1,0,0:0:0:0:
327,221,252569,1,0,0:0:0:0:
327,221,252639,1,0,0:0:0:0:
327,221,252708,1,0,0:0:0:0:
327,221,252778,1,0,0:0:0:0:
327,221,252847,1,0,0:0:0:0:
330,221,252917,1,0,0:0:0:0:
330,221,252986,1,0,0:0:0:0:
330,221,253055,1,0,0:0:0:0:
332,220,253125,1,0,0:0:0:0:
332,220,253194,1,0,0:0:0:0:
306,199,253263,1,8,0:0:0:0:
323,224,253333,1,0,0:0:0:0:
323,224,253403,1,0,0:0:0:0:
323,224,253472,1,0,0:0:0:0:
327,221,253541,1,0,0:0:0:0:
327,221,253611,1,0,0:0:0:0:
327,221,253680,1,0,0:0:0:0:
327,221,253750,1,0,0:0:0:0:
327,221,253819,1,0,0:0:0:0:
327,221,253889,1,0,0:0:0:0:
327,221,253958,1,0,0:0:0:0:
330,221,254028,1,0,0:0:0:0:
330,221,254097,1,0,0:0:0:0:
330,221,254166,1,0,0:0:0:0:
332,220,254236,1,0,0:0:0:0:
332,220,254305,1,0,0:0:0:0:
306,199,254374,1,8,0:0:0:0:
323,224,254444,1,0,0:0:0:0:
323,224,254514,1,0,0:0:0:0:
323,224,254583,1,0,0:0:0:0:
327,221,254652,1,0,0:0:0:0:
327,221,254722,1,0,0:0:0:0:
327,221,254791,1,0,0:0:0:0:
327,221,254861,1,0,0:0:0:0:
327,221,254930,1,0,0:0:0:0:
327,221,255000,1,0,0:0:0:0:
327,221,255069,1,0,0:0:0:0:
330,221,255139,1,0,0:0:0:0:
330,221,255208,1,0,0:0:0:0:
330,221,255277,1,0,0:0:0:0:
332,220,255347,1,0,0:0:0:0:
332,220,255416,1,0,0:0:0:0:
306,199,255486,1,8,0:0:0:0:
323,224,255555,1,0,0:0:0:0:
323,224,255625,1,0,0:0:0:0:
323,224,255694,1,0,0:0:0:0:
327,221,255763,1,0,0:0:0:0:
327,221,255833,1,0,0:0:0:0:
327,221,255902,1,0,0:0:0:0:
327,221,255972,1,0,0:0:0:0:
327,221,256041,1,0,0:0:0:0:
327,221,256111,1,0,0:0:0:0:
327,221,256180,1,0,0:0:0:0:
330,221,256250,1,0,0:0:0:0:
330,221,256319,1,0,0:0:0:0:
330,221,256388,1,0,0:0:0:0:
332,220,256458,1,0,0:0:0:0:
332,220,256527,1,0,0:0:0:0:
306,199,256597,1,8,0:0:0:0:
323,224,256666,1,0,0:0:0:0:
323,224,256736,1,0,0:0:0:0:
323,224,256805,1,0,0:0:0:0:
327,221,256874,1,0,0:0:0:0:
327,221,256944,1,0,0:0:0:0:
327,221,257013,1,0,0:0:0:0:
327,221,257083,1,0,0:0:0:0:
327,221,257152,1,0,0:0:0:0:
327,221,257222,1,0,0:0:0:0:
327,221,257291,1,0,0:0:0:0:
330,221,257361,1,0,0:0:0:0:
330,221,257430,1,0,0:0:0:0:
330,221,257499,1,0,0:0:0:0:
332,220,257569,1,0,0:0:0:0:
332,220,257638,1,0,0:0:0:0:
306,199,257708,1,8,0:0:0:0:
323,224,257777,1,0,0:0:0:0:
323,224,257847,1,0,0:0:0:0:
323,224,257916,1,0,0:0:0:0:
327,221,257985,1,0,0:0:0:0:
327,221,258055,1,0,0:0:0:0:
327,221,258124,1,0,0:0:0:0:
327,221,258194,1,0,0:0:0:0:
327,221,258263,1,0,0:0:0:0:
327,221,258333,1,0,0:0:0:0:
327,221,258402,1,0,0:0:0:0:
330,221,258472,1,0,0:0:0:0:
330,221,258541,1,0,0:0:0:0:
330,221,258610,1,0,0:0:0:0:
332,220,258680,1,0,0:0:0:0:
332,220,258749,1,0,0:0:0:0:
306,199,258819,1,8,0:0:0:0:
323,224,258888,1,0,0:0:0:0:
323,224,258958,1,0,0:0:0:0:
323,224,259027,1,0,0:0:0:0:
327,221,259096,1,0,0:0:0:0:
327,221,259166,1,0,0:0:0:0:
327,221,259235,1,0,0:0:0:0:
327,221,259305,1,0,0:0:0:0:
316,207,259374,1,0,0:0:0:0:
274,188,259652,1,8,0:0:0:0:
274,188,259721,1,8,0:0:0:0:
274,188,259791,1,8,0:0:0:0:
274,188,259860,1,8,0:0:0:0:
292,192,259930,1,0,0:0:0:0:
273,191,260207,1,0,0:0:0:0:
273,191,260277,1,0,0:0:0:0:
271,193,260346,1,0,0:0:0:0:
273,191,260416,1,0,0:0:0:0:
275,179,260485,1,8,0:0:0:0:
294,196,260763,1,8,0:0:0:0:
294,196,260832,1,8,0:0:0:0:
294,196,260902,1,8,0:0:0:0:
292,195,260971,1,8,0:0:0:0:
306,193,261041,1,0,0:0:0:0:
306,193,261110,1,0,0:0:0:0:
306,193,261180,1,0,0:0:0:0:
306,193,261249,1,0,0:0:0:0:
304,188,261319,1,8,0:0:0:0:
302,188,261388,1,8,0:0:0:0:
302,188,261457,1,8,0:0:0:0:
302,188,261527,1,8,0:0:0:0:
294,189,261596,1,8,0:0:0:0:
268,178,261874,1,0,0:0:0:0:
268,188,261943,1,8,0:0:0:0:
278,178,262013,1,0,0:0:0:0:
302,190,262082,1,8,0:0:0:0:
280,178,262152,1,0,0:0:0:0:
304,189,262221,1,8,0:0:0:0:
281,178,262291,1,0,0:0:0:0:
304,189,262360,1,8,0:0:0:0:
281,177,262430,1,0,0:0:0:0:
304,188,262499,1,8,0:0:0:0:
282,176,262568,1,0,0:0:0:0:
290,177,262638,1,8,0:0:0:0:
268,178,262708,1,0,0:0:0:0:
268,188,262777,1,8,0:0:0:0:
278,178,262847,1,0,0:0:0:0:
302,190,262916,1,8,0:0:0:0:
280,178,262986,1,0,0:0:0:0:
304,189,263055,1,8,0:0:0:0:
281,178,263125,1,0,0:0:0:0:
304,189,263194,1,8,0:0:0:0:
281,177,263264,1,0,0:0:0:0:
304,188,263333,1,8,0:0:0:0:
282,176,263402,1,0,0:0:0:0:
292,183,263472,1,8,0:0:0:0:
268,178,263541,1,0,0:0:0:0:
268,188,263610,1,8,0:0:0:0:
278,178,263680,1,0,0:0:0:0:
302,190,263749,1,8,0:0:0:0:
280,178,263819,1,0,0:0:0:0:
304,189,263888,1,8,0:0:0:0:
281,178,263958,1,0,0:0:0:0:
304,189,264027,1,8,0:0:0:0:
281,177,264097,1,0,0:0:0:0:
304,188,264166,1,8,0:0:0:0:
282,176,264235,1,0,0:0:0:0:
285,188,264305,1,8,0:0:0:0:
268,178,264374,1,0,0:0:0:0:
268,188,264443,1,8,0:0:0:0:
278,178,264513,1,0,0:0:0:0:
302,190,264582,1,8,0:0:0:0:
280,178,264652,1,0,0:0:0:0:
304,189,264721,1,8,0:0:0:0:
281,178,264791,1,0,0:0:0:0:
304,189,264860,1,8,0:0:0:0:
281,177,264930,1,0,0:0:0:0:
304,188,264999,1,8,0:0:0:0:
282,176,265068,1,0,0:0:0:0:
277,187,265138,1,8,0:0:0:0:
294,184,265208,1,0,0:0:0:0:
275,173,265277,1,8,0:0:0:0:
297,179,265347,1,0,0:0:0:0:
273,188,265416,1,8,0:0:0:0:
268,178,265485,1,0,0:0:0:0:
268,188,265554,1,8,0:0:0:0:
278,178,265624,1,0,0:0:0:0:
302,190,265693,1,8,0:0:0:0:
280,178,265763,1,0,0:0:0:0:
304,189,265832,1,8,0:0:0:0:
281,178,265902,1,0,0:0:0:0:
304,189,265971,1,8,0:0:0:0:
281,177,266041,1,0,0:0:0:0:
304,188,266110,1,8,0:0:0:0:
282,176,266179,1,0,0:0:0:0:
290,177,266249,1,8,0:0:0:0:
268,178,266319,1,0,0:0:0:0:
268,188,266388,1,8,0:0:0:0:
278,178,266458,1,0,0:0:0:0:
302,190,266527,1,8,0:0:0:0:
280,178,266597,1,0,0:0:0:0:
304,189,266666,1,8,0:0:0:0:
281,178,266736,1,0,0:0:0:0:
304,189,266805,1,8,0:0:0:0:
281,177,266875,1,0,0:0:0:0:
304,188,266944,1,8,0:0:0:0:
282,176,267013,1,0,0:0:0:0:
292,183,267083,1,8,0:0:0:0:
268,178,267152,1,0,0:0:0:0:
268,188,267221,1,8,0:0:0:0:
278,178,267291,1,0,0:0:0:0:
302,190,267360,1,8,0:0:0:0:
280,178,267430,1,0,0:0:0:0:
304,189,267499,1,8,0:0:0:0:
281,178,267569,1,0,0:0:0:0:
304,189,267638,1,8,0:0:0:0:
281,177,267708,1,0,0:0:0:0:
304,188,267777,1,8,0:0:0:0:
282,176,267846,1,0,0:0:0:0:
285,188,267916,1,8,0:0:0:0:
268,178,267985,1,0,0:0:0:0:
268,188,268054,1,8,0:0:0:0:
278,178,268124,1,0,0:0:0:0:
302,190,268193,1,8,0:0:0:0:
280,178,268263,1,0,0:0:0:0:
304,189,268332,1,8,0:0:0:0:
281,178,268402,1,0,0:0:0:0:
304,189,268471,1,8,0:0:0:0:
281,177,268541,1,0,0:0:0:0:
304,188,268610,1,8,0:0:0:0:
282,176,268679,1,0,0:0:0:0:
277,187,268749,1,8,0:0:0:0:
294,184,268819,1,0,0:0:0:0:
275,173,268888,1,8,0:0:0:0:
297,179,268958,1,0,0:0:0:0:
277,184,269027,1,8,0:0:0:0:
295,173,269096,1,0,0:0:0:0:
271,184,269375,1,8,0:0:0:0:
271,184,269445,1,8,0:0:0:0:
271,184,269514,1,8,0:0:0:0:
271,184,269584,1,8,0:0:0:0:
283,173,269653,1,0,0:0:0:0:
285,174,269722,1,0,0:0:0:0:
289,173,269792,1,0,0:0:0:0:
291,171,269861,1,0,0:0:0:0:
328,170,269931,1,8,0:0:0:0:
317,176,270000,1,8,0:0:0:0:
328,170,270070,1,8,0:0:0:0:
317,176,270139,1,8,0:0:0:0:
306,178,270209,1,0,0:0:0:0:
309,178,270278,1,0,0:0:0:0:
310,178,270347,1,0,0:0:0:0:
313,176,270417,1,0,0:0:0:0:
305,203,270486,1,8,0:0:0:0:
361,290,270556,1,0,0:0:0:0:
361,290,270625,1,0,0:0:0:0:
361,290,270695,1,0,0:0:0:0:
312,193,270764,1,8,0:0:0:0:
322,188,270834,1,0,0:0:0:0:
322,188,270903,1,0,0:0:0:0:
322,188,270972,1,0,0:0:0:0:
312,193,271042,1,8,0:0:0:0:
322,188,271111,1,0,0:0:0:0:
322,188,271180,1,0,0:0:0:0:
322,188,271249,1,0,0:0:0:0:
312,193,271320,1,8,0:0:0:0:
322,188,271389,1,0,0:0:0:0:
322,188,271458,1,0,0:0:0:0:
322,188,271527,1,0,0:0:0:0:
312,193,271597,1,8,0:0:0:0:
322,188,271667,1,0,0:0:0:0:
322,188,271736,1,0,0:0:0:0:
322,188,271805,1,0,0:0:0:0:
312,193,271875,1,8,0:0:0:0:
322,188,271945,1,0,0:0:0:0:
322,188,272014,1,0,0:0:0:0:
322,188,272083,1,0,0:0:0:0:
312,193,272153,1,8,0:0:0:0:
322,188,272222,1,0,0:0:0:0:
322,188,272291,1,0,0:0:0:0:
322,188,272360,1,0,0:0:0:0:
312,193,272431,1,8,0:0:0:0:
312,193,272500,1,0,0:0:0:0:
312,193,272570,1,0,0:0:0:0:
310,191,272639,1,0,0:0:0:0:
310,191,272709,1,0,0:0:0:0:
310,191,272778,1,0,0:0:0:0:
312,193,272847,1,0,0:0:0:0:
310,191,272917,1,0,0:0:0:0:
312,193,272986,1,8,0:0:0:0:
311,191,273056,1,0,0:0:0:0:
312,193,273125,1,0,0:0:0:0:
311,191,273195,1,0,0:0:0:0:
312,193,273264,1,8,0:0:0:0:
311,191,273334,1,0,0:0:0:0:
312,193,273403,1,0,0:0:0:0:
311,191,273472,1,0,0:0:0:0:
312,193,273542,1,8,0:0:0:0:
311,191,273611,1,0,0:0:0:0:
312,193,273681,1,0,0:0:0:0:
311,191,273750,1,0,0:0:0:0:
312,193,273820,1,8,0:0:0:0:
311,191,273889,1,0,0:0:0:0:
312,193,273959,1,0,0:0:0:0:
311,191,274028,1,0,0:0:0:0:
311,191,274097,1,0,0:0:0:0:
312,193,274167,1,0,0:0:0:0:
311,191,274236,1,0,0:0:0:0:
311,191,274306,1,0,0:0:0:0:
312,193,274376,1,0,0:0:0:0:
311,191,274445,1,0,0:0:0:0:
311,191,274514,1,0,0:0:0:0:
312,193,274584,1,0,0:0:0:0:
275,182,274652,1,0,0:0:0:0:
275,182,274722,1,0,0:0:0:0:
275,182,274791,1,0,0:0:0:0:
275,182,274861,1,0,0:0:0:0:
297,196,274930,1,8,0:0:0:0:
297,196,275000,1,8,0:0:0:0:
297,196,275069,1,8,0:0:0:0:
300,194,275138,1,8,0:0:0:0:
317,218,275208,1,0,0:0:0:0:
317,218,275277,1,0,0:0:0:0:
317,218,275347,1,0,0:0:0:0:
317,218,275416,1,0,0:0:0:0:
296,188,275486,1,8,0:0:0:0:
296,188,275555,1,8,0:0:0:0:
296,188,275625,1,8,0:0:0:0:
296,188,275694,1,8,0:0:0:0:
335,204,275763,1,0,0:0:0:0:
335,204,275833,1,0,0:0:0:0:
335,204,275902,1,0,0:0:0:0:
335,204,275972,1,0,0:0:0:0:
315,226,276041,1,8,0:0:0:0:
315,226,276111,1,8,0:0:0:0:
315,226,276180,1,8,0:0:0:0:
315,226,276250,1,8,0:0:0:0:
315,215,276319,1,8,0:0:0:0:
315,211,276388,1,8,0:0:0:0:
315,210,276458,1,8,0:0:0:0:
315,206,276527,1,8,0:0:0:0:
328,201,276597,1,0,0:0:0:0:
326,203,276666,1,0,0:0:0:0:
326,203,276736,1,0,0:0:0:0:
326,203,276805,1,0,0:0:0:0:
326,203,276875,1,0,0:0:0:0:
324,202,276944,1,0,0:0:0:0:
324,201,277013,1,0,0:0:0:0:
324,196,277083,1,0,0:0:0:0:
321,200,277152,1,8,0:0:0:0:
316,208,278125,1,0,0:0:0:0:
315,211,278194,1,0,0:0:0:0:
322,219,278264,1,8,0:0:0:0:
265,199,281597,1,12,0:0:0:0:
261,185,282083,1,12,0:0:0:0:
341,362,282523,1,0,0:0:0:0:
341,362,282702,1,0,0:0:0:0:
341,362,282857,1,0,0:0:0:0:
341,362,283012,1,0,0:0:0:0:
283,209,283477,1,8,0:0:0:0:
288,219,283942,1,8,0:0:0:0:
326,356,284407,1,0,0:0:0:0:
326,356,284562,1,0,0:0:0:0:
326,356,284717,1,0,0:0:0:0:
337,359,284872,1,0,0:0:0:0:
326,356,285027,1,0,0:0:0:0:
326,356,285182,1,0,0:0:0:0:
326,356,285337,1,0,0:0:0:0:
326,356,285492,1,0,0:0:0:0:
326,356,285647,1,0,0:0:0:0:
337,359,285802,1,0,0:0:0:0:
326,356,285957,1,0,0:0:0:0:
326,356,286112,1,0,0:0:0:0:
326,356,286267,1,0,0:0:0:0:
326,356,286422,1,0,0:0:0:0:
326,356,286578,1,0,0:0:0:0:
326,356,286733,1,0,0:0:0:0:
311,354,287198,1,8,0:0:0:0:
315,289,287663,1,8,0:0:0:0:
325,290,288128,1,12,0:0:0:0:
295,232,288283,1,0,0:0:0:0:
295,232,288438,1,0,0:0:0:0:
325,290,288593,1,12,0:0:0:0:
413,384,289058,1,12,0:0:0:0:
302,242,289213,1,0,0:0:0:0:
302,242,289368,1,0,0:0:0:0:
330,287,289523,1,8,0:0:0:0:
330,287,289601,1,8,0:0:0:0:
341,285,289678,1,0,0:0:0:0:
341,285,289756,1,0,0:0:0:0:
341,285,289833,1,0,0:0:0:0:
341,285,289911,1,0,0:0:0:0:
322,285,289988,5,8,0:0:0:0:
322,285,290066,1,8,0:0:0:0:
280,271,290143,1,8,0:0:0:0:
295,273,290221,1,8,0:0:0:0:
344,261,290298,1,8,0:0:0:0:
345,266,290376,1,8,0:0:0:0:
331,264,290453,1,0,0:0:0:0:
331,269,290531,1,0,0:0:0:0:
311,274,290609,1,0,0:0:0:0:
314,274,290686,1,0,0:0:0:0:
326,270,290764,1,0,0:0:0:0:
326,269,290841,1,0,0:0:0:0:
337,277,290919,1,8,0:0:0:0:
342,272,291384,1,8,0:0:0:0:
336,294,291849,1,0,0:0:0:0:
336,294,292004,1,0,0:0:0:0:
336,294,292159,1,0,0:0:0:0:
336,294,292314,1,0,0:0:0:0:
333,298,292469,1,0,0:0:0:0:
336,294,292624,1,0,0:0:0:0:
336,294,292779,1,0,0:0:0:0:
336,294,292934,1,0,0:0:0:0:
336,294,293089,1,0,0:0:0:0:
336,294,293244,1,0,0:0:0:0:
336,294,293399,1,0,0:0:0:0:
336,294,293554,1,0,0:0:0:0:
336,294,293709,1,0,0:0:0:0:
336,294,293864,1,0,0:0:0:0:
333,298,294019,1,0,0:0:0:0:
331,282,294174,1,0,0:0:0:0:
290,257,294640,1,8,0:0:0:0:
290,257,295105,1,8,0:0:0:0:
331,288,295570,1,12,0:0:0:0:
311,276,295725,1,0,0:0:0:0:
311,276,295880,1,0,0:0:0:0:
331,288,296035,1,12,0:0:0:0:
331,288,296500,1,12,0:0:0:0:
311,276,296655,1,0,0:0:0:0:
311,276,296810,1,0,0:0:0:0:
331,288,296965,1,12,0:0:0:0:
336,285,297275,1,8,0:0:0:0:
326,285,297430,1,0,0:0:0:0:
326,285,297585,1,0,0:0:0:0:
326,285,297740,1,0,0:0:0:0:
326,285,297895,1,0,0:0:0:0:
335,295,298360,1,8,0:0:0:0:
345,312,298826,1,8,0:0:0:0:
344,292,299291,1,0,0:0:0:0:
344,292,299446,1,0,0:0:0:0:
344,292,299601,1,0,0:0:0:0:
344,292,299756,1,0,0:0:0:0:
344,292,299911,1,0,0:0:0:0:
344,292,300066,1,0,0:0:0:0:
344,292,300221,1,0,0:0:0:0:
344,292,300376,1,0,0:0:0:0:
344,292,300531,1,0,0:0:0:0:
344,292,300686,1,0,0:0:0:0:
344,292,300841,1,0,0:0:0:0:
344,292,300996,1,0,0:0:0:0:
344,292,301151,1,0,0:0:0:0:
344,292,301306,1,0,0:0:0:0:
344,292,301461,1,0,0:0:0:0:
344,292,301616,1,0,0:0:0:0:
351,306,302081,1,8,0:0:0:0:
351,306,302547,1,8,0:0:0:0:
350,286,303012,1,8,0:0:0:0:
349,286,303089,1,8,0:0:0:0:
349,286,303167,1,8,0:0:0:0:
348,286,303244,1,8,0:0:0:0:
355,281,303322,1,8,0:0:0:0:
355,281,303399,1,8,0:0:0:0:
395,275,303477,1,0,0:0:0:0:
395,275,303554,1,0,0:0:0:0:
395,275,303632,1,0,0:0:0:0:
395,275,303709,1,0,0:0:0:0:
395,275,303787,1,0,0:0:0:0:
351,279,303864,1,0,0:0:0:0:
348,283,303942,1,8,0:0:0:0:
353,281,304019,1,8,0:0:0:0:
355,279,304097,1,8,0:0:0:0:
355,279,304174,1,8,0:0:0:0:
355,279,304252,1,8,0:0:0:0:
355,279,304329,1,8,0:0:0:0:
380,272,304407,1,0,0:0:0:0:
381,272,304484,1,0,0:0:0:0:
382,272,304562,1,0,0:0:0:0:
382,272,304640,1,0,0:0:0:0:
382,272,304717,1,0,0:0:0:0:
382,272,304795,1,0,0:0:0:0:
378,268,304872,1,0,0:0:0:0:
378,268,305027,1,0,0:0:0:0:
378,268,305182,1,0,0:0:0:0:
378,268,305337,1,0,0:0:0:0:
358,273,305492,1,0,0:0:0:0:
358,273,305647,1,0,0:0:0:0:
370,281,305802,1,8,0:0:0:0:
370,281,306267,1,8,0:0:0:0:
352,281,306733,1,0,0:0:0:0:
352,281,306888,1,0,0:0:0:0:
352,281,307043,1,0,0:0:0:0:
352,281,307198,1,0,0:0:0:0:
352,281,307353,1,0,0:0:0:0:
352,281,307508,1,0,0:0:0:0:
352,281,307663,1,0,0:0:0:0:
352,281,307818,1,0,0:0:0:0:
352,281,307973,1,0,0:0:0:0:
352,281,308128,1,0,0:0:0:0:
352,281,308283,1,0,0:0:0:0:
352,281,308438,1,0,0:0:0:0:
352,281,308593,1,0,0:0:0:0:
352,281,308748,1,0,0:0:0:0:
368,290,308903,1,0,0:0:0:0:
360,288,309058,1,0,0:0:0:0:
370,280,309523,1,8,0:0:0:0:
379,316,309988,1,8,0:0:0:0:
361,279,310453,1,12,0:0:0:0:
350,298,310609,1,0,0:0:0:0:
350,298,310764,1,0,0:0:0:0:
361,279,310919,1,12,0:0:0:0:
361,279,311384,1,12,0:0:0:0:
322,283,311539,1,0,0:0:0:0:
321,278,311694,1,0,0:0:0:0:
330,287,311849,1,8,0:0:0:0:
330,287,311927,1,8,0:0:0:0:
341,285,312004,1,0,0:0:0:0:
341,285,312082,1,0,0:0:0:0:
341,285,312159,1,0,0:0:0:0:
341,285,312237,1,0,0:0:0:0:
322,285,312314,5,8,0:0:0:0:
322,285,312392,1,8,0:0:0:0:
280,271,312469,1,8,0:0:0:0:
295,273,312547,1,8,0:0:0:0:
344,261,312624,1,8,0:0:0:0:
345,266,312702,1,8,0:0:0:0:
331,264,312779,1,0,0:0:0:0:
331,269,312857,1,0,0:0:0:0:
311,274,312935,1,0,0:0:0:0:
314,274,313012,1,0,0:0:0:0:
326,270,313090,1,0,0:0:0:0:
326,269,313167,1,0,0:0:0:0:
337,277,313245,1,8,0:0:0:0:
339,263,313399,1,0,0:0:0:0:
339,263,313554,1,0,0:0:0:0:
339,263,313709,1,0,0:0:0:0:
339,263,313864,1,0,0:0:0:0:
339,263,314019,1,0,0:0:0:0:
339,263,314174,1,0,0:0:0:0:
339,263,314329,1,0,0:0:0:0:
339,263,314484,1,0,0:0:0:0:
339,263,314640,1,0,0:0:0:0:
339,263,314795,1,0,0:0:0:0:
339,263,314950,1,0,0:0:0:0:
346,262,315105,1,8,0:0:0:0:
339,263,315260,1,0,0:0:0:0:
339,263,315415,1,0,0:0:0:0:
339,263,315570,1,0,0:0:0:0:
339,263,315725,1,0,0:0:0:0:
339,263,315880,1,0,0:0:0:0:
339,263,316035,1,0,0:0:0:0:
339,263,316190,1,0,0:0:0:0:
339,263,316345,1,0,0:0:0:0:
339,263,316500,1,0,0:0:0:0:
339,263,316655,1,0,0:0:0:0:
339,263,316810,1,0,0:0:0:0:
327,279,316965,5,8,0:0:0:0:
339,263,317120,1,0,0:0:0:0:
339,263,317275,1,0,0:0:0:0:
339,263,317430,1,0,0:0:0:0:
339,263,317585,1,0,0:0:0:0:
299,255,317740,1,0,0:0:0:0:
303,259,317895,1,12,0:0:0:0:
343,256,318050,1,0,0:0:0:0:
343,256,318205,1,0,0:0:0:0:
303,259,318360,1,12,0:0:0:0:
305,248,318515,1,0,0:0:0:0:
287,246,318671,1,0,0:0:0:0:
303,259,318826,1,8,0:0:0:0:
300,238,318903,1,8,0:0:0:0:
302,237,318981,1,8,0:0:0:0:
302,237,319058,1,8,0:0:0:0:
305,236,319136,1,8,0:0:0:0:
307,233,319213,1,8,0:0:0:0:
361,245,319291,1,0,0:0:0:0:
354,248,319368,1,0,0:0:0:0:
359,245,319446,1,0,0:0:0:0:
359,245,319523,1,0,0:0:0:0:
362,242,319601,1,0,0:0:0:0:
361,239,319678,1,0,0:0:0:0:
353,233,319756,1,8,0:0:0:0:
352,233,319833,1,8,0:0:0:0:
356,233,319911,1,8,0:0:0:0:
358,232,319988,1,8,0:0:0:0:
364,228,320066,1,8,0:0:0:0:
358,231,320143,1,8,0:0:0:0:
363,239,320221,1,0,0:0:0:0:
363,239,320298,1,0,0:0:0:0:
363,239,320376,1,0,0:0:0:0:
366,235,320453,1,0,0:0:0:0:
366,234,320531,1,0,0:0:0:0:
366,234,320609,1,0,0:0:0:0:
357,233,320686,1,8,0:0:0:0:
350,258,320841,1,0,0:0:0:0:
350,258,320996,1,0,0:0:0:0:
350,258,321151,1,0,0:0:0:0:
350,258,321306,1,0,0:0:0:0:
350,258,321461,1,0,0:0:0:0:
350,258,321616,1,0,0:0:0:0:
350,258,321771,1,0,0:0:0:0:
350,258,321926,1,0,0:0:0:0:
350,258,322081,1,0,0:0:0:0:
350,258,322236,1,0,0:0:0:0:
340,271,322391,1,0,0:0:0:0:
301,221,322546,1,8,0:0:0:0:
338,276,322702,1,0,0:0:0:0:
338,276,322857,1,0,0:0:0:0:
338,276,323012,1,0,0:0:0:0:
351,249,323167,1,0,0:0:0:0:
338,276,323322,1,0,0:0:0:0:
338,276,323477,1,0,0:0:0:0:
338,276,323632,1,0,0:0:0:0:
338,276,323787,1,0,0:0:0:0:
338,276,323942,1,0,0:0:0:0:
338,277,324097,1,0,0:0:0:0:
338,276,324252,1,0,0:0:0:0:
368,341,324407,1,8,0:0:0:0:
