osu file format v7

[General]
AudioFilename: Beatles - Here Comes The Sun.mp3
AudioLeadIn: 0
PreviewTime: 42401
Countdown: 1
SampleSet: Soft
StackLeniency: 0.7
Mode: 0
LetterboxInBreaks: 1
SkinPreference:EliteBeatOsu

[Editor]
Bookmarks: 23554,27230,51506,58914,90466,100660,122320,131453,174328,178064
DistanceSpacing: 0.600000023841858
BeatDivisor: 4
GridSize: 8

[Metadata]
Title:Here Comes The Sun
Artist:The Beatles
Creator:MetalMario201
Version:Sweatin'
Source:
Tags:

[Difficulty]
HPDrainRate:6
CircleSize:4
OverallDifficulty:6
SliderMultiplier:2.2
SliderTickRate:2

[Events]
//Background and Video events
0,0,"sunrise2.jpg"
//Break Periods
2,51442,58295
2,90413,100502
2,122510,130854
//Storyboard Layer 0 (Background)
//Storyboard Layer 1 (Fail)
//Storyboard Layer 2 (Pass)
//Storyboard Layer 3 (Foreground)
//Storyboard Sound Samples
//Background Colour Transformations
3,100,163,162,255

[TimingPoints]
23499,465.116279069767,4,1,1,50,1,0
27220,465.116279069767,4,2,1,50,1,0
27452,-100,4,1,1,50,0,0
27801,-100,4,2,1,50,0,0
28033,-100,4,1,1,50,0,0
28266,-100,4,2,1,50,0,0
29076,461.538461538462,4,1,1,50,1,0
32306,-100,4,2,1,50,0,0
32652,-100,4,1,1,50,0,0
32883,-100,4,2,1,50,0,0
33345,-100,4,1,2,50,0,0
33691,-100,4,1,1,50,0,0
34152,-100,4,2,1,50,0,0
34628,472.44094488189,4,2,1,50,1,0
34894,-100,4,1,1,50,0,0
35248,-100,4,2,1,50,0,0
35484,-100,4,1,1,50,0,0
35720,-100,4,2,1,50,0,0
36525,468.75,4,1,1,50,1,0
37931,-100,4,1,2,50,0,0
38400,-100,4,2,1,50,0,0
38985,-100,4,1,1,50,0,0
39806,-100,4,2,1,50,0,0
40250,472.44094488189,4,1,1,50,1,0
40388,-100,4,2,1,50,0,0
40860,-100,4,1,2,50,0,0
41687,-100,4,2,1,50,0,0
42137,466.926070038911,4,2,1,50,1,0
42720,-100,4,1,1,50,0,0
43537,-100,4,2,1,50,0,0
43887,-100,4,1,2,50,0,0
44238,-100,4,1,1,50,0,0
44588,-100,4,2,1,50,0,0
44821,-100,4,1,2,50,0,0
45055,-100,4,2,1,50,0,0
45638,-100,4,1,1,50,0,0
47273,-100,4,2,1,50,0,0
47623,-100,4,1,2,50,0,0
47973,-100,4,2,1,50,0,0
48323,-100,4,1,1,50,0,0
48673,-100,4,2,1,50,0,0
49024,-100,4,1,1,50,0,0
49257,-100,4,2,1,50,0,0
49491,-100,4,1,2,50,0,0
49724,-100,4,1,1,50,0,0
50074,-100,4,1,2,50,0,0
50541,-100,4,2,1,50,0,0
55192,461.538461538462,4,1,1,50,1,0
59461,-100,4,2,1,50,0,0
59692,-100,4,1,1,50,0,0
59922,-100,4,2,1,50,0,0
60615,-100,4,1,2,50,0,0
60743,466.926070038911,4,1,2,50,1,0
61211,-100,4,1,1,50,0,0
61914,-100,4,2,1,50,0,0
62266,-100,4,1,2,50,0,0
64024,-100,4,2,1,50,0,0
64375,-100,4,1,1,50,0,0
64478,469.483568075117,4,1,1,50,1,0
64610,-100,4,2,1,50,0,0
65078,-100,4,1,2,50,0,0
65430,-100,4,1,1,50,0,0
65899,-100,4,2,1,50,0,0
66602,-100,4,1,1,50,0,0
66953,-100,4,2,1,50,0,0
67188,-100,4,1,1,50,0,0
67422,-100,4,2,1,50,0,0
68125,-100,4,2,1,50,0,0
68360,-100,4,1,1,50,0,0
69180,-100,4,1,2,50,0,0
69649,-100,4,1,1,50,0,0
70118,-100,4,1,2,50,0,0
70586,-100,4,1,1,50,0,0
71524,-100,4,2,1,50,0,0
71875,-100,4,1,1,50,0,0
71993,476.190476190476,4,1,1,50,1,0
72112,-100,4,2,1,50,0,0
72350,-100,4,1,1,50,0,0
73064,-100,4,2,1,50,0,0
73898,466.926070038911,4,2,1,50,1,0
74481,-100,4,1,1,50,0,0
75298,-100,4,2,1,50,0,0
75648,-100,4,1,2,50,0,0
75999,-100,4,1,1,50,0,0
76349,-100,4,2,1,50,0,0
76582,-100,4,1,2,50,0,0
77166,-100,4,2,1,50,0,0
77516,-100,4,1,2,50,0,0
77750,-100,4,2,1,50,0,0
78217,-100,4,1,1,50,0,0
79034,-100,4,2,1,50,0,0
79384,-100,4,1,2,50,0,0
79734,-100,4,2,1,50,0,0
80084,-100,4,1,1,50,0,0
80434,-100,4,2,1,50,0,0
80785,-100,4,1,1,50,0,0
81018,-100,4,2,1,50,0,0
81252,-100,4,1,2,50,0,0
81485,-100,4,1,1,50,0,0
81835,-100,4,1,2,50,0,0
82302,-100,4,2,1,50,0,0
83236,461.538461538462,4,2,1,50,1,0
83812,-100,4,1,1,50,0,0
84043,-100,4,2,1,50,0,0
85197,-100,4,1,2,50,0,0
85428,-100,4,2,1,50,0,0
85889,-100,4,1,1,50,0,0
86120,-100,4,2,1,50,0,0
86351,-100,4,1,2,50,0,0
86582,-100,4,2,1,50,0,0
86958,465.116279069767,4,2,1,50,1,0
87190,-100,4,1,1,50,0,0
87539,-100,4,2,1,50,0,0
87771,-100,4,1,1,50,0,0
88353,-100,4,2,1,50,0,0
88702,-100,4,1,2,50,0,0
89051,-100,4,2,1,50,0,0
90668,465.116279069767,4,1,1,50,1,0
92957,452.830188679245,4,1,1,50,1,0
98846,451.127819548872,4,1,1,50,1,0
101665,-100,4,2,1,50,0,0
102793,-100,4,1,1,50,0,0
103018,-100,4,2,1,50,0,0
103470,-100,4,1,2,50,0,0
103695,-100,4,2,1,50,0,0
104146,-100,4,1,1,50,0,0
104597,-100,4,2,1,50,0,0
104715,447.761194029851,4,2,1,50,1,0
104938,-100,4,1,1,50,0,0
105722,-100,4,2,1,50,0,0
106170,-100,4,1,2,50,0,0
106506,-100,4,2,1,50,0,0
106841,-100,4,1,1,50,0,0
107513,-100,4,2,1,50,0,0
108185,-100,4,1,2,50,0,0
108632,-100,4,1,1,50,0,0
108856,-100,4,1,2,50,0,0
109976,-100,4,1,1,50,0,0
110098,461.538461538462,4,1,1,50,1,0
110220,-100,4,1,2,50,0,0
110444,-100,4,2,1,50,0,0
110568,451.127819548872,4,2,1,50,1,0
110793,-100,4,1,2,50,0,0
111583,-100,4,2,1,50,0,0
111808,-100,4,1,2,50,0,0
112034,-100,4,1,1,50,0,0
112372,-100,4,1,2,50,0,0
113049,-100,4,1,1,50,0,0
113387,-100,4,2,1,50,0,0
114064,-100,4,1,2,50,0,0
114515,-100,4,1,1,50,0,0
114740,-100,4,1,2,50,0,0
115868,-100,4,1,1,50,0,0
116094,-100,4,1,2,50,0,0
116319,-100,4,2,1,50,0,0
116447,458.015267175572,4,2,1,50,1,0
116720,-100,4,1,2,50,0,0
117504,-100,4,2,1,50,0,0
117728,-100,4,1,2,50,0,0
117952,-100,4,1,1,50,0,0
118268,-100,4,1,2,50,0,0
118939,447.761194029851,4,1,2,50,1,0
119834,-100,4,2,1,50,0,0
122310,458.015267175572,4,2,1,50,1,0
125969,451.127819548872,4,1,1,50,1,0
131443,461.538461538462,4,1,1,50,1,0
132019,-100,4,2,1,50,0,0
132250,-100,4,1,1,50,0,0
132827,-100,4,2,1,50,0,0
133291,465.116279069767,4,2,1,50,1,0
133436,-100,4,1,1,50,0,0
136551,-100,4,2,1,50,0,0
136897,-100,4,1,1,50,0,0
137128,-100,4,2,1,50,0,0
137590,-100,4,1,2,50,0,0
137942,-100,4,1,1,50,0,0
138407,-100,4,2,1,50,0,0
138869,467.289719626168,4,2,1,50,1,0
139102,-100,4,1,1,50,0,0
139453,-100,4,2,1,50,0,0
139686,-100,4,1,1,50,0,0
140270,-100,4,2,1,50,0,0
140854,-100,4,1,1,50,0,0
142140,-100,4,1,2,50,0,0
142840,-100,4,2,1,50,0,0
143191,-100,4,1,1,50,0,0
144009,-100,4,2,1,50,0,0
144359,-100,4,1,1,50,0,0
144593,-100,4,2,1,50,0,0
145060,-100,4,1,2,50,0,0
145878,-100,4,2,1,50,0,0
146929,-100,4,1,1,50,0,0
147747,-100,4,2,1,50,0,0
148097,-100,4,1,2,50,0,0
148331,-100,4,2,1,50,0,0
148565,-100,4,1,1,50,0,0
148798,-100,4,2,1,50,0,0
149032,-100,4,1,1,50,0,0
149616,-100,4,2,1,50,0,0
150096,468.75,4,2,1,50,1,0
150213,-100,4,1,1,50,0,0
151502,-100,4,2,1,50,0,0
151853,-100,4,1,2,50,0,0
152205,-100,4,2,1,50,0,0
152556,-100,4,1,1,50,0,0
152908,-100,4,2,1,50,0,0
153260,-100,4,1,1,50,0,0
153494,-100,4,2,1,50,0,0
153728,-100,4,1,2,50,0,0
153963,-100,4,1,1,50,0,0
154314,-100,4,1,2,50,0,0
154783,-100,4,2,1,50,0,0
155710,466.545454545455,4,2,1,50,1,0
156293,-100,4,1,1,50,0,0
156526,-100,4,2,1,50,0,0
157692,-100,4,1,2,50,0,0
157926,-100,4,2,1,50,0,0
158392,-100,4,1,1,50,0,0
158481,454.545454545455,4,1,1,50,1,0
158594,-100,4,2,1,50,0,0
158821,-100,4,1,2,50,0,0
159049,-100,4,2,1,50,0,0
159400,465.477114041893,4,2,1,50,1,0
159981,-100,4,1,1,50,0,0
160796,-100,4,2,1,50,0,0
161145,-100,4,1,2,50,0,0
161378,-100,4,2,1,50,0,0
161611,-100,4,1,1,50,0,0
161843,-100,4,2,1,50,0,0
162076,-100,4,1,2,50,0,0
162309,-100,4,1,1,50,0,0
162658,-100,4,2,1,50,0,0
163240,-100,4,1,1,50,0,0
163589,-100,4,1,2,50,0,0
164054,-100,4,1,1,50,0,0
164520,-100,4,2,1,50,0,0
164869,-100,4,1,1,50,0,0
165102,-100,4,2,1,50,0,0
165567,-100,4,1,2,50,0,0
165800,-100,4,2,1,50,0,0
166265,-100,4,1,1,50,0,0
166498,-100,4,2,1,50,0,0
166731,-100,4,1,2,50,0,0
166964,-100,4,1,1,50,0,0
167313,-100,4,1,2,50,0,0
167778,-100,4,2,1,50,0,0
169291,-100,4,1,1,50,0,0
169524,-100,4,2,1,50,0,0
170687,-100,4,1,2,50,0,0
170920,-100,4,2,1,50,0,0
171386,-100,4,1,1,50,0,0
171618,-100,4,2,1,50,0,0
171851,-100,4,1,2,50,0,0
172084,-100,4,2,1,50,0,0
173015,-100,4,1,1,50,0,0
173364,-100,4,2,1,50,0,0

[HitObjects]
256,8,27219,5,4
278,132,27685,1,0
290,204,27917,1,8
222,180,28150,1,8
234,252,28382,1,2
384,312,29306,6,0,B|288:256|272:368|174:311,3,220,2|0|0|8
128,168,31152,2,0,B|224:224|240:112|338:169,3,220,2|4|0|0
280,224,32768,5,4
224,272,32999,1,2
296,296,33229,1,8
328,360,33460,2,0,B|399:330|435:258|421:165,2,220,2|0|0
256,376,34628,1,4
234,252,35100,5,0
222,180,35336,1,8
290,204,35572,1,8
278,132,35809,1,2
128,72,36759,6,0,B|224:128|240:16|338:73,2,220,2|0|8
160,320,38165,2,0,B|216:384|320:386|400:312|400:222,1,330,2|0
304,168,39103,2,0,B|373:232|272:333|207:263,2,220,4|10|8
232,144,40250,5,8
288,96,40486,1,2
216,72,40722,1,8
184,8,40958,2,0,B|113:38|77:110|91:203,2,220,2|8|0
256,0,42137,1,4
256,272,42603,5,0
176,256,42837,2,0,B|198:171|314:171|336:257,2,220,4|2|0
256,272,44004,1,2
360,56,44471,1,4
292,32,44705,1,8
220,32,44938,1,8
152,56,45172,1,2
336,168,46105,6,0,B|314:83|198:83|176:169,3,220,2|8|4|0
146,240,47740,2,0,B|370:240,1,220,2|0
366,312,48440,2,0,B|142:312,1,220,6|2
74,312,49140,1,8
26,256,49374,1,8
74,200,49607,1,2
160,80,49841,6,0,B|248:34|256:96|264:158|354:111,2,220,4|2|4
156,16,59345,5,0
220,56,59576,1,8
292,32,59807,1,8
356,72,60038,1,2
256,192,60499,1,0
256,192,60743,1,2
184,192,60976,5,0
96,56,61443,2,0,B|-11:120|-11:264|98:329,1,330,2|0
160,280,62383,2,0,B|270:264|256:312|242:360|354:344,4,220,2|0|8|0|0
168,208,64478,5,4
232,176,64712,1,2
304,192,64947,1,8
376,208,65182,2,0,B|448:176|472:96|423:22,2,220,2|2|0
328,264,66355,1,4
356,16,66825,5,0
292,56,67060,1,8
220,32,67294,1,8
156,72,67529,1,2
256,192,67999,1,0
256,192,68233,1,4
328,192,68468,5,0
328,336,68938,2,0,B|412:333|462:280|456:190,2,220,0|8|4
184,336,70346,2,0,B|100:333|50:280|56:190,3,220,2|0|8|0
56,120,71989,5,4
112,72,72231,1,0
146,136,72469,2,0,B|370:136,1,220,2|0
328,208,73183,1,0
256,224,73421,1,2
184,240,73659,1,8
232,296,73898,1,4
256,104,74364,5,0
328,104,74598,2,0,B|432:107|480:80|505:6,2,220,4|2|0
292,40,75765,1,2
144,120,76232,1,4
96,176,76466,1,8
144,232,76699,1,8
192,176,76933,2,0,B|416:176,1,220
412,248,77633,1,2
256,280,78100,5,0
184,280,78333,2,0,B|80:277|32:304|7:378,2,220,4|10|0
192,208,79501,2,0,B|288:226|363:186|384:135,1,220,2|0
344,64,80201,2,0,B|312:144|240:157|158:119,1,220,2|2
104,72,80901,1,8
48,120,81135,1,8
104,168,81368,1,2
160,304,81602,6,0,B|248:350|256:288|264:226|354:273,2,220,4|2|4
8,80,83003,5,0
56,8,83236,1,4
88,72,83466,1,2
120,136,83697,1,8
168,64,83928,1,12
200,128,84159,1,2
232,192,84389,1,8
280,120,84620,1,4
312,184,84851,1,2
344,248,85082,1,8
392,176,85312,1,2
424,240,85543,1,2
456,304,85774,1,8
352,320,86005,5,4
304,376,86235,1,2
256,320,86466,1,8
208,376,86697,1,8
160,320,86958,1,4
48,112,87423,5,4
24,184,87655,1,0
96,168,87888,1,0
152,216,88120,2,0,B|216:257|296:257|362:215,1,220,2|0
456,152,88818,5,2
256,152,89283,1,4
184,40,101552,5,4
256,8,101778,1,8
328,40,102003,1,2
400,56,102229,5,4
368,120,102455,1,2
336,184,102680,1,8
288,112,102906,1,4
256,176,103131,1,2
224,240,103357,1,8
176,168,103582,1,2
144,232,103808,1,2
112,296,104033,1,8
184,312,104259,5,12
256,344,104485,1,0
328,312,104710,1,4
488,232,105162,5,2
400,328,105610,1,0
384,256,105834,1,2
320,224,106058,1,8
255,255,106282,2,0,B|279:343|183:399|118:334,1,220,2|0
176,280,106953,1,4
328,344,107401,5,4
256,376,107625,1,8
184,344,107849,1,2
112,328,108073,5,4
144,264,108297,1,8
176,200,108520,1,8
224,272,108744,1,4
256,208,108968,1,8
288,144,109192,1,8
336,216,109416,1,2
368,152,109640,1,8
400,88,109864,1,8
328,72,110098,5,6
256,40,110328,1,8
184,72,110569,1,4
24,152,111019,5,8
112,56,111470,1,0
128,128,111695,1,2
192,160,111921,1,8
257,129,112146,2,0,B|233:41|329:-15|394:50,1,220,2|8
336,104,112823,1,8
184,192,113274,5,4
256,64,113500,1,8
328,192,113725,1,2
364,256,113951,5,4
328,320,114177,1,8
256,320,114402,1,8
220,256,114628,1,4
256,192,114853,1,8
292,128,115079,1,8
256,64,115304,1,2
184,64,115530,1,8
148,128,115755,1,8
184,192,115981,5,6
256,320,116207,1,8
328,192,116432,1,4
192,264,116905,5,8
328,112,117363,1,0
256,96,117592,1,2
184,112,117821,1,8
152,200,118050,2,0,B|256:137|362:201,1,220,2|8
320,264,118737,1,8
256,192,119834,12,4,122310
200,24,131904,5,0
256,72,132135,1,2
312,24,132366,1,0
368,72,132596,2,0,B|440:88|480:168|455:250,1,220,2|0
384,264,133291,1,4
336,320,133523,6,0,B|240:264|224:376|126:319,3,220,2|0|0|8
152,248,135151,1,0
176,176,135384,2,0,B|272:232|288:120|386:177,3,220,2|4|0|0
328,88,137011,5,0
256,80,137244,1,2
184,88,137477,1,8
116,112,137709,2,0,B|33:128|33:256|118:273,2,220,2|2|0
128,192,138869,1,4
200,360,139336,5,0
256,312,139569,1,8
312,360,139803,1,0
368,312,140037,2,0,B|440:296|480:216|455:134,1,220,2|0
384,120,140738,1,4
336,64,140971,6,0,B|240:120|224:8|126:65,2,220,2|0|8
352,312,142373,2,0,B|296:376|192:378|112:304|112:214,1,330,2|0
208,160,143308,2,0,B|139:224|240:325|305:255,2,220,4|10|8
184,88,144476,5,4
256,80,144710,1,2
328,88,144943,1,8
396,112,145177,2,0,B|479:128|479:256|394:273,2,220,2|8|0
384,192,146345,1,4
308,196,146579,5,2
256,144,146812,1,8
336,128,147046,2,0,B|314:43|198:43|176:129,2,220,4|2|0
256,144,148214,1,2
204,196,148448,1,2
132,192,148682,1,8
68,156,148915,1,8
68,228,149149,1,0
16,280,149383,2,0,B|31:352|127:372|202:360,1,220,2|0
256,304,150083,1,4
336,288,150330,6,0,B|314:203|198:203|176:289,3,220,2|8|4|0
96,312,151971,2,0,B|96:240|136:170|222:152,1,220,2|0
292,152,152674,2,0,B|376:170|416:240|416:314,1,220,6|2
292,320,153377,1,8
220,320,153611,1,8
256,256,153846,1,2
464,192,154080,5,4
256,40,154549,1,2
48,192,155017,1,4
504,80,155486,5,0
456,8,155710,1,4
424,72,155943,1,2
392,136,156176,1,8
344,64,156409,1,12
312,128,156643,1,2
280,192,156876,1,8
232,120,157109,1,4
200,184,157342,1,2
168,248,157576,1,8
120,176,157809,1,2
88,240,158042,1,2
56,304,158276,1,8
160,320,158481,5,4
208,376,158708,1,2
256,320,158935,1,8
304,376,159162,1,8
352,320,159400,1,4
256,104,159865,5,0
184,104,160098,2,0,B|80:107|32:80|7:6,2,220,4|2|0
220,40,161261,1,2
292,40,161494,1,0
328,104,161727,1,4
292,168,161960,1,8
220,168,162192,1,8
148,168,162425,2,0,B|77:175|64:249|112:307|186:280,1,220,2|0
256,280,163123,1,4
328,280,163356,6,0,B|432:277|480:304|505:378,2,220,4|2|2
256,120,164752,1,0
220,184,164985,5,4
184,120,165218,1,2
220,56,165451,1,8
292,56,165683,1,2
328,120,165916,1,2
292,184,166149,1,8
320,256,166382,1,8
256,288,166614,1,8
192,256,166847,1,2
48,192,167080,5,4
256,40,167545,1,2
464,192,168010,1,4
76,176,168476,5,0
148,176,168709,1,4
112,112,168942,1,2
76,48,169175,1,8
148,48,169407,1,12
184,112,169640,1,2
220,176,169873,1,8
292,176,170105,1,4
328,112,170338,1,2
364,48,170571,1,8
436,48,170804,1,2
400,112,171036,1,2
364,176,171269,1,8
328,240,171502,5,4
256,240,171735,1,2
184,240,171967,1,8
220,304,172200,1,8
292,304,172433,1,4
256,24,172898,5,0
176,40,173131,2,0,B|198:125|314:125|336:39,1,220,4|4
256,192,174295,12,4,178019
