osu file format v7

[General]
AudioFilename: Beatles - Here Comes The Sun.mp3
AudioLeadIn: 0
PreviewTime: 42401
Countdown: 1
SampleSet: Soft
StackLeniency: 0.7
Mode: 0
LetterboxInBreaks: 1
SkinPreference:EliteBeatOsu

[Editor]
Bookmarks: 23554,27230,51506,58914,90466,100660,122320,131453,174328,178064
DistanceSpacing: 0.600000023841858
BeatDivisor: 4
GridSize: 8

[Metadata]
Title:Here Comes The Sun
Artist:The Beatles
Creator:MetalMario201
Version:Hard ROCK!
Source:
Tags:

[Difficulty]
HPDrainRate:6
CircleSize:5
OverallDifficulty:8
SliderMultiplier:2.2
SliderTickRate:2

[Events]
//Background and Video events
0,0,"sunrise2.jpg"
//Break Periods
2,51442,58595
2,90413,100802
2,122510,131154
//Storyboard Layer 0 (Background)
//Storyboard Layer 1 (Fail)
//Storyboard Layer 2 (Pass)
//Storyboard Layer 3 (Foreground)
//Storyboard Sound Samples
//Background Colour Transformations
3,100,163,162,255

[TimingPoints]
23499,465.116279069767,4,1,1,50,1,0
27220,465.116279069767,4,2,1,50,1,0
27452,-100,4,1,1,50,0,0
27801,-100,4,2,1,50,0,0
28033,-100,4,1,1,50,0,0
28266,-100,4,2,1,50,0,0
29076,461.538461538462,4,1,1,50,1,0
32320,-100,4,2,1,50,0,0
32666,-100,4,1,1,50,0,0
32897,-100,4,2,1,50,0,0
33359,-100,4,1,2,50,0,0
33691,-100,4,1,1,50,0,0
34152,-100,4,2,1,50,0,0
34628,472.44094488189,4,2,1,50,1,0
34864,-100,4,1,1,50,0,0
35218,-100,4,2,1,50,0,0
35454,-100,4,1,1,50,0,0
35690,-100,4,2,1,50,0,0
36525,468.75,4,1,1,50,1,0
37931,-100,4,1,2,50,0,0
38400,-100,4,2,1,50,0,0
38985,-100,4,1,1,50,0,0
39806,-100,4,2,1,50,0,0
40250,472.44094488189,4,1,1,50,1,0
40388,-100,4,2,1,50,0,0
40860,-100,4,1,2,50,0,0
41687,-100,4,2,1,50,0,0
42137,466.926070038911,4,2,1,50,1,0
42720,-100,4,1,1,50,0,0
43537,-100,4,2,1,50,0,0
43887,-100,4,1,2,50,0,0
44238,-100,4,1,1,50,0,0
44588,-100,4,2,1,50,0,0
44821,-100,4,1,2,50,0,0
45055,-100,4,2,1,50,0,0
45989,-100,4,1,1,50,0,0
47273,-100,4,2,1,50,0,0
47623,-100,4,1,2,50,0,0
47973,-100,4,2,1,50,0,0
48323,-100,4,1,1,50,0,0
48673,-100,4,2,1,50,0,0
49024,-100,4,1,1,50,0,0
49257,-100,4,2,1,50,0,0
49491,-100,4,1,2,50,0,0
49724,-100,4,1,1,50,0,0
50074,-100,4,1,2,50,0,0
50541,-100,4,2,1,50,0,0
55192,461.538461538462,4,1,1,50,1,0
59461,-100,4,2,1,50,0,0
59692,-100,4,1,1,50,0,0
59922,-100,4,2,1,50,0,0
60153,-100,4,1,1,50,0,0
60615,-100,4,1,2,50,0,0
60743,466.926070038911,4,1,2,50,1,0
61209,-100,4,1,1,50,0,0
61910,-100,4,2,1,50,0,0
62260,-100,4,1,2,50,0,0
64011,-100,4,2,1,50,0,0
64361,-100,4,1,1,50,0,0
64478,469.483568075117,4,1,1,50,1,0
64595,-100,4,2,1,50,0,0
65064,-100,4,1,2,50,0,0
65416,-100,4,1,1,50,0,0
65886,-100,4,2,1,50,0,0
66590,-100,4,1,1,50,0,0
66942,-100,4,2,1,50,0,0
67177,-100,4,1,1,50,0,0
67412,-100,4,2,1,50,0,0
67647,-100,4,1,1,50,0,0
68116,-100,4,2,1,50,0,0
68351,-100,4,1,1,50,0,0
69172,-100,4,1,2,50,0,0
69642,-100,4,1,1,50,0,0
69994,-100,4,2,1,50,0,0
70229,-100,4,1,2,50,0,0
70581,-100,4,1,1,50,0,0
71520,-100,4,2,1,50,0,0
71872,-100,4,1,1,50,0,0
71993,476.190476190476,4,1,1,50,1,0
72112,-100,4,2,1,50,0,0
72350,-100,4,1,1,50,0,0
73064,-100,4,2,1,50,0,0
73898,466.926070038911,4,2,1,50,1,0
74481,-100,4,1,1,50,0,0
75298,-100,4,2,1,50,0,0
75648,-100,4,1,2,50,0,0
75999,-100,4,1,1,50,0,0
76349,-100,4,2,1,50,0,0
76582,-100,4,1,2,50,0,0
77166,-100,4,2,1,50,0,0
77516,-100,4,1,2,50,0,0
77750,-100,4,2,1,50,0,0
78217,-100,4,1,1,50,0,0
79034,-100,4,2,1,50,0,0
79384,-100,4,1,2,50,0,0
79734,-100,4,2,1,50,0,0
80084,-100,4,1,1,50,0,0
80434,-100,4,2,1,50,0,0
80785,-100,4,1,1,50,0,0
81018,-100,4,2,1,50,0,0
81252,-100,4,1,2,50,0,0
81485,-100,4,1,1,50,0,0
81835,-100,4,1,2,50,0,0
82302,-100,4,2,1,50,0,0
83236,461.538461538462,4,2,1,50,1,0
83812,-100,4,1,1,50,0,0
84043,-100,4,2,1,50,0,0
85197,-100,4,1,2,50,0,0
85428,-100,4,2,1,50,0,0
85889,-100,4,1,1,50,0,0
86120,-100,4,2,1,50,0,0
86351,-100,4,1,2,50,0,0
86582,-100,4,2,1,50,0,0
86958,465.116279069767,4,2,1,50,1,0
87190,-100,4,1,1,50,0,0
87539,-100,4,2,1,50,0,0
87771,-100,4,1,1,50,0,0
88353,-100,4,2,1,50,0,0
88702,-100,4,1,2,50,0,0
89051,-100,4,2,1,50,0,0
90668,465.116279069767,4,1,1,50,1,0
92957,452.830188679245,4,1,1,50,1,0
98846,451.127819548872,4,1,1,50,1,0
101665,-100,4,2,1,50,0,0
102793,-100,4,1,1,50,0,0
103018,-100,4,2,1,50,0,0
103470,-100,4,1,2,50,0,0
103695,-100,4,2,1,50,0,0
104146,-100,4,1,1,50,0,0
104597,-100,4,2,1,50,0,0
104715,447.761194029851,4,2,1,50,1,0
104938,-100,4,1,1,50,0,0
105722,-100,4,2,1,50,0,0
106170,-100,4,1,2,50,0,0
106506,-100,4,2,1,50,0,0
106841,-100,4,1,1,50,0,0
107513,-100,4,2,1,50,0,0
108185,-100,4,1,2,50,0,0
108632,-100,4,1,1,50,0,0
108856,-100,4,1,2,50,0,0
109976,-100,4,1,1,50,0,0
110098,461.538461538462,4,1,1,50,1,0
110220,-100,4,1,2,50,0,0
110444,-100,4,2,1,50,0,0
110568,451.127819548872,4,2,1,50,1,0
110793,-100,4,1,2,50,0,0
111583,-100,4,2,1,50,0,0
111808,-100,4,1,2,50,0,0
112034,-100,4,1,1,50,0,0
112372,-100,4,1,2,50,0,0
113049,-100,4,1,1,50,0,0
113387,-100,4,2,1,50,0,0
114064,-100,4,1,2,50,0,0
114515,-100,4,1,1,50,0,0
114740,-100,4,1,2,50,0,0
115868,-100,4,1,1,50,0,0
116094,-100,4,1,2,50,0,0
116319,-100,4,2,1,50,0,0
116447,458.015267175572,4,2,1,50,1,0
116720,-100,4,1,2,50,0,0
117504,-100,4,2,1,50,0,0
117728,-100,4,1,2,50,0,0
117952,-100,4,1,1,50,0,0
118268,-100,4,1,2,50,0,0
118939,447.761194029851,4,1,2,50,1,0
119834,-100,4,2,1,50,0,0
122310,458.015267175572,4,2,1,50,1,0
125969,451.127819548872,4,1,1,50,1,0
131443,461.538461538462,4,1,1,50,1,0
132019,-100,4,2,1,50,0,0
132250,-100,4,1,1,50,0,0
132827,-100,4,2,1,50,0,0
133291,465.116279069767,4,2,1,50,1,0
133436,-100,4,1,1,50,0,0
136551,-100,4,2,1,50,0,0
136897,-100,4,1,1,50,0,0
137128,-100,4,2,1,50,0,0
137590,-100,4,1,2,50,0,0
137942,-100,4,1,1,50,0,0
138407,-100,4,2,1,50,0,0
138869,467.289719626168,4,2,1,50,1,0
139102,-100,4,1,1,50,0,0
139453,-100,4,2,1,50,0,0
139686,-100,4,1,1,50,0,0
140270,-100,4,2,1,50,0,0
140854,-100,4,1,1,50,0,0
142140,-100,4,1,2,50,0,0
142840,-100,4,2,1,50,0,0
143191,-100,4,1,1,50,0,0
144009,-100,4,2,1,50,0,0
144359,-100,4,1,1,50,0,0
144593,-100,4,2,1,50,0,0
145060,-100,4,1,2,50,0,0
145878,-100,4,2,1,50,0,0
146929,-100,4,1,1,50,0,0
147747,-100,4,2,1,50,0,0
148097,-100,4,1,2,50,0,0
148331,-100,4,2,1,50,0,0
148565,-100,4,1,1,50,0,0
148798,-100,4,2,1,50,0,0
149032,-100,4,1,1,50,0,0
149616,-100,4,2,1,50,0,0
150096,468.75,4,2,1,50,1,0
150213,-100,4,1,1,50,0,0
151502,-100,4,2,1,50,0,0
151853,-100,4,1,2,50,0,0
152205,-100,4,2,1,50,0,0
152556,-100,4,1,1,50,0,0
152908,-100,4,2,1,50,0,0
153260,-100,4,1,1,50,0,0
153494,-100,4,2,1,50,0,0
153728,-100,4,1,2,50,0,0
153963,-100,4,1,1,50,0,0
154314,-100,4,1,2,50,0,0
154783,-100,4,2,1,50,0,0
155710,466.545454545455,4,2,1,50,1,0
156293,-100,4,1,1,50,0,0
156526,-100,4,2,1,50,0,0
157692,-100,4,1,2,50,0,0
157926,-100,4,2,1,50,0,0
158392,-100,4,1,1,50,0,0
158481,454.545454545455,4,1,1,50,1,0
158537,-100,4,2,1,50,0,0
158821,-100,4,1,2,50,0,0
158992,-100,4,2,1,50,0,0
159400,465.477114041893,4,2,1,50,1,0
159981,-100,4,1,1,50,0,0
160796,-100,4,2,1,50,0,0
161145,-100,4,1,2,50,0,0
161378,-100,4,2,1,50,0,0
161611,-100,4,1,1,50,0,0
161843,-100,4,2,1,50,0,0
162076,-100,4,1,2,50,0,0
162309,-100,4,1,1,50,0,0
162658,-100,4,2,1,50,0,0
163240,-100,4,1,1,50,0,0
163589,-100,4,1,2,50,0,0
164054,-100,4,1,1,50,0,0
164520,-100,4,2,1,50,0,0
164869,-100,4,1,1,50,0,0
165102,-100,4,2,1,50,0,0
165567,-100,4,1,2,50,0,0
165800,-100,4,2,1,50,0,0
166265,-100,4,1,1,50,0,0
166498,-100,4,2,1,50,0,0
166731,-100,4,1,2,50,0,0
166964,-100,4,1,1,50,0,0
167313,-100,4,1,2,50,0,0
167778,-100,4,2,1,50,0,0
169291,-100,4,1,1,50,0,0
169524,-100,4,2,1,50,0,0
170687,-100,4,1,2,50,0,0
170920,-100,4,2,1,50,0,0
171386,-100,4,1,1,50,0,0
171560,-100,4,2,1,50,0,0
171851,-100,4,1,2,50,0,0
172026,-100,4,2,1,50,0,0
173015,-100,4,1,1,50,0,0
173364,-100,4,2,1,50,0,0

[HitObjects]
256,376,27220,5,4
234,252,27685,1,0
222,180,27917,1,8
290,204,28150,1,8
278,132,28382,1,2
128,72,29306,6,0,B|224:128|240:16|338:73,3,220,2|0|0|8
360,144,30922,1,0
384,216,31152,2,0,B|288:160|272:272|174:215,3,220,2|4|0|0
232,160,32768,5,4
288,112,32999,1,2
216,88,33229,1,8
184,24,33460,2,0,B|113:54|77:126|91:219,2,220,2|0|0
256,8,34628,1,4
278,132,35100,5,0
290,204,35336,1,8
222,180,35572,1,8
234,252,35809,1,2
384,312,36759,6,0,B|288:256|272:368|174:311,2,220,2|0|8
352,64,38165,2,0,B|296:0|192:-2|112:72|112:162,1,330,2|0
208,216,39103,2,0,B|139:152|240:51|305:121,2,220,4|10|8
280,240,40250,5,8
224,288,40486,1,2
296,312,40722,1,8
328,376,40958,2,0,B|399:346|435:274|421:181,2,220,2|8|0
256,376,42137,1,4
256,200,42603,5,0
336,184,42837,2,0,B|314:99|198:99|176:185,2,220,4|2|0
256,200,44004,1,2
152,328,44471,1,4
220,352,44705,1,8
292,352,44938,1,8
360,328,45172,1,2
256,200,45638,1,0
256,200,45872,1,4
176,216,46105,6,0,B|198:301|314:301|336:215,3,220,2|8|4|0
366,144,47740,2,0,B|142:144,1,220,2|0
146,72,48440,2,0,B|370:72,1,220,6|2
438,72,49140,1,8
486,128,49374,1,8
438,184,49607,1,2
352,304,49841,6,0,B|264:350|256:288|248:226|158:273,2,220,4|2|4
356,368,59345,5,0
292,328,59576,1,8
220,352,59807,1,8
156,312,60038,1,2
256,192,60268,1,8
256,192,60499,1,0
256,192,60743,1,2
328,192,60976,5,0
416,328,61443,2,0,B|523:264|523:120|414:55,1,330,2|0
352,104,62377,2,0,B|242:120|256:72|270:24|158:40,4,220,2|0|8|0|0
344,176,64478,5,4
280,208,64712,1,2
208,192,64947,1,8
136,176,65182,2,0,B|64:208|40:288|89:362,2,220,2|2|0
184,120,66355,1,4
156,368,66825,5,0
220,328,67060,1,8
292,352,67294,1,8
356,312,67529,1,2
256,192,67764,1,8
256,192,67999,1,0
256,192,68233,1,4
184,192,68468,5,0
184,48,68938,2,0,B|100:51|50:104|56:194,2,220,0|8|4
256,48,70111,1,0
328,48,70346,2,0,B|412:51|462:104|456:194,3,220,2|0|8|0
456,264,71993,5,4
400,312,72231,1,0
366,248,72469,2,0,B|142:248,1,220,2|0
184,176,73183,1,0
256,160,73421,1,2
328,144,73659,1,8
280,88,73898,1,4
256,280,74364,5,0
184,280,74598,2,0,B|80:277|32:304|7:378,2,220,4|2|0
220,344,75765,1,2
368,264,76232,1,4
416,208,76466,1,8
368,152,76699,1,8
320,208,76933,2,0,B|96:208,1,220
100,136,77633,1,2
256,104,78100,5,0
328,104,78333,2,0,B|432:107|480:80|505:6,2,220,4|10|0
320,176,79501,2,0,B|224:158|149:198|128:249,1,220,2|0
168,320,80201,2,0,B|200:240|272:227|354:265,1,220,2|2
408,312,80901,1,8
464,264,81135,1,8
408,216,81368,1,2
352,80,81602,6,0,B|264:34|256:96|248:158|158:111,2,220,4|2|4
504,304,83003,5,0
456,376,83236,1,4
424,312,83466,1,2
392,248,83697,1,8
344,320,83928,1,12
312,256,84159,1,2
280,192,84389,1,8
232,264,84620,1,4
200,200,84851,1,2
168,136,85082,1,8
120,208,85312,1,2
88,144,85543,1,2
56,80,85774,1,8
160,64,86005,5,4
208,8,86235,1,2
256,64,86466,1,8
304,8,86697,1,8
352,64,86958,1,4
464,272,87423,5,4
488,200,87655,1,0
416,216,87888,1,0
360,168,88120,2,0,B|296:127|216:127|150:169,1,220,2|0
56,240,88818,5,2
456,240,89283,1,4
256,48,101552,5,4
328,176,101778,1,8
184,176,102003,1,2
112,376,102229,5,4
144,312,102455,1,2
176,248,102680,1,8
224,320,102906,1,4
256,256,103131,1,2
288,192,103357,1,8
336,264,103582,1,2
368,200,103808,1,2
400,136,104033,1,8
328,72,104259,5,12
184,72,104485,1,0
256,200,104715,1,4
24,152,105162,5,2
112,56,105610,1,0
128,128,105834,1,2
192,160,106058,1,8
257,129,106282,2,0,B|233:41|329:-15|394:50,1,220,2|0
336,104,106953,1,4
256,336,107401,5,4
184,208,107625,1,8
328,208,107849,1,2
400,8,108073,5,4
368,72,108297,1,8
336,136,108520,1,8
288,64,108744,1,4
256,128,108968,1,8
224,192,109192,1,8
176,120,109416,1,2
144,184,109640,1,8
112,248,109864,1,8
184,312,110098,5,6
328,312,110328,1,8
256,184,110568,1,4
488,232,111019,5,8
400,328,111470,1,0
384,256,111695,1,2
320,224,111921,1,8
255,255,112146,2,0,B|279:343|183:399|118:334,1,220,2|8
176,280,112823,1,8
328,192,113274,5,4
256,320,113500,1,8
184,192,113725,1,2
148,128,113951,5,4
184,64,114177,1,8
256,64,114402,1,8
292,128,114628,1,4
256,192,114853,1,8
220,256,115079,1,8
256,320,115304,1,2
328,320,115530,1,8
364,256,115755,1,8
328,192,115981,5,6
256,64,116207,1,8
184,192,116447,1,4
320,120,116905,5,8
184,272,117363,1,0
256,288,117592,1,2
328,272,117821,1,8
360,184,118050,2,0,B|256:247|150:183,1,220,2|8
192,120,118737,1,8
256,192,119834,12,4,122310
312,360,131904,5,0
256,312,132135,1,2
200,360,132366,1,0
144,312,132596,2,0,B|72:296|32:216|57:134,1,220,2|0
128,120,133291,1,4
176,64,133523,6,0,B|272:120|288:8|386:65,3,220,2|0|0|8
360,136,135151,1,0
336,208,135384,2,0,B|240:152|224:264|126:207,3,220,2|4|0|0
184,296,137011,5,0
256,304,137244,1,2
328,296,137477,1,8
396,272,137709,2,0,B|479:256|479:128|394:111,2,220,2|2|0
384,192,138869,1,4
312,24,139336,5,0
256,72,139569,1,8
200,24,139803,1,0
144,72,140037,2,0,B|72:88|32:168|57:250,1,220,2|0
128,264,140738,1,4
176,320,140971,6,0,B|272:264|288:376|386:319,2,220,2|0|8
160,72,142373,2,0,B|216:8|320:6|400:80|400:170,1,330,2|0
304,224,143308,2,0,B|373:160|272:59|207:129,2,220,4|10|8
328,296,144476,5,4
256,304,144710,1,2
184,296,144943,1,8
116,272,145177,2,0,B|33:256|33:128|118:111,2,220,2|8|0
128,192,146345,1,4
204,188,146579,5,2
256,240,146812,1,8
176,256,147046,2,0,B|198:341|314:341|336:255,2,220,4|2|0
256,240,148214,1,2
308,188,148448,1,2
380,192,148682,1,8
444,228,148915,1,8
444,156,149149,1,0
496,104,149383,2,0,B|481:32|385:12|310:24,1,220,2|0
256,80,150096,1,4
176,96,150330,6,0,B|198:181|314:181|336:95,3,220,2|8|4|0
416,72,151971,2,0,B|416:144|376:214|290:232,1,220,2|0
220,232,152674,2,0,B|136:214|96:144|96:70,1,220,6|2
220,64,153377,1,8
292,64,153611,1,8
256,128,153846,1,2
48,192,154080,5,4
256,344,154549,1,2
464,192,155017,1,4
8,304,155486,5,0
56,376,155710,1,4
88,312,155943,1,2
120,248,156176,1,8
168,320,156409,1,12
200,256,156643,1,2
232,192,156876,1,8
280,264,157109,1,4
312,200,157342,1,2
344,136,157576,1,8
392,208,157809,1,2
424,144,158042,1,2
456,80,158275,1,8
352,64,158481,5,4
352,64,158594,1,2
352,64,158708,1,8
160,64,158935,1,8
160,64,159049,1,2
160,64,159162,1,8
256,144,159400,1,4
256,280,159865,5,0
328,280,160098,2,0,B|432:277|480:304|505:378,2,220,4|2|0
292,344,161261,1,2
220,344,161494,1,0
184,280,161727,1,4
220,216,161960,1,8
292,216,162192,1,8
364,216,162425,2,0,B|435:209|448:135|400:77|326:104,1,220,2|0
256,104,163123,1,4
184,104,163356,6,0,B|80:107|32:80|7:6,2,220,4|2|2
256,264,164752,1,0
292,200,164985,5,4
328,264,165218,1,2
292,328,165451,1,8
220,328,165683,1,2
184,264,165916,1,2
220,200,166149,1,8
192,128,166382,1,8
256,96,166614,1,8
320,128,166847,1,2
464,192,167080,5,4
256,344,167545,1,2
48,192,168011,1,4
436,208,168476,5,0
364,208,168709,1,4
400,272,168942,1,2
436,336,169175,1,8
364,336,169407,1,12
328,272,169640,1,2
292,208,169873,1,8
220,208,170105,1,4
184,272,170338,1,2
148,336,170571,1,8
76,336,170804,1,2
112,272,171036,1,2
148,208,171269,1,8
160,136,171502,5,4
160,136,171618,1,2
160,136,171735,1,8
352,136,171967,1,8
352,136,172084,1,2
352,136,172200,1,8
256,56,172433,1,4
256,360,172898,5,0
336,344,173131,2,0,B|314:259|198:259|176:345,1,220,4|4
256,192,174295,12,4,178019
