osu file format v4

[General]
AudioFilename: 10 Help!.mp3
AudioLeadIn: 0
AudioHash: 51a06c91985b02543744a4080defd822
PreviewTime: -1
SampleSet: Normal
EditorBookmarks: 70704

[Metadata]
Title:Help!
Artist:The Beatles
Creator:Jay
Version:Normal

[Difficulty]
HPDrainRate:6
CircleSize:5
OverallDifficulty:6
SliderMultiplier: 1.2
SliderTickRate: 2

[Events]
0,0,"Futura_Meteor-1400x1050.jpg"
3,0,163,162,255

[TimingPoints]
32,631.611167352103,4,1,1

[HitObjects]
160,64,1216,1,0,
160,64,1374,1,0,
256,64,1689,1,0,
256,64,1847,1,0,
352,64,2321,1,2,
256,192,2637,5,4,
352,320,3426,5,0,
352,320,3584,1,0,
256,320,3900,1,0,
160,320,4295,2,2,B|160:320|128:320|96:288|96:256,1,90
256,192,5084,5,4,
160,192,5953,5,0,
160,192,6111,1,0,
256,192,6427,1,0,
352,192,6742,1,0,
352,192,6900,1,2,
257,108,7690,6,4,L|257:108|257:300,1,180
96,96,10453,5,0,
96,96,10611,1,0,
192,96,11085,1,2,
288,96,11716,1,0,
288,96,11874,1,0,
384,96,12348,1,2,
384,192,12980,1,0,
384,192,13137,1,0,
288,192,13611,1,2,
192,192,14243,1,0,
192,192,14401,1,0,
96,192,14874,1,2,
192,352,15506,6,0,B|192:352|320:352,3,120
448,352,17717,1,0,
352,256,18032,1,0,
256,160,18348,1,0,
256,160,18506,1,0,
160,64,18901,1,2,
256,64,20559,5,0,
256,64,20875,1,0,
256,160,21190,1,0,
256,160,21506,1,0,
256,256,21822,1,0,
256,256,21980,1,2,
256,352,22296,5,0,
317,223,22770,2,0,B|317:223|189:223,3,120
160,192,25612,1,0,
160,192,25770,1,0,
160,192,25928,1,2,
352,192,26559,1,0,
352,192,26717,1,0,
352,192,26875,1,2,
406,278,27822,5,0,
310,278,28138,1,0,
214,278,28454,1,0,
118,278,28770,1,0,
118,278,28928,1,0,
148,119,30270,2,2,B|148:119|212:55|309:55|372:119,3,240
364,265,34612,2,2,B|364:265|300:329|203:329|140:265,3,240
224,32,40297,5,0,
224,32,40455,1,0,
288,96,40928,1,2,
224,160,41560,5,0,
224,160,41718,1,0,
288,224,42192,1,2,
224,288,42823,5,0,
224,288,42981,1,0,
288,352,43455,1,2,
256,192,44086,5,2,
256,192,44402,1,2,
256,192,44718,1,6,
256,32,45350,6,4,B|256:32|256:288,1,240
256,352,47244,1,2,
256,352,47876,1,6,
256,320,50718,5,0,
256,320,51034,1,0,
256,224,51350,1,0,
256,224,51666,1,0,
256,128,51982,1,0,
256,128,52139,1,2,
256,32,52534,5,0,
317,161,53008,2,0,B|317:161|189:161,3,120
64,160,55850,5,0,
64,160,56166,1,2,
128,256,56482,1,0,
128,256,56798,1,2,
256,288,57113,1,0,
256,288,57429,1,2,
384,256,57745,1,0,
384,256,58061,1,2,
384,256,58219,1,2,
448,160,58692,1,0,
269,159,59008,6,0,B|269:159|237:159,1,30
128,160,60587,6,0,L|128:160|192:224|320:224|384:160,1,300
416,192,62719,5,0,
320,192,63114,2,0,B|320:192|192:192,3,120
128,128,65798,5,0,
128,128,65956,1,0,
128,128,66114,1,0,
128,128,66272,1,0,
128,256,66745,1,0,
128,256,66903,1,0,
128,256,67061,1,0,
128,256,67219,1,0,
256,192,68167,5,0,
256,192,68324,1,0,
256,128,68561,1,0,
320,224,68956,1,0,
192,224,69193,1,2,
256,192,70614,12,0,74325
128,192,74956,2,0,L|128:192|256:64|384:192|256:320|128:192,1,720
192,64,80641,5,0,
224,128,80957,1,0,
256,192,81194,1,0,
288,256,81509,1,0,
320,320,81825,1,0,
384,320,82220,2,0,B|384:320|416:256|416:160|384:96|288:64,1,300
378,67,85141,5,0,
378,131,85457,1,0,
378,195,85773,2,0,B|378:195|122:195,1,240
139,260,87668,1,0,
137,323,88299,1,0,
190,73,90905,6,0,B|190:73|318:73,8,120
256,160,96273,5,0,
256,160,96431,1,0,
256,160,96589,1,0,
256,160,96905,1,0,
256,320,97221,5,0,
256,320,97379,1,0,
255,244,97694,5,0,
255,244,97852,1,0,
128,192,98484,5,0,
256,192,98800,1,0,
384,192,99116,1,0,
384,192,99273,1,0,
256,192,99668,5,2,
128,192,101326,5,0,
128,192,101642,1,0,
224,192,101958,1,0,
224,192,102274,1,0,
320,192,102589,1,0,
320,192,102747,1,2,
416,192,103063,5,0,
287,253,103537,2,0,B|287:253|287:125,3,120
192,251,106458,6,0,B|192:251|64:251,1,120
71,179,107405,2,0,B|71:179|199:179,1,120
256,192,108748,5,0,
256,192,109063,1,0,
256,256,109379,1,0,
256,320,109695,1,0,
256,320,109853,1,2,
183,300,111195,2,2,B|183:300|119:236|119:139|183:76,3,240
329,84,115616,2,2,B|329:84|393:148|393:245|329:308,3,240
320,64,121301,5,0,
288,128,121617,1,0,
256,192,121854,1,0,
224,256,122169,1,0,
192,320,122485,1,0,
128,320,122880,2,0,B|128:320|96:256|96:160|128:96|224:64,1,300
134,317,125801,5,0,
134,253,126117,1,0,
134,189,126433,2,0,B|134:189|390:189,1,240
373,124,128328,1,0,
375,61,128959,1,0,
160,192,129591,5,4,
160,192,130143,1,4,
352,192,130854,5,4,
256,192,131486,12,0,134880
