osu file format v4

[General]
AudioFilename: 10 Help!.mp3
AudioLeadIn: 0
AudioHash: 51a06c91985b02543744a4080defd822
PreviewTime: -1
SampleSet: Normal
EditorBookmarks: 70704

[Metadata]
Title:Help!
Artist:The Beatles
Creator:Jay
Version:Hard

[Difficulty]
HPDrainRate:7
CircleSize:6
OverallDifficulty:7
SliderMultiplier: 1.8
SliderTickRate: 2

[Events]
0,0,"Futura_Meteor-1400x1050.jpg"
3,0,163,162,255

[TimingPoints]
140,627.411167352102,4,1,1

[HitObjects]
160,320,1237,1,0,
160,320,1394,1,0,
256,320,1708,1,0,
256,320,1865,1,0,
352,320,2335,1,2,
256,192,2649,5,4,
352,64,3433,5,0,
352,64,3590,1,0,
256,64,3904,1,0,
256,64,4061,1,0,
160,64,4375,2,2,B|160:64|128:64|96:96|96:192,1,135
256,192,5159,5,4,
160,192,5943,5,0,
160,192,6100,1,0,
256,192,6414,1,0,
352,192,6727,1,0,
352,192,6884,1,2,
256,256,7668,6,4,L|256:256|256:64,2,180
96,288,10492,5,0,
96,288,10649,1,0,
192,288,11119,1,0,
192,288,11433,1,0,
320,288,11747,1,0,
320,288,12060,1,0,
416,288,12374,1,0,
416,288,12688,1,0,
416,192,13001,1,0,
416,192,13315,1,0,
416,96,13629,1,0,
416,96,13943,1,0,
352,96,14256,1,0,
288,96,14570,1,0,
224,96,14884,1,0,
160,96,15197,1,0,
160,32,15511,6,0,B|160:32|352:32,3,180
256,128,17707,1,0,
256,256,18021,1,0,
256,192,18334,1,0,
256,192,18491,1,0,
256,320,18962,1,2,
256,320,20530,5,0,
256,320,20844,1,0,
256,224,21158,1,0,
256,224,21471,1,0,
256,128,21785,1,0,
256,128,21942,1,2,
256,32,22256,5,0,
256,192,22726,1,0,
256,192,23040,1,0,
256,256,23354,1,0,
128,256,23667,2,0,B|128:256|160:320|256:352|352:320|384:256,1,270
160,192,25550,1,0,
160,192,25706,1,0,
160,192,25863,1,2,
352,192,26491,1,0,
352,192,26647,1,0,
352,192,26804,1,2,
406,106,27731,5,0,
310,106,28045,1,0,
214,106,28359,1,0,
118,106,28673,1,0,
118,106,28829,1,0,
256,192,30255,12,2,34020
256,352,34647,5,0,
256,352,34804,1,0,
257,224,35118,1,0,
256,288,35588,1,0,
256,288,35902,1,0,
256,224,36216,1,0,
256,224,36372,1,0,
256,108,36843,1,0,
224,160,37157,2,2,B|224:160|160:128|160:32|256:0|352:32|352:128|288:160,1,337.5
64,320,40294,5,0,
64,320,40451,1,0,
160,320,40921,1,2,
448,320,41549,5,0,
448,320,41705,1,0,
352,320,42176,1,2,
448,96,42803,5,0,
448,96,42960,1,0,
352,96,43431,1,2,
256,192,44058,5,2,
256,192,44372,1,2,
256,192,44686,1,6,
96,352,45313,6,4,B|96:352|320:64,1,360
317,69,47195,1,2,
316,69,47823,1,6,
256,64,50803,5,0,
256,64,51117,1,0,
256,160,51430,1,0,
256,160,51744,1,0,
256,256,52058,1,0,
256,256,52215,1,2,
256,352,52528,5,0,
357,220,52999,2,0,B|357:220|167:220,3,180
64,224,55822,5,0,
64,224,56136,1,2,
128,128,56450,1,0,
128,128,56763,1,2,
256,96,57077,1,0,
256,96,57391,1,2,
384,128,57704,1,0,
384,128,58018,1,2,
384,128,58175,1,2,
448,224,58646,1,0,
293,226,58959,6,0,B|293:226|228:228,1,45
256,64,60998,5,0,
256,64,61155,1,0,
256,160,61469,1,0,
256,224,61783,1,0,
256,320,62096,1,0,
256,320,62410,1,0,
256,224,62724,5,0,
256,224,63080,2,0,B|256:224|256:32,3,180
320,224,65861,5,0,
320,224,66018,1,0,
320,224,66175,1,0,
320,224,66331,1,0,
192,224,66802,1,0,
192,224,66959,1,0,
192,224,67116,1,0,
192,224,67272,1,0,
160,192,68057,5,0,
160,192,68214,1,0,
160,192,68370,1,0,
256,192,68684,1,0,
352,192,68998,1,0,
352,192,69155,2,0,B|352:192|288:128|224:128|160:128,1,180
256,192,70723,12,0,74331
256,192,75115,12,0,79507
224,256,80762,5,0,
256,192,81076,1,0,
256,192,81232,1,0,
288,128,81546,1,0,
320,64,81860,1,0,
384,64,82330,2,0,B|384:64|416:128|416:224|384:288|320:320,1,270
256,352,85154,5,0,
256,288,85467,1,0,
256,224,85781,2,0,B|256:224|256:32,2,180
256,288,87663,1,0,
256,352,88291,1,0,
288,320,91271,5,0,
288,320,91428,1,0,
288,256,91742,2,0,B|288:256|288:160,1,90
288,96,92369,1,0,
288,96,92526,1,2,
288,96,92996,1,0,
224,64,93310,6,0,B|224:64|224:160,1,90
160,160,93937,1,0,
160,224,94251,2,0,B|160:224|192:288|288:320|384:288|416:256,1,270
256,224,96134,5,0,
256,224,96291,1,0,
256,224,96448,1,0,
256,224,96604,1,0,
255,141,96918,1,0,
256,64,97231,5,0,
256,64,97388,1,0,
255,140,97702,5,0,
255,140,97859,1,0,
128,192,98358,5,0,
256,192,98800,1,0,
384,192,99114,1,0,
384,192,99270,1,0,
256,192,99584,5,2,
128,192,101310,5,0,
128,192,101623,1,0,
224,192,101937,1,0,
224,192,102251,1,0,
320,192,102564,1,0,
320,192,102721,1,2,
416,192,103035,5,0,
293,112,103505,2,0,B|293:112|294:301,3,180
280,99,106329,6,0,B|280:99|216:99,3,45
259,158,107270,2,0,B|259:158|259:222,3,45
256,192,108525,5,0,
256,192,108682,1,0,
256,192,108995,1,0,
256,128,109309,1,0,
256,64,109623,1,0,
256,64,109779,1,2,
160,64,111191,2,2,L|160:64|158:352|159:192|352:192|352:352|352:64,1,1080
256,352,115583,5,0,
256,352,115740,1,0,
256,224,116069,1,0,
256,288,116524,1,0,
256,288,116838,1,0,
256,224,117152,1,0,
256,224,117309,1,0,
256,108,117779,1,0,
224,160,118093,2,2,B|224:160|160:128|160:32|256:0|352:32|352:128|288:160,1,337.5
288,256,121230,5,0,
256,192,121544,1,0,
256,192,121728,1,0,
224,128,122171,1,0,
192,64,122485,1,0,
128,32,122798,2,0,B|128:32|96:96|96:192|128:256|192:320,1,270
256,32,125779,5,0,
256,96,126092,1,0,
256,160,126406,2,0,B|256:160|256:352,2,180
256,96,128288,1,0,
256,32,128916,1,0,
256,256,129543,5,6,
256,128,130170,1,6,
256,192,130798,1,6,
256,192,131425,12,0,134876
