osu file format v7

[General]
AudioFilename: The Beatles - Hello Goodbye.ogg
AudioLeadIn: 0
PreviewTime: 60348
Countdown: 0
SampleSet: Normal
StackLeniency: 0.7
Mode: 0
LetterboxInBreaks: 1

[Editor]
Bookmarks: 70799,81153
DistanceSpacing: 1
BeatDivisor: 4
GridSize: 8

[Metadata]
Title:Hello Goodbye
Artist:The Beatles
Creator:IAmNotShinta
Version:Stay
Source:
Tags:RandomJibberish classic old Magical Mystery Tour

[Difficulty]
HPDrainRate:4
CircleSize:3
OverallDifficulty:5
SliderMultiplier:1.8
SliderTickRate:2

[Events]
//Background and Video events
0,0,"Beatles.png"
//Break Periods
2,41041,42095
2,71911,79953
//Storyboard Layer 0 (Background)
//Storyboard Layer 1 (Fail)
//Storyboard Layer 2 (Pass)
//Storyboard Layer 3 (Foreground)
//Storyboard Sound Samples
//Background Colour Transformations
3,100,163,162,255

[TimingPoints]
0,631.578947368421,4,1,0,50,1,0
4421,628.272251308901,4,1,0,50,1,0
7562,615.384615384615,4,1,0,50,1,0
12485,600,4,1,0,50,1,0
13685,618.556701030928,4,1,0,50,1,0
14922,625,4,1,0,50,1,0
15547,610.687022900763,4,1,0,50,1,0
17990,600,4,1,0,50,1,0
18590,618.556701030928,4,1,0,50,1,0
21683,594.059405940594,4,1,0,50,1,0
22277,618.556701030928,4,1,0,50,1,0
24751,640,4,1,0,50,1,0
26671,625,4,1,0,50,1,0
29796,606.060606060606,4,1,0,50,1,0
31008,625,4,1,0,50,1,0
33508,609.137055837563,4,1,0,50,1,0
34726,606.060606060606,4,1,0,50,1,0
35938,616.966580976864,4,1,0,50,1,0
38406,609.137055837563,4,1,0,50,1,0
40234,612.244897959184,4,1,0,50,1,0
45744,616.966580976864,4,1,0,50,1,0
47595,625,4,1,0,50,1,0
48845,588.235294117647,4,1,0,50,1,0
49433,625,4,1,0,50,1,0
50683,603.015075376884,4,1,0,50,1,0
53095,595.533498759305,4,1,0,50,1,0
54286,609.137055837563,4,1,0,50,1,0
56114,604.534005037783,4,1,0,50,1,0
57323,612.244897959184,4,1,0,50,1,0
58547,576.923076923077,4,1,0,50,1,0
59124,612.244897959184,4,1,0,50,1,0
61573,621.761658031088,4,1,0,50,1,0
64060,631.578947368421,4,1,0,50,1,0
64692,612.244897959184,4,1,0,50,1,0
68977,607.594936708861,4,1,0,50,1,0
71408,607.594936708861,4,1,0,50,1,0
72623,618.556701030928,4,1,0,50,1,0
73860,612.244897959184,4,1,0,50,1,0
75085,601.503759398496,4,1,0,50,1,0
76288,607.594936708861,4,1,0,50,1,0
78718,616.966580976864,4,1,0,50,1,0
79335,606.060606060606,4,1,0,50,1,0
81153,600,4,1,0,50,1,0
81753,571.428571428571,4,1,0,50,1,0
82325,588.235294117647,4,1,0,50,1,0
83501,592.592592592593,4,1,0,50,1,0
85575,652.173913043478,4,1,0,50,1,0
86227,600,4,1,0,50,1,0
87127,560.747663551402,4,1,0,50,1,0
87688,606.060606060606,4,1,0,50,1,0
89506,598.503740648379,4,1,0,50,1,0
90703,592.885375494071,4,1,0,50,1,0
91889,615.384615384615,4,1,0,50,1,0
93120,608.519269776876,4,1,0,50,1,0
94337,585.365853658537,4,1,0,50,1,0
95507,606.060606060606,4,1,0,50,1,0
96720,589.390962671906,4,1,0,50,1,0
97898,612.244897959184,4,1,0,50,1,0
99123,591.715976331361,4,1,0,50,1,0
100306,618.556701030928,4,1,0,50,1,0
101543,616.016427104723,4,1,0,50,1,0
102775,607.287449392713,4,1,0,50,1,0
104597,618.556701030928,4,1,0,50,1,0
105216,613.496932515337,4,1,0,50,1,0
106443,600,4,1,0,50,1,0
108843,614.754098360656,4,1,0,50,1,0
110072,609.756097560976,4,1,0,50,1,0
111292,595.829195630586,4,1,0,50,1,0
112484,598.802395209581,4,1,0,50,1,0
113681,603.621730382294,4,1,0,50,1,0
116096,595.238095238095,4,1,0,50,1,0
117286,606.060606060606,4,1,0,50,1,0
118498,620.47569803516,4,1,0,50,1,0
119119,604.838709677419,4,1,0,50,1,0
120933,595.829195630586,4,1,0,50,1,0
122721,594.059405940594,4,1,0,50,1,0
125394,618.556701030928,4,1,0,50,1,0
126322,582.52427184466,4,1,0,50,1,0
126904,561.797752808989,4,1,0,50,1,0
127466,576.923076923077,4,1,0,50,1,0
127755,606.060606060606,4,1,0,50,1,0
128664,593.471810089021,4,1,0,50,1,0
130444,600.600600600601,4,1,0,50,1,0
131645,597.014925373134,4,1,0,50,1,0
132242,588.235294117647,4,1,0,50,1,0
134007,594.648166501487,4,1,0,50,1,0
135196,601.805416248746,4,1,0,50,1,0
136400,591.133004926108,4,1,0,50,1,0
137582,591.715976331361,4,1,0,50,1,0
138766,610.376398779247,4,1,0,50,1,0
139986,603.015075376884,4,1,0,50,1,0
141192,611.620795107034,4,1,0,50,1,0
142416,606.060606060606,4,1,0,50,1,0
143628,612.870275791624,4,1,0,50,1,0
144854,607.287449392713,4,1,0,50,1,0
146068,614.754098360656,4,1,0,50,1,0
147298,604.229607250755,4,1,0,50,1,0
148506,598.205383848455,4,1,0,50,1,0
149702,594.648166501487,4,1,0,50,1,0
150892,607.287449392713,4,1,0,50,1,0
152106,601.805416248746,4,1,0,50,1,0
153310,589.970501474926,4,1,0,50,1,0
154490,609.756097560976,4,1,0,50,1,0
155100,595.829195630586,4,1,0,50,1,0
155695,606.060606060606,4,1,0,50,1,0
156908,596.421471172962,4,1,0,50,1,0
158100,591.133004926108,4,1,0,50,1,0
159283,606.060606060606,4,1,0,50,1,0
160495,607.90273556231,4,1,0,50,1,0
162926,601.805416248746,4,1,0,50,1,0
167741,595.829195630586,4,1,0,50,1,0

[HitObjects]
256,56,5049,1,2
256,56,5363,1,2
152,128,5991,2,2,B|152:256|280:296|368:240|368:112,1,360
256,344,7562,5,8
256,344,7869,1,8
152,264,8485,2,8,B|152:136|280:96|368:152|368:280,1,360
88,64,10023,5,8
88,64,10331,1,8
136,168,10638,2,2,B|160:272|216:368|392:312|400:144,1,405
264,176,12331,1,4
264,176,12485,1,4
264,176,12785,1,4
256,192,13235,12,8,14303
256,192,14612,12,4,16768
256,216,17379,6,4,B|352:216,3,90
408,312,18899,6,0,B|112:312,1,270
96,192,20136,2,8,B|176:192,2,45
200,192,20754,2,8,B|256:192|256:192,2,45,0|0|0
304,192,21373,2,8,B|384:192,2,45
408,192,21980,2,8,B|480:192,1,45
256,192,22277,12,4,26031
120,264,26671,5,8
336,96,27296,1,0
464,336,27921,1,8
288,336,28546,2,2,B|536:168,1,270
72,48,30099,5,0
72,48,30402,1,0
128,120,30705,2,0,B|32:176|120:296|216:240|176:184|272:136|192:40|332:101|352:176|304:248,1,450
272,320,32570,2,2,B|376:280|424:376|528:400|504:264,1,270
376,224,33812,1,0
288,224,34117,1,0
200,224,34421,1,0
112,224,34726,1,0
160,144,35029,1,0
248,144,35332,1,0
336,144,35635,6,0,B|488:144|488:16|416:16|416:80|320:80|320:16,1,270
48,336,37788,6,0,B|152:336,2,90
136,336,38710,1,0
224,336,39015,1,0
312,336,39319,1,0
400,336,39624,1,0
368,264,39928,2,4,B|240:232|88:264,1,270
432,40,43295,6,8,B|432:336,1,270
344,152,44825,1,2
344,152,44978,1,2
344,152,45131,1,2
80,344,45744,6,2,B|80:48,1,270
168,232,47286,1,8
168,232,47440,1,8
168,232,47595,1,8
464,184,48220,6,2,B|400:64|296:8|208:16|112:64|56:128|40:208,1,540
104,272,50683,2,2,B|112:224|152:128|208:104|280:104|328:120|376:160|408:232|408:296,1,450
440,344,52492,6,0,B|72:344,1,360
32,216,54286,2,0,B|408:216,1,360
440,80,56114,2,0,B|328:80,1,90
256,328,57020,5,0
256,192,57629,1,0
256,104,57935,1,0
256,16,58241,1,8
336,64,58547,1,8
408,120,58835,1,8
336,176,59124,1,8
408,232,59430,1,8
344,296,59736,1,8
256,328,60042,1,8
256,192,60348,12,0,63438
384,320,64060,6,0,B|16:320,1,360
128,192,65916,2,0,B|496:192,1,360
256,112,68365,5,0
136,248,68977,2,4,B|128:352|256:464|400:360|384:224,2,405
48,144,81153,5,0
56,224,81453,1,0
128,176,81753,1,0
120,96,82038,1,0
200,128,82325,1,0
280,160,82619,1,0
200,208,82913,1,0
128,256,83207,1,0
56,304,83501,1,0
111,361,83797,2,0,B|344:224,1,270
296,352,85278,5,0
376,312,85575,1,0
456,272,85901,1,0
448,136,86390,1,0
328,72,86879,1,0
256,192,87407,12,0,89506
256,192,90254,12,4,93119
256,192,93728,5,4
448,336,94629,6,2,B|352:336,1,90
272,336,95215,2,8,B|-32:336,3,270
200,216,98510,1,0
256,136,98816,1,0
312,216,99123,1,0
312,192,100306,5,8
360,192,100460,1,8
408,192,100615,1,8
360,112,100924,2,0,B|360:16,1,90
360,192,101543,2,0,B|360:288,1,90
272,280,102159,2,0,B|144:280,1,90
224,200,102775,2,0,B|224:104,1,90
304,64,103382,2,0,B|416:64,1,90
392,152,103989,2,2,B|368:216|448:296|392:368,1,180
256,48,105676,5,0
256,48,105829,1,0
256,48,105982,1,0
256,136,106443,2,0,B|200:224|256:312,1,180
360,360,107493,2,0,B|424:248|352:120,1,225
464,160,108543,2,0,B|520:248|464:336,1,180
336,288,109457,5,0
272,224,109764,1,0
208,288,110070,1,0
144,224,110375,1,0
80,288,110680,1,0
144,224,110985,2,0,B|144:16|384:16,1,360
376,144,112783,5,4
376,144,113082,1,4
352,280,113681,2,8,B|352:376|248:376|256:256,1,180
160,280,114586,2,8,B|160:376|264:376|256:256,1,180
160,280,115491,2,12,B|160:176|360:176|352:304,1,270
256,328,118498,6,0,B|256:176|168:176|72:176|72:336,1,360
256,328,120933,6,0,B|256:176|344:176|440:176|440:336,1,360
440,328,122721,1,0
440,328,123315,1,0
264,312,123909,1,0
264,224,124206,1,0
264,136,124503,1,0
104,320,125394,6,8,B|432:320,1,315
368,232,126758,2,8,B|48:232,1,315
240,104,128057,5,8
144,104,128360,1,8
144,200,128663,1,8
144,248,128815,1,8
144,296,128963,1,8
240,296,129260,1,8
384,296,129705,1,8
432,296,129853,1,8
432,192,130147,6,0,B|224:192|216:192,1,180
40,40,131645,6,0,B|120:200|216:24|315:178|168:296,1,360
368,312,133418,1,0
472,168,134007,1,0
320,72,134601,1,0
496,48,135196,1,0
256,192,135496,12,0,138765
48,32,139071,5,0
136,64,139376,1,0
224,96,139682,1,0
312,128,139984,1,0
392,160,140286,1,0
472,192,140587,1,0
400,248,140889,1,0
328,296,141192,1,0
40,48,143022,6,0,B|128:152,1,90
184,224,143628,1,0
240,288,143934,1,0
296,352,144241,1,0
304,216,144854,5,0
304,216,145157,1,0
256,128,145461,1,0
256,128,145764,1,0
208,216,146068,1,0
208,216,146375,1,0
440,192,147751,5,0
440,192,147902,1,0
368,112,148204,1,0
368,112,148355,1,0
368,112,148506,1,0
240,240,149104,2,0,B|312:312|272:360|200:376|128:336|112:264|64:360|16:376,1,360
32,288,150593,5,0
56,200,150892,1,0
104,120,151195,1,0
184,72,151499,1,0
272,48,151802,1,0
360,72,152106,1,0
416,144,152406,1,0
448,232,152707,1,0
440,320,153008,2,0,B|384:312|376:312,1,45
304,328,153457,2,8,B|264:352,1,45
208,288,153899,2,8,B|160:232,1,45
192,168,154342,2,8,B|248:120,1,45
312,128,154794,5,2
384,72,155100,1,2
312,128,155397,1,2
384,184,155695,1,2
312,240,155998,1,2
384,296,156301,1,2
256,40,156908,5,4
56,328,157504,6,0,B|56:16,1,270
144,56,158691,2,0,B|184:192|144:326,1,270
262,322,159889,2,0,B|224:192|264:56,1,270
344,56,161102,2,0,B|344:336,1,270
432,320,162318,2,0,B|488:184|384:192|440:40,1,270
346,57,163527,2,0,B|296:192|400:184|344:320,1,270
256,192,165032,12,0,168187
