osu file format v9

[General]
AudioFilename: 13 - No One.mp3
AudioLeadIn: 0
PreviewTime: -1
Countdown: 0
SampleSet: Normal
StackLeniency: 0.7
Mode: 0
LetterboxInBreaks: 1

[Editor]
DistanceSpacing: 0.8
BeatDivisor: 8
GridSize: 8

[Metadata]
Title:No One
Artist:The Baseballs
Creator:Snork Live
Version:Hard
Source:
Tags:

[Difficulty]
HPDrainRate:5
CircleSize:6
OverallDifficulty:5
ApproachRate:5
SliderMultiplier:1.4
SliderTickRate:1

[Events]
//Background and Video events
0,0,"39822613.jpg"
//Break Periods
//Storyboard Layer 0 (Background)
//Storyboard Layer 1 (Fail)
//Storyboard Layer 2 (Pass)
//Storyboard Layer 3 (Foreground)
//Storyboard Sound Samples
//Background Colour Transformations
3,100,163,162,255

[TimingPoints]
0,500,4,1,0,51,1,0
0,-100,4,1,0,51,0,0

[HitObjects]
72,72,4166,1,0
136,88,4500,1,0
192,120,4750,1,0
240,168,5062,1,0
272,232,5312,1,0
320,168,5625,5,0
320,168,5750,1,0
360,104,6187,1,0
288,224,6750,5,0
288,224,6875,1,0
256,280,7312,1,0
376,200,7875,5,0
376,200,8000,1,0
432,240,8437,1,0
272,136,9062,5,0
272,136,9187,1,0
216,96,9625,1,0
328,184,10187,5,0
328,184,10312,1,0
328,184,10750,1,0
272,216,11000,5,0
224,256,11312,1,0
160,272,11562,1,0
96,264,11875,1,0
64,208,12125,1,0
56,136,12437,5,0
56,136,12562,1,0
96,80,13000,1,0
160,48,13250,5,0
216,40,13562,1,0
280,64,13833,5,0
296,72,13958,1,0
312,80,14083,1,0
328,88,14208,1,0
384,136,14437,5,0
264,192,15833,5,0
248,256,16125,1,0
224,272,16312,1,0
128,280,16687,1,0
80,232,17250,1,0
80,160,17562,1,0
112,112,17687,1,0
160,80,18062,1,0
240,80,18375,5,0
264,88,18500,1,0
288,96,18625,1,0
312,104,18750,1,0
368,128,18937,1,0
424,160,19250,5,0
424,160,19375,1,0
472,216,19812,1,0
432,256,20312,5,0
368,280,20625,1,0
304,288,20937,1,0
240,272,21187,1,0
184,232,21500,1,0
96,304,22375,5,0
96,272,22625,5,0
64,248,22937,5,0
64,216,23062,1,0
80,184,23187,1,0
104,168,23312,1,0
168,160,23500,1,0
128,104,23812,5,0
128,104,23937,1,0
64,88,24375,1,0
152,112,24875,5,0
200,72,25187,1,0
224,64,25312,1,0
288,56,25750,1,0
344,64,26187,1,0
400,88,26500,1,0
376,152,26875,2,0,B|328:224,1,87.5
312,248,27437,1,0
240,280,27875,5,0
200,280,28000,1,0
160,272,28125,1,0
128,248,28250,1,0
136,136,29125,5,0
152,112,29416,1,0
208,88,29562,1,0
232,88,29687,1,0
216,160,30000,1,0
312,104,31125,5,0
336,112,31250,1,0
360,136,31437,1,0
400,184,31687,1,0
368,240,32000,1,0
352,272,33312,5,0
336,280,33437,1,0
272,304,33687,1,0
200,296,34000,1,0
136,264,34250,1,0
64,208,34812,5,0
88,184,34937,1,0
112,160,35062,1,0
168,192,35375,5,0
192,168,35500,1,0
216,144,35625,1,0
288,96,36000,6,0,B|376:112|384:208,1,157.5
352,168,38250,5,0
368,192,38375,1,0
352,256,38500,1,0
288,280,38812,1,0
216,288,39125,1,0
72,288,39937,5,0
112,240,40062,1,0
136,216,40250,1,0
192,168,40500,5,0
216,152,40625,1,0
288,136,41062,1,0
384,144,42375,5,0
408,176,42562,1,0
400,240,42750,1,0
336,264,43312,1,0
296,304,43875,5,0
272,288,44000,1,0
248,272,44125,1,0
184,272,44500,1,0
160,288,44625,1,0
136,304,44750,1,0
56,296,45062,6,0,B|32:224|88:168|120:152,1,157.5
40,240,46750,6,0,B|88:176|88:176,1,70
136,224,47312,1,0
224,192,47875,6,0,B|264:128,1,70
312,192,48437,1,0
384,168,49000,6,0,B|440:104,1,70
440,80,49562,1,0
400,56,49875,1,0
352,48,50125,1,0
304,56,50437,1,0
240,72,50687,6,0,B|168:88|120:128|88:200|56:312,1,315
64,256,52125,5,0
88,192,52375,1,0
112,176,52562,1,0
112,144,52687,1,0
168,112,53000,6,0,B|232:64,1,70
224,152,53562,2,0,B|288:128,1,70
288,200,54125,2,0,B|368:184|432:256,1,157.5
72,224,55812,6,0,B|128:160|128:160,1,70
184,200,56375,1,0
264,224,56937,6,0,B|328:176,1,70
376,240,57500,1,0
312,296,58062,6,0,B|240:256,1,70
240,256,58625,1,0
168,248,58937,1,0
112,200,59187,1,0
96,136,59500,1,0
136,96,59750,2,0,B|288:48|352:88|256:272,1,332.5
400,272,61187,5,0
368,208,61500,1,0
392,192,61625,1,0
384,160,61750,1,0
384,88,62062,1,0
336,56,62312,1,0
304,112,62625,1,0
256,80,62875,1,0
240,144,63187,5,0
48,144,63750,1,0
456,144,64312,1,0
104,240,65437,5,0
104,144,65750,1,0
176,80,66000,1,0
272,64,66312,1,0
104,240,68000,5,0
168,144,68562,1,0
288,96,68875,1,0
176,264,70125,5,0
176,240,70250,1,0
208,192,70562,1,0
232,184,70812,1,0
256,256,71125,1,0
88,232,74250,5,0
88,232,74375,1,0
104,160,74562,1,0
168,112,74812,1,0
248,88,75125,1,0
328,96,75375,1,0
400,128,75687,1,0
424,288,78812,5,0
424,208,78937,1,0
344,272,79062,1,0
384,128,79333,1,0
296,144,79625,1,0
264,224,79916,1,0
96,264,83312,5,0
128,200,83500,1,0
192,168,83625,1,0
240,232,83875,1,0
296,192,84166,1,0
360,144,84437,1,0
360,120,84625,1,0
160,184,87875,5,0
208,160,88000,1,0
264,176,88125,1,0
168,248,88416,1,0
232,264,88687,1,0
280,232,89000,1,0
144,272,92687,5,0
104,216,92937,1,0
144,160,93125,1,0
144,160,93250,1,0
112,104,93500,1,0
232,80,94687,5,0
256,56,94812,1,0
288,56,94937,1,0
352,80,95187,1,0
216,144,95500,1,0
432,224,96812,5,0
408,200,96937,1,0
344,168,97187,1,0
256,168,97500,1,0
168,168,97750,1,0
72,248,98333,5,0
96,208,98500,1,0
120,168,98625,1,0
168,216,98916,1,0
192,176,99062,1,0
224,144,99187,1,0
288,112,99437,6,0,B|328:96|352:136|392:112|432:24,1,175
400,80,101750,5,0
368,72,101875,1,0
304,72,102062,1,0
240,72,102312,1,0
176,72,102625,1,0
72,184,103437,5,0
128,136,103625,1,0
152,128,103750,1,0
216,128,104000,1,0
280,128,104187,1,0
432,256,104875,1,0
368,288,105875,5,0
336,280,106000,1,0
304,264,106125,1,0
240,296,106312,1,0
240,208,106562,1,0
240,120,106875,1,0
240,48,107375,5,0
272,64,107500,1,0
296,80,107625,1,0
304,144,108000,1,0
304,176,108125,1,0
304,200,108250,1,0
296,288,108500,6,0,B|232:328|152:336|224:216|224:216,1,175
112,256,110250,6,0,B|176:184,1,87.5
240,232,110812,5,0
312,272,111375,2,0,B|376:216,1,70
432,240,111937,1,0
464,168,112500,6,0,B|400:112,1,70
360,88,113062,1,0
296,64,113375,1,0
240,64,113625,1,0
184,96,113937,1,0
136,136,114250,6,0,B|80:192|136:256|192:248|232:224|232:176|240:176|304:200|336:200,1,303.333333333333
408,208,115625,5,0
376,152,115937,1,0
376,152,116062,1,0
376,152,116187,1,0
328,112,116500,1,0
272,88,116750,1,0
264,152,117062,1,0
360,56,117312,1,0
416,96,117625,1,0
440,160,118187,1,0
376,232,119312,6,0,B|312:184,1,70
240,184,119875,1,0
168,208,120437,2,0,B|104:256,1,70
80,288,121000,1,0
80,224,121562,6,0,B|80:136,1,87.5
80,80,122187,1,0
136,40,122437,1,0
208,40,122750,1,0
280,64,123000,1,0
336,96,123312,6,0,B|400:136|424:192|416:248|360:296|256:320,1,315
192,304,124687,5,0
128,280,125000,1,0
104,264,125187,1,0
88,240,125312,1,0
56,184,125562,1,0
56,120,125812,1,0
104,72,126125,1,0
168,88,126437,1,0
168,160,126687,5,0
400,40,127250,1,0
368,288,127812,1,0
136,280,129500,5,0
408,88,130062,1,0
112,88,131812,1,0
400,288,132375,1,0
96,280,133750,5,0
136,216,134062,1,0
136,216,134187,1,0
136,216,134312,1,0
96,136,134625,1,0
184,80,134937,1,0
168,144,135187,1,0
112,72,135437,1,0
104,104,135750,5,0
280,104,136312,1,0
344,96,137125,5,0
400,160,137437,1,0
408,224,137750,1,0
368,288,138000,1,0
304,304,138250,1,0
304,304,138437,1,0
224,296,139437,5,0
160,272,139750,1,0
104,232,140000,1,0
72,168,140312,1,0
80,96,140562,1,0
80,96,140687,1,0
160,88,141687,5,0
232,88,142000,1,0
296,88,142312,1,0
360,88,142562,1,0
264,144,142812,1,0
264,144,142937,1,0
160,320,144000,5,0
224,320,144250,1,0
288,320,144562,1,0
352,320,144812,1,0
256,264,145062,1,0
256,264,145187,1,0
104,120,146187,5,0
104,184,146500,1,0
104,248,146812,1,0
104,312,147125,1,0
160,208,147375,1,0
160,208,147562,1,0
424,320,148500,5,0
424,256,148750,1,0
424,192,149125,1,0
424,128,149375,1,0
368,216,149812,1,0
72,232,150250,2,0,B|96:160|136:96|224:88|272:112|320:160|328:208|368:232,1,385
48,232,153062,5,0
128,80,153500,1,0
304,40,153937,1,0
136,176,154250,5,0
184,120,154687,1,0
256,96,155062,1,0
80,280,155625,6,0,B|136:208,1,87.5
192,208,156187,1,0
232,296,156750,6,0,B|288:232,1,70
352,232,157312,1,0
392,312,157875,6,0,B|440:248,1,70
448,144,158437,5,0
352,144,158750,1,0
256,144,159000,5,0
160,144,159333,1,0
24,208,159562,6,0,B|144:192|8:96|280:24,1,315
262,28,161000,5,0
328,48,161250,1,0
376,88,161437,1,0
416,136,161562,1,0
352,152,161812,5,0
280,152,162187,1,0
224,96,162562,1,0
144,96,162937,1,0
408,96,163375,1,0
272,256,163875,1,0
96,272,164687,6,0,B|160:200,1,87.5
216,240,165250,1,0
288,296,165812,6,0,B|344:224,1,87.5
400,272,166375,1,0
328,208,166937,6,0,B|248:160,1,87.5
88,232,167500,1,0
176,128,167812,1,0
288,240,168062,1,0
360,128,168375,1,0
400,192,168687,6,0,B|72:168,1,315
85,169,170125,1,0
144,128,170375,1,0
144,128,170500,1,0
144,128,170625,1,0
208,104,170937,1,0
304,104,171187,1,0
392,104,171500,1,0
488,104,171750,1,0
456,224,172062,5,0
264,72,172625,1,0
80,224,173187,1,0
