osu file format v12

[General]
AudioFilename: Nightcore - If I Die Young [HD].mp3
AudioLeadIn: 0
PreviewTime: 58445
Countdown: 0
SampleSet: Soft
StackLeniency: 0.5
Mode: 0
LetterboxInBreaks: 1

[Editor]
DistanceSpacing: 0.6
BeatDivisor: 4
GridSize: 8

[Metadata]
Title:If I Die Young
TitleUnicode:If I Die Young
Artist:The Band Perry(Nightcore mix)
ArtistUnicode:The Band Perry(Nightcore mix)
Creator:Nozox
Version:Hard
Source:
Tags:Michael Henry Justin Robinett Nightcore The Band Perry If I Die Young
BeatmapID:251539
BeatmapSetID:93165

[Difficulty]
HPDrainRate:4
CircleSize:3
OverallDifficulty:3
ApproachRate:7
SliderMultiplier:1.6
SliderTickRate:2

[Events]
//Background and Video events
0,0,"mqdefaultCAHCF6VF.jpg",0,0
//Break Periods
2,47137,120421
2,121521,136552
2,137652,208161
//Storyboard Layer 0 (Background)
//Storyboard Layer 1 (Fail)
//Storyboard Layer 2 (Pass)
//Storyboard Layer 3 (Foreground)
//Storyboard Sound Samples
//Background Colour Transformations
3,100,163,162,255

[TimingPoints]
500,410.958904109589,4,2,0,100,1,0

[Colours]
Combo1 : 128,0,128
Combo2 : 0,0,160
Combo3 : 128,128,0
Combo4 : 128,0,0

[HitObjects]
336,64,7075,1,0,0:0:0:0:
272,64,7280,1,0,0:0:0:0:
216,96,7486,1,0,0:0:0:0:
216,96,7691,1,0,0:0:0:0:
216,224,8102,2,0,B|240:264|280:280|328:264|352:224,1,160
400,184,8719,5,0,0:0:0:0:
400,120,8924,1,0,0:0:0:0:
368,64,9130,1,0,0:0:0:0:
368,64,9335,1,0,0:0:0:0:
240,48,9746,2,0,B|208:80|208:80|176:56,1,80
88,152,10363,5,0,0:0:0:0:
96,216,10568,1,0,0:0:0:0:
144,264,10773,1,0,0:0:0:0:
200,296,10979,2,0,B|272:272|304:184|304:184|400:216,1,240
192,104,12623,5,0,0:0:0:0:
192,104,12828,1,0,0:0:0:0:
184,232,13239,2,0,B|224:272|264:272|288:240|280:168,1,160
296,120,13856,1,0,0:0:0:0:
352,88,14061,1,0,0:0:0:0:
408,120,14267,1,0,0:0:0:0:
440,176,14472,6,0,B|408:256|408:256|360:216|360:216|320:304,1,240
256,320,15294,1,0,0:0:0:0:
192,304,15500,1,0,0:0:0:0:
80,232,15910,2,0,P|32:160|96:144,1,160
200,80,16732,2,0,B|152:80|152:80|120:152|160:216|240:208,1,240
304,208,17554,1,0,0:0:0:0:
368,88,17965,5,0,0:0:0:0:
368,88,18171,1,0,0:0:0:0:
368,88,18376,1,0,0:0:0:0:
448,192,18787,1,0,0:0:0:0:
368,296,19198,1,0,0:0:0:0:
288,192,19609,1,0,0:0:0:0:
240,144,19815,1,0,0:0:0:0:
176,120,20020,1,0,0:0:0:0:
112,144,20226,2,0,B|48:152|112:224|0:256,1,160
128,288,21253,6,0,B|192:272|192:224|192:224|256:216|256:216|320:224|320:224|320:272|392:288,1,320
456,176,22486,1,0,0:0:0:0:
352,80,22897,1,0,0:0:0:0:
288,80,23102,2,0,P|248:40|208:120,1,160
80,136,23924,5,0,0:0:0:0:
24,176,24130,1,0,0:0:0:0:
88,200,24335,1,0,0:0:0:0:
208,248,24746,2,0,P|192:296|232:312,2,80
408,192,25568,1,0,0:0:0:0:
256,344,26184,1,0,0:0:0:0:
96,192,26801,37,0,0:0:0:0:
136,136,27006,1,0,0:0:0:0:
192,96,27212,1,0,0:0:0:0:
192,96,27417,1,0,0:0:0:0:
264,112,27828,2,0,B|328:48|424:72|456:216|368:256|256:288|248:344,1,400
256,320,29061,2,0,B|259:287|147:255|59:215|91:71|187:47|251:111,1,400
376,160,30499,22,0,B|336:144|336:144|328:184,1,80
136,160,31321,2,0,B|176:144|176:144|184:184,2,80
136,296,32143,1,0,0:0:0:0:
200,320,32349,1,0,0:0:0:0:
264,296,32554,2,0,B|365:267|301:195|365:187,1,160
360,120,33171,1,0,0:0:0:0:
312,72,33376,2,0,B|264:16|248:168|144:88,1,160
64,184,34198,5,0,0:0:0:0:
88,248,34404,1,0,0:0:0:0:
136,296,34609,1,0,0:0:0:0:
136,296,34815,1,0,0:0:0:0:
184,248,35020,1,0,0:0:0:0:
208,184,35226,1,0,0:0:0:0:
304,80,35636,6,0,L|392:136,1,80
424,168,36047,1,0,0:0:0:0:
424,168,36253,1,0,0:0:0:0:
400,232,36458,2,0,L|344:296,1,80
280,312,36869,1,0,0:0:0:0:
280,312,37075,1,0,0:0:0:0:
224,272,37280,2,0,B|240:208|168:192|216:120,1,160
176,64,37897,5,0,0:0:0:0:
120,104,38102,1,0,0:0:0:0:
96,168,38308,1,0,0:0:0:0:
128,224,38513,1,0,0:0:0:0:
176,272,38719,1,0,0:0:0:0:
240,296,38924,2,0,B|320:288|272:216|272:216|296:152|384:160,1,240
392,96,39746,1,0,0:0:0:0:
192,64,40363,5,0,0:0:0:0:
192,128,40568,1,0,0:0:0:0:
192,192,40773,1,0,0:0:0:0:
192,256,40979,2,0,P|168:304|128:288,1,80
96,264,41390,1,0,0:0:0:0:
96,200,41595,1,0,0:0:0:0:
96,136,41801,1,0,0:0:0:0:
96,72,42006,2,0,P|120:24|160:40,1,80
208,40,42417,6,0,P|184:112|272:144,1,160
312,168,43034,1,0,0:0:0:0:
216,256,43445,1,0,0:0:0:0:
264,304,43650,1,0,0:0:0:0:
328,280,43856,1,0,0:0:0:0:
376,232,44061,2,0,B|440:200|368:144|448:96,1,160
408,40,44678,1,0,0:0:0:0:
344,56,44883,2,0,B|296:64|304:104|304:104|208:152,1,160
168,176,45499,5,0,0:0:0:0:
128,232,45705,2,0,B|168:272|208:232|208:232|272:232|272:232|312:272|352:232,2,240
248,216,121321,5,0,0:0:0:0:
304,256,137452,5,0,0:0:0:0:
328,264,209061,5,0,0:0:0:0:
