osu file format v9

[General]
AudioFilename: op4.mp3
AudioLeadIn: 0
PreviewTime: 16400
Countdown: 1
SampleSet: Normal
StackLeniency: 0.7
Mode: 0
LetterboxInBreaks: 1

[Editor]
DistanceSpacing: 0.8
BeatDivisor: 4
GridSize: 8

[Metadata]
Title:Toward the sun
Artist:The Babystars
Creator:bobo1
Version:Insane
Source:One Piece
Tags:sun noob one piece the babystars cartoons japan sea friends best toward

[Difficulty]
HPDrainRate:7
CircleSize:4
OverallDifficulty:7
ApproachRate:8
SliderMultiplier:2
SliderTickRate:0.5

[Events]
//Background and Video events
0,19,"op4.jpg"
Video,-9381,"ophd4.Flv"
//Break Periods
//Storyboard Layer 0 (Background)
//Storyboard Layer 1 (Fail)
//Storyboard Layer 2 (Pass)
//Storyboard Layer 3 (Foreground)
//Storyboard Sound Samples
//Background Colour Transformations
3,100,163,162,255

[TimingPoints]
1169,317.124735729387,4,1,0,100,1,0
4911,-100,4,1,0,5,0,0
5148,-100,4,1,0,65,0,0
5941,-100,4,1,0,46,0,0
16400,-100,4,1,0,60,0,0
16797,-100,4,1,0,5,0,0
16955,-100,4,1,0,58,0,0
17431,-100,4,1,0,5,0,0
17589,-100,4,1,0,60,0,0
18064,-100,4,1,0,5,0,0
18223,-100,4,1,0,61,0,0
18698,-100,4,1,0,5,0,0
18936,-100,4,1,0,70,0,1
20204,-100,4,1,0,64,0,0
20679,-100,4,1,0,64,0,1
39221,-100,4,1,0,64,0,0
40489,-100,4,1,0,75,0,0
41757,-100,4,1,0,85,0,0
43025,-100,4,1,0,96,0,0
44293,-117.647058823529,4,2,0,64,0,0
54435,-117.647058823529,4,1,0,53,0,0
63944,-100,4,1,0,53,0,0
72581,-100,4,1,0,5,0,0
72740,-100,4,1,0,49,0,0
73215,-100,4,1,0,5,0,0
73374,-100,4,1,0,52,0,0
73849,-100,4,1,0,5,0,0
74007,-100,4,1,0,52,0,0
74483,-100,4,1,0,5,0,0
74641,-100,4,1,0,64,0,0
76464,-100,4,1,0,71,0,1
95006,-100,4,1,0,64,0,1
96274,-100,4,1,0,72,0,1
97541,-100,4,1,0,83,0,1
98809,-100,4,1,0,93,0,1
99998,-100,4,1,0,49,0,0

[Colours]
Combo1 : 34,104,221
Combo2 : 7,203,237
Combo3 : 0,45,176
Combo4 : 0,244,233

[HitObjects]
256,192,1169,12,0,4972
256,192,5941,5,0
104,88,6259,6,2,B|224:72,1,100
304,120,6576,1,0
416,88,6734,1,0
464,176,6892,1,2
376,256,7050,2,0,B|256:280,1,100,2|0
160,320,7367,2,2,B|72:344|16:256|48:168,1,200
128,176,7843,2,2,B|128:48|264:48,1,200
320,120,8318,2,0,B|440:144,1,100,2|0
408,88,8793,6,2,B|288:72,1,100
208,120,9110,1,0
96,88,9268,1,0
48,176,9427,1,2
136,256,9584,2,0,B|256:280,1,100,2|0
352,320,9901,2,2,B|432:344|496:256|464:168,1,200
384,176,10377,2,2,B|384:48|248:48,1,200
192,120,10852,2,0,B|72:144,1,100,2|0
80,280,11329,6,2,B|120:320|192:312,1,100
264,264,11646,1,0
368,232,11805,1,0
456,176,11963,2,2,B|472:120|456:64,1,100
352,32,12280,2,0,B|256:104|160:32,1,200,0|2
256,40,12755,2,0,B|256:144,1,100,0|2
256,304,13231,5,2
168,192,13389,1,2
344,192,13548,1,2
432,104,13865,6,2,B|392:64|320:72,1,100
248,120,14182,1,0
144,152,14341,1,0
56,208,14499,2,2,B|40:264|56:320,1,100
160,352,14816,2,0,B|256:280|352:352,1,200,0|2
256,344,15291,2,0,B|256:240,1,100,0|2
256,80,15767,5,2
352,192,15925,1,2
160,192,16084,1,2
440,80,16400,5,6
424,80,16480,1,4
408,80,16559,2,4,B|344:80|344:80|288:48|288:48|208:48,1,200,6|4
80,304,17034,5,6
96,304,17114,1,4
112,304,17193,2,4,B|176:304|176:304|232:336|232:336|312:336,1,200,6|4
32,152,17668,5,6
48,152,17748,1,6
64,152,17827,2,4,B|128:152|128:152|184:120|184:120|264:120,1,200,6|4
480,232,18302,5,6
464,232,18382,1,6
448,232,18461,2,6,B|384:232|384:232|328:264|328:264|248:264,1,200,6|4
120,312,18936,5,2
112,296,19015,1,2
104,280,19095,1,2
112,264,19174,1,2
120,248,19253,1,2
112,232,19332,1,2
112,216,19412,1,2
112,200,19491,1,2
112,184,19570,2,6,B|112:128,8,50
416,120,20679,5,0
416,192,20838,1,0
344,216,20996,1,0
296,160,21155,1,0
344,96,21313,1,0
416,120,21472,2,8,B|416:328,1,200,8|8
328,320,21947,2,8,B|112:320,1,200,8|8
56,248,22423,6,0,B|72:200|144:192,1,100
296,72,22740,2,2,B|272:120|200:120,1,100
128,72,23057,1,0
176,160,23215,2,2,B|184:200|256:232|320:200|344:144,1,200
424,72,23690,2,0,B|504:152|432:296,1,200,0|8
360,296,24166,5,0
256,344,24324,1,8
360,296,24483,1,8
256,344,24641,1,0
160,296,24800,1,8
56,320,24958,1,0
96,224,25117,2,2,B|8:176|72:56|176:112,1,200
232,136,25592,1,0
160,184,25751,2,4,B|160:128|192:96|256:72|312:96|360:136|360:192,1,300,4|2
424,272,26385,6,2,B|472:240|464:176,1,100
384,64,26702,2,0,B|344:104|352:160,1,100,2|0
88,272,27019,6,0,B|40:240|48:176,1,100,8|0
128,64,27336,2,0,B|168:104|160:160,1,100,8|0
80,288,27652,6,0,B|32:256|40:192,1,100,8|0
136,48,27969,2,0,B|176:88|168:144,1,100,8|0
40,232,28286,2,0,B|48:288|120:312,1,100,8|0
248,304,28603,2,0,B|288:264|360:288,1,100,8|0
352,272,28841,1,0
368,256,28920,2,0,B|360:176|264:128|152:168|152:272,1,300
256,256,29554,6,0,B|256:192,3,50
256,176,29871,2,0,B|256:112,3,50
256,96,30188,2,0,B|256:40,1,50
288,48,30347,6,8,B|408:96|400:224,1,200
224,336,30822,2,8,B|104:288|112:160,1,200
288,336,31297,2,8,B|408:288|400:160,1,200,8|8
464,128,31773,1,0
440,104,31852,1,0
400,96,31931,1,8
368,104,32011,1,0
344,128,32090,1,8
408,192,32248,6,0,B|416:256|376:296,1,100,0|8
240,160,32565,2,0,B|232:96|272:56,1,100,0|2
408,192,33041,1,2
104,192,33358,1,2
48,128,33833,5,2
72,104,33912,1,0
112,96,33991,1,0
144,104,34071,1,0
168,128,34150,1,8
104,192,34308,6,0,B|96:256|136:296,1,100,0|8
272,160,34625,2,0,B|280:96|240:56,1,100,8|0
120,176,34942,6,0,B|112:240|152:280,1,100,8|0
256,176,35259,2,0,B|264:112|224:72,1,100,2|0
120,176,35576,2,0,B|48:224|112:336|192:304,1,200,2|0
304,240,36052,2,2,B|384:208|448:280,2,150
304,136,36686,5,8
336,136,36765,1,0
368,136,36844,1,0
208,56,37003,1,8
176,56,37082,1,0
144,56,37161,1,0
304,136,37320,5,8
320,136,37399,1,8
336,136,37478,1,0
208,56,37637,1,8
192,56,37716,1,8
176,56,37795,1,0
200,200,37954,2,2,B|160:240,3,50
128,200,38270,2,2,B|168:240,3,50
163,235,38587,2,2,B|160:288,7,50
136,312,39221,5,0
136,312,39538,1,8
136,312,39855,2,0,B|80:296|24:312,1,100
88,288,40172,1,8
376,224,40489,5,0
376,224,40648,1,0
376,224,40806,1,8
376,224,40965,1,0
376,224,41123,2,0,B|432:208|488:224,1,100,0|8
424,192,41440,1,8
136,136,41757,5,12
136,136,41836,1,4
136,136,41916,1,4
136,136,42074,1,12
136,136,42153,1,4
136,136,42233,1,4
136,136,42391,2,0,B|80:120|24:136,1,100,0|8
88,112,42708,1,8
376,56,43025,5,12
376,56,43104,1,4
376,56,43184,1,4
376,56,43263,1,4
376,56,43342,1,12
376,56,43421,1,4
376,56,43501,1,12
376,56,43580,1,4
376,56,43659,2,0,B|432:40|488:56,1,100,0|8
424,24,43976,1,8
208,88,44293,5,2
160,112,44451,1,0
120,152,44610,1,2
96,200,44768,1,2
88,256,44927,1,0
120,232,45085,1,2
168,216,45244,1,0
216,208,45402,1,2
264,208,45561,5,0
312,224,45719,1,0
336,192,45877,1,2
320,144,46036,2,2,B|376:80,1,84.9999964535238
416,224,46353,2,2,B|344:304,1,84.9999964535238
320,320,46670,1,0
296,304,46749,1,0
272,296,46828,5,4
216,320,46987,1,0
168,288,47145,1,2
168,288,47304,1,2
112,312,47462,1,0
112,312,47621,1,2
112,312,47779,1,0
112,312,47938,2,2,B|80:216,1,84.9999964535238
112,56,48255,2,0,B|136:144,1,84.9999964535238,0|2
400,304,48572,6,2,B|432:208,1,84.9999964535238
400,56,48889,2,2,B|376:144,1,84.9999964535238
344,160,49206,1,0
328,184,49285,1,0
296,184,49364,5,12
208,128,49522,1,0
112,72,49681,1,8
40,144,49839,1,0
96,232,49998,1,8
200,232,50156,1,0
304,232,50315,1,8
304,128,50473,1,0
400,72,50632,5,8
472,144,50790,1,2
416,232,50949,1,0
304,232,51107,1,0
200,232,51266,1,2
88,232,51424,1,0
88,232,51583,2,2,B|88:328,1,84.9999964535238
200,232,51900,6,2,B|200:136,1,84.9999964535238,6|2
304,264,52217,2,0,B|304:352,1,84.9999964535238,0|2
408,112,52534,2,0,B|408:8,1,84.9999964535238
328,112,52851,2,0,B|328:8,1,84.9999964535238,2|0
480,32,53181,5,8
256,32,53498,1,8
32,352,53815,5,2
144,352,53974,1,2
88,264,54132,1,6
88,264,54291,1,0
88,144,54449,6,0,B|88:40,1,84.9999964535238,4|0
160,144,54766,2,8,B|160:40,1,84.9999964535238
232,56,55083,2,0,B|232:160,1,84.9999964535238,0|8
304,56,55400,2,0,B|304:160,1,84.9999964535238,0|8
424,240,55717,6,0,B|424:344,1,84.9999964535238,8|0
352,240,56034,2,0,B|352:344,1,84.9999964535238,8|8
280,328,56351,2,0,B|280:224,1,84.9999964535238,0|8
208,328,56668,2,0,B|208:224,1,84.9999964535238
96,136,56985,5,12
256,128,57143,1,0
128,184,57302,1,8
224,72,57460,1,0
416,136,57619,5,8
256,128,57777,1,0
384,184,57936,1,8
288,72,58094,1,10
144,72,58253,5,4
256,208,58570,1,2
368,72,58887,1,2
256,128,59204,6,4,B|256:320,1,169.999992907048,4|12
344,336,59679,1,0
432,304,59838,1,8
456,160,60155,2,0,B|456:72,1,84.9999964535238,8|0
360,32,60471,1,8
264,72,60630,1,0
160,32,60788,2,0,B|56:32,2,84.9999964535238,8|0|8
408,336,61422,5,8
304,336,61581,2,2,B|120:336,1,169.999992907048
136,256,62076,2,2,B|328:256,1,169.999992907048,4|0
408,256,62538,2,0,B|408:160,1,84.9999964535238,0|2
408,136,62775,1,2
400,104,62855,1,2
384,72,62934,1,0
360,48,63013,1,2
328,32,63092,1,2
296,24,63172,1,2
264,24,63251,1,0
240,56,63330,6,2,B|184:56,2,42.4999982267619
272,128,63647,2,2,B|336:128,2,42.4999982267619
240,208,63964,2,2,B|120:208,1,100
64,272,64281,1,0
136,336,64439,2,0,B|256:336,2,100,2|4|0
152,240,64915,2,0,B|184:184|264:216,1,100,0|2
224,304,65232,1,0
320,296,65390,2,6,B|384:360|472:312|464:208,1,200
464,144,65866,5,8
464,128,65945,1,0
464,112,66024,1,0
368,40,66183,1,8
368,56,66262,1,0
368,72,66341,1,0
336,176,66500,6,0,B|224:176,2,100,0|2|0
432,240,66975,2,0,B|424:296|368:320,1,100,2|0
240,288,67292,2,2,B|184:280|144:328,1,100,0|2
48,224,67609,2,0,B|88:184|64:128,1,100,2|0
104,40,67926,1,6
400,40,68243,1,6
400,40,68322,1,0
400,40,68401,6,4,B|400:256,1,200
312,240,68877,1,0
312,152,69035,2,8,B|312:40|312:40|208:40,1,200
216,136,69511,2,8,B|216:240|216:240|112:240,1,200
48,296,69986,1,0
112,360,70145,2,14,B|216:304|320:368,1,200
384,304,70620,1,0
456,360,70779,1,0
384,304,70937,5,8
384,304,71016,1,0
384,304,71096,1,2
384,216,71254,1,8
384,216,71333,1,0
384,216,71413,2,0,B|384:160|384:160|352:112,1,100,2|2
216,40,71729,2,0,B|216:88|216:88|256:128,1,100,2|0
256,216,72046,1,0
32,360,72207,5,4
32,360,72286,1,2
32,360,72365,2,0,B|32:264|32:264|112:192,1,200,2|0
480,24,72841,5,4
480,24,72920,1,2
480,24,72999,2,0,B|480:120|480:120|392:192,1,200,2|0
32,136,73475,5,2
32,136,73554,1,2
32,136,73633,2,0,B|128:64|232:152,1,200,6|0
480,248,74109,5,2
480,248,74188,1,2
480,248,74267,2,0,B|384:320|280:232,1,200,6|0
384,176,74743,5,2
400,144,74822,1,2
416,104,74901,1,6
400,64,74980,1,14
368,88,75060,5,2
336,112,75139,1,0
304,136,75218,1,14
272,112,75297,1,12
240,88,75376,5,2
208,64,75456,1,2
200,96,75535,1,6
192,128,75614,1,14
184,160,75693,5,14
152,168,75773,1,12
120,176,75852,1,6
88,184,75931,1,6
56,192,76010,1,14
96,120,76493,5,0
96,192,76652,1,0
168,216,76810,1,0
216,160,76969,1,0
168,96,77127,1,0
96,120,77286,2,8,B|96:328,1,200,8|8
184,320,77761,2,8,B|400:320,1,200,8|8
456,248,78237,6,0,B|440:200|368:192,1,100
216,72,78554,2,2,B|240:120|312:120,1,100
384,72,78871,1,0
336,160,79029,2,2,B|328:200|256:232|192:200|168:144,1,200
88,72,79504,2,0,B|8:152|80:296,1,200,0|8
152,296,79980,5,0
256,344,80138,1,8
152,296,80297,1,8
256,344,80455,1,0
352,296,80614,1,8
456,320,80772,1,0
416,224,80931,2,2,B|504:176|440:56|336:112,1,200
280,136,81406,1,0
352,184,81565,2,4,B|352:128|320:96|256:72|200:96|152:136|152:192,1,300,4|2
88,272,82199,6,2,B|40:240|48:176,1,100
128,64,82516,2,0,B|168:104|160:160,1,100,2|0
424,272,82833,6,0,B|472:240|464:176,1,100,8|0
384,64,83150,2,0,B|344:104|352:160,1,100,8|0
432,288,83466,6,0,B|480:256|472:192,1,100,8|0
376,48,83783,2,0,B|336:88|344:144,1,100,8|0
472,232,84100,2,0,B|464:288|392:312,1,100,8|0
264,304,84417,2,0,B|224:264|152:288,1,100,8|0
160,272,84654,1,0
144,256,84734,2,0,B|152:176|248:128|360:168|360:272,1,300
256,256,85368,6,0,B|256:192,3,50
256,176,85685,2,0,B|256:112,3,50
256,96,86002,2,0,B|256:40,1,50
224,48,86161,6,8,B|104:96|112:224,1,200
288,336,86636,2,8,B|408:288|400:160,1,200
224,336,87111,2,8,B|104:288|112:160,1,200,8|8
48,128,87587,1,0
72,104,87666,1,0
112,96,87745,1,8
144,104,87825,1,0
168,128,87904,1,8
104,192,88062,6,0,B|96:256|136:296,1,100,0|8
272,160,88379,2,0,B|280:96|240:56,1,100,0|2
440,192,88696,6,0,B|448:256|408:296,1,100,0|8
272,160,89013,2,0,B|264:96|304:56,1,100,0|2
376,24,89330,2,0,B|440:0|496:56,1,100
464,128,89647,1,2
440,104,89726,1,0
400,96,89805,1,0
368,104,89885,1,0
344,128,89964,1,8
408,192,90122,6,0,B|416:256|376:296,1,100,0|8
240,160,90439,2,0,B|232:96|272:56,1,100,8|0
392,176,90756,6,0,B|400:240|360:280,1,100,8|0
256,176,91073,2,0,B|248:112|288:72,1,100,2|0
392,176,91392,2,0,B|464:224|400:336|320:304,1,200,2|0
208,240,91868,2,2,B|128:208|64:280,2,150
208,136,92502,5,8
176,136,92581,1,0
144,136,92660,1,0
304,56,92819,1,8
336,56,92898,1,0
368,56,92977,1,0
208,136,93136,5,8
192,136,93215,1,8
176,136,93294,1,0
304,56,93453,1,8
320,56,93532,1,8
336,56,93611,1,0
312,200,93770,2,2,B|352:240,3,50
384,200,94086,2,2,B|344:240,3,50
349,235,94403,6,2,B|352:288,7,50
320,312,95037,5,0
320,312,95355,1,8
320,312,95672,2,0,B|376:296|432:312,1,100
368,280,95989,1,8
176,224,96306,5,0
176,224,96465,1,0
176,224,96623,1,8
176,224,96782,1,0
176,224,96940,2,0,B|120:208|64:224,1,100,0|8
128,192,97257,1,8
344,136,97574,5,12
344,136,97653,1,0
344,136,97733,1,0
344,136,97891,1,12
344,136,97970,1,0
344,136,98050,1,0
344,136,98208,2,0,B|400:120|456:136,1,100,0|8
392,104,98526,1,8
120,56,98842,5,12
120,56,98921,1,4
120,56,99001,1,4
120,56,99080,1,4
120,56,99159,1,12
120,56,99238,1,4
120,56,99318,1,12
120,56,99397,1,4
120,56,99476,2,0,B|64:40|8:56,1,100,0|8
64,128,99793,1,8
256,192,100109,5,4
