osu file format v12

[General]
AudioFilename: OP.mp3
AudioLeadIn: 1015
PreviewTime: 16400
Countdown: 1
SampleSet: None
StackLeniency: 0.7
Mode: 0
LetterboxInBreaks: 1

[Editor]
DistanceSpacing: 1
BeatDivisor: 4
GridSize: 4

[Metadata]
Title:Toward the sun
TitleUnicode:Toward the sun
Artist:The Babystars
ArtistUnicode:The Babystars
Creator:Hellzero
Version:Insane
Source:One Piece
Tags:sun noob one piece the babystars cartoons japan sea friends best toward
BeatmapID:274111
BeatmapSetID:104181

[Difficulty]
HPDrainRate:6
CircleSize:4
OverallDifficulty:7
ApproachRate:9
SliderMultiplier:1.8
SliderTickRate:1

[Events]
//Background and Video events
0,0,"ONBG.jpg",0,0
//Break Periods
//Storyboard Layer 0 (Background)
//Storyboard Layer 1 (Fail)
//Storyboard Layer 2 (Pass)
//Storyboard Layer 3 (Foreground)
//Storyboard Sound Samples
//Background Colour Transformations
3,100,163,162,255

[TimingPoints]
1169,317.124735729387,4,1,0,70,1,0
6163,-100,4,2,0,70,0,0
15677,-100,4,1,0,70,0,0
21464,-100,4,1,0,70,0,1
39221,-100,4,1,0,70,0,0
44218,-133.333333333333,4,2,0,70,0,0
52622,-133.333333333333,4,2,0,5,0,0
52781,-133.333333333333,4,2,0,70,0,0
52939,-133.333333333333,4,2,0,5,0,0
53098,-133.333333333333,4,2,0,70,0,0
58647,-133.333333333333,4,2,0,5,0,0
58766,-133.333333333333,4,2,0,70,0,0
58846,-133.333333333333,4,2,0,5,0,0
58925,-133.333333333333,4,2,0,70,0,0
63404,-133.333333333333,4,2,0,5,0,0
63563,-133.333333333333,4,2,0,70,0,0
63801,-100,4,1,0,50,0,0
77278,-100,4,1,0,70,0,1
95037,-100,4,1,0,70,0,0

[Colours]
Combo1 : 255,121,121
Combo2 : 225,0,0
Combo3 : 225,0,113
Combo4 : 255,176,98

[HitObjects]
256,192,1169,1,4,0:0:0:0:
256,232,2754,6,0,B|256:312,2,60
224,184,3071,2,0,B|168:128,2,60
288,184,3388,2,0,B|344:128,2,60
256,128,3705,1,4,0:0:0:0:
112,272,4657,5,0,0:0:0:0:
200,272,4815,1,0,0:0:0:0:
408,192,5133,1,0,0:0:0:0:
320,192,5291,1,0,0:0:0:0:
112,112,5608,1,0,0:0:0:0:
200,112,5766,1,0,0:0:0:0:
200,112,5925,1,0,0:0:0:0:
408,192,6242,6,0,B|408:240|456:288,2,90,0|0|8,0:0|0:0|0:0,0:0:0:0:
344,120,6718,1,0,0:0:0:0:
256,88,6877,2,0,B|256:176|256:176|248:184|248:184|248:288,1,180,0|8,0:0|0:0,0:0:0:0:
176,312,7352,2,0,B|96:312|96:312|88:304|88:304|0:304,1,180
336,312,7828,2,0,B|416:312|416:312|424:304|424:304|512:304,1,180,8|0,0:0|0:0,0:0:0:0:
256,264,8304,1,0,0:0:0:0:
256,176,8462,1,8,0:0:0:0:
256,88,8621,1,0,0:0:0:0:
336,136,8779,6,0,B|392:136|372:184|416:184,2,90,0|0|8,0:0|0:0|0:0,0:0:0:0:
176,136,9255,2,0,B|120:136|140:184|96:184,2,90,0|0|8,0:0|0:0|0:0,0:0:0:0:
256,176,9731,2,0,B|256:272,1,90,8|0,0:0|0:0,0:0:0:0:
256,360,10048,1,0,0:0:0:0:
192,296,10207,1,0,0:0:0:0:
320,296,10365,1,8,0:0:0:0:
424,192,10682,5,4,0:0:0:0:
256,128,10999,1,4,0:0:0:0:
88,192,11316,1,4,0:0:0:0:
176,208,11475,6,0,B|164:260|200:292,1,90,0|8,0:0|0:0,0:0:0:0:
336,208,11792,2,0,B|348:260|312:292,1,90,0|8,0:0|0:0,0:0:0:0:
256,232,12109,1,0,0:0:0:0:
256,128,12268,2,0,B|192:64,1,90,8|0,0:0|0:0,0:0:0:0:
256,128,12585,2,0,B|320:64,1,90
256,128,12902,1,8,0:0:0:0:
256,216,13061,1,0,0:0:0:0:
208,304,13219,2,0,B|208:256|160:256|160:200,1,90
304,304,13536,2,0,B|304:256|352:256|352:200,1,90,8|0,0:0|0:0,0:0:0:0:
256,216,13853,6,0,B|256:32,1,180,0|0,0:0|0:0,0:0:0:0:
347,227,14329,1,0,0:0:0:0:
165,227,14488,1,0,0:0:0:0:
440,192,14805,5,8,0:0:0:0:
420,280,14963,1,0,0:0:0:0:
348,228,15122,1,0,0:0:0:0:
256,216,15281,1,0,0:0:0:0:
168,228,15439,1,8,0:0:0:0:
92,280,15598,1,0,0:0:0:0:
72,192,15756,5,0,0:0:0:0:
180,320,15915,1,0,0:0:0:0:
236,172,16073,1,0,0:0:0:0:
168,228,16232,1,0,0:0:0:0:
192,96,16390,1,0,0:0:0:0:
256,192,16549,12,2,19086,0:0:0:0:
210,253,19562,5,2,0:0:0:0:
256,115,19720,1,0,0:0:0:0:
301,253,19878,1,2,0:0:0:0:
183,168,20037,1,0,0:0:0:0:
328,168,20196,1,2,0:0:0:0:
96,268,21464,6,0,P|52:192|96:116,1,180,4|8,0:0|0:0,0:0:0:0:
160,192,21940,2,0,B|368:192,1,180
420,148,22416,1,8,0:0:0:0:
420,236,22574,1,0,0:0:0:0:
344,280,22733,2,0,B|256:344|163:274,1,180,0|8,0:0|0:0,0:0:0:0:
176,100,23209,2,0,B|256:40|344:104,1,180
352,192,23684,1,8,0:0:0:0:
160,192,23843,1,0,0:0:0:0:
256,192,24001,6,0,B|256:264|256:264|152:264|152:328,1,180,0|8,0:0|0:0,0:0:0:0:
256,192,24477,2,0,B|256:264|256:264|360:264|360:328,1,180
256,192,24953,1,8,0:0:0:0:
256,104,25111,1,0,0:0:0:0:
184,48,25270,2,0,B|112:48|112:144|24:144,1,180,0|8,0:0|0:0,0:0:0:0:
328,48,25746,2,0,B|400:48|400:144|488:144,1,180
416,216,26221,1,8,0:0:0:0:
344,272,26380,1,0,0:0:0:0:
256,296,26538,6,0,B|256:88,1,180,0|8,0:0|0:0,0:0:0:0:
332,160,27014,2,0,B|332:200|180:200|180:248,1,180
104,296,27490,1,8,0:0:0:0:
32,240,27648,2,0,B|32:168|32:168|80:112|144:112,1,180
122,113,28124,1,8,0:0:0:0:
256,32,28283,2,0,B|256:240,1,180
389,113,28758,1,8,0:0:0:0:
389,113,28917,2,0,B|432:112|480:168|480:168|480:240,1,180
392,264,29393,5,2,0:0:0:0:
312,312,29551,1,0,0:0:0:0:
312,224,29710,1,2,0:0:0:0:
312,136,29868,5,0,0:0:0:0:
232,272,30027,1,0,0:0:0:0:
236,184,30185,1,0,0:0:0:0:
400,136,30344,6,0,P|450:135|484:156,2,90,2|0|0,0:0|0:0|0:0,0:0:0:0:
312,136,30820,1,0,0:0:0:0:
256,68,30978,2,0,P|207:67|176:44,2,90,2|0|0,0:0|0:0|0:0,0:0:0:0:
312,136,31454,1,0,0:0:0:0:
312,224,31612,6,0,P|276:308|196:320,1,180,0|8,0:0|0:0,0:0:0:0:
100,320,32088,2,0,P|136:236|216:224,1,180,0|0,0:0|0:0,0:0:0:0:
256,144,32564,1,8,0:0:0:0:
256,56,32722,2,0,B|339:27|354:72|434:45,1,180
476,124,33198,1,8,0:0:0:0:
388,132,33357,2,0,B|388:220|452:220|452:324,1,180
360,288,33832,1,8,0:0:0:0:
276,320,33991,1,0,0:0:0:0:
256,240,34149,6,0,B|240:192|192:192|192:192|96:192,1,180,0|8,0:0|0:0,0:0:0:0:
98,101,34625,2,0,B|191:101|191:101|239:101|255:53,1,180
288,148,35101,2,0,B|384:148,2,90,8|0|0,0:0|0:0|0:0,0:0:0:0:
256,240,35577,1,8,0:0:0:0:
256,240,35735,1,8,0:0:0:0:
84,296,36052,5,0,0:0:0:0:
256,328,36290,1,0,0:0:0:0:
428,296,36528,1,0,0:0:0:0:
312,238,36686,6,0,B|312:152|384:152|383:79,1,180,0|8,0:0|0:0,0:0:0:0:
129,79,37162,2,0,B|128:152|200:152|200:240,1,180
256,152,37638,1,8,0:0:0:0:
256,64,37796,1,0,0:0:0:0:
256,64,37955,1,0,0:0:0:0:
256,192,38034,12,2,39223,0:0:0:0:
156,40,39541,6,0,L|184:128,1,90,8|0,0:0|0:0,0:0:0:0:
77,155,39858,2,0,L|159:197,1,90
104,292,40175,2,0,L|192:264,1,90,8|0,0:0|0:0,0:0:0:0:
217,264,40413,1,0,0:0:0:0:
243,264,40492,6,0,L|328:236,1,90,2|0,0:0|0:0,0:0:0:0:
472,192,40809,2,0,L|392:148,1,90,8|0,0:0|0:0,0:0:0:0:
256,36,41126,2,0,L|288:136,1,90
232,292,41443,2,0,L|200:192,1,90,8|0,0:0|0:0,0:0:0:0:
32,192,41760,6,0,L|68:104,1,90,2|0,0:0|0:0,0:0:0:0:
112,336,42078,2,0,L|124:216,1,90,8|0,0:0|0:0,0:0:0:0:
192,56,42395,2,0,L|216:164,1,90
288,192,42712,1,8,0:0:0:0:
304,344,42870,5,0,0:0:0:0:
304,344,42950,1,0,0:0:0:0:
304,344,43029,2,0,L|368:256,1,90,2|0,0:0|0:0,0:0:0:0:
432,192,43346,1,8,0:0:0:0:
448,300,43505,1,0,0:0:0:0:
336,116,43663,2,0,L|432:64,1,90
252,64,43980,2,0,L|156:116,1,90,8|0,0:0|0:0,0:0:0:0:
80,236,44297,6,0,B|152:236|152:280|204:280,1,135.000005149842,2|0,0:0|0:0,0:0:0:0:
308,280,44773,2,0,B|360:280|360:236|432:236,1,135.000005149842,2|0,0:0|0:0,0:0:0:0:
468,164,45249,1,0,0:0:0:0:
400,124,45407,1,0,0:0:0:0:
328,160,45566,2,0,P|272:200|200:188,1,135.000005149842,2|0,0:0|0:0,0:0:0:0:
110,202,46042,2,0,P|141:264|200:288,2,135.000005149842,2|0|0,0:0|0:0|0:0,0:0:0:0:
176,140,46834,6,0,P|112:112|52:132,1,135.000005149842,2|0,0:0|0:0,0:0:0:0:
176,140,47310,2,0,P|239:167|299:147,1,135.000005149842,2|0,0:0|0:0,0:0:0:0:
240,92,47786,1,0,0:0:0:0:
304,44,47944,1,0,0:0:0:0:
371,88,48103,2,0,P|391:148|364:212,1,135.000005149842,2|0,0:0|0:0,0:0:0:0:
276,355,48579,2,0,P|256:295|284:232,1,135.000005149842,2|0,0:0|0:0,0:0:0:0:
364,212,49054,1,0,0:0:0:0:
416,276,49213,1,0,0:0:0:0:
336,296,49371,1,2,0:0:0:0:
256,192,49530,12,2,50799,0:0:0:0:
256,328,51274,6,0,L|256:184,1,135.000005149842,2|2,0:0|0:0,0:0:0:0:
256,112,51750,2,0,B|256:60,2,33.7500012874604,0|0|2,0:0|0:0|0:0,0:0:0:0:
168,272,52384,2,0,P|256:320|344:272,2,202.500007724762,2|2|2,0:0|0:0|0:0,0:0:0:0:
256,136,53653,2,0,L|256:44,2,67.5000025749208,2|2|0,0:0|0:0|0:0,0:0:0:0:
256,216,54128,1,0,0:0:0:0:
256,216,54287,1,0,0:0:0:0:
216,284,54445,6,0,P|144:284|92:332,1,135.000005149842,2|0,0:0|0:0,0:0:0:0:
296,284,54921,2,0,P|368:284|420:332,1,135.000005149842,2|0,0:0|0:0,0:0:0:0:
472,264,55397,1,0,0:0:0:0:
408,216,55555,1,0,0:0:0:0:
328,200,55714,2,0,B|268:168|260:208|184:180,1,135.000005149842,2|0,0:0|0:0,0:0:0:0:
104,96,56190,2,0,B|164:128|172:88|236:112,1,135.000005149842,2|0,0:0|0:0,0:0:0:0:
296,60,56665,1,0,0:0:0:0:
352,116,56824,1,0,0:0:0:0:
416,192,56982,6,0,B|380:212|360:236|360:236|336:236|296:248,1,135.000005149842,2|0,0:0|0:0,0:0:0:0:
214,247,57458,2,0,B|176:236|152:236|152:236|132:212|96:192,2,135.000005149842,2|0|0,0:0|0:0|0:0,0:0:0:0:
328,132,58410,2,0,P|256:92|184:132,2,168.750006437302,2|2|2,0:0|0:0|0:0,0:0:0:0:
256,276,59519,1,2,0:0:0:0:
256,192,59678,12,2,61422,0:0:0:0:
256,40,62056,6,0,L|256:188,1,135.000005149842,2|0,0:0|0:0,0:0:0:0:
256,256,62532,1,0,0:0:0:0:
204,316,62691,2,0,L|152:248,1,67.5000025749208,2|2,0:0|0:0,0:0:0:0:
88,296,63008,1,0,0:0:0:0:
92,216,63166,2,0,P|176:188|260:268,1,202.500007724762,2|2,0:0|0:0,0:0:0:0:
256,72,63959,6,0,B|256:160,2,90,0|0|0,0:0|0:0|0:0,0:0:0:0:
168,104,64435,2,0,B|96:104|96:192|96:192|168:192,1,180
256,192,64911,1,8,0:0:0:0:
344,104,65069,2,0,B|416:104|416:192|416:192|344:192,1,180
256,192,65545,2,0,B|256:280,2,90,8|0|0,0:0|0:0|0:0,0:0:0:0:
256,104,66021,1,0,0:0:0:0:
256,104,66179,1,8,0:0:0:0:
104,192,66496,5,0,0:0:0:0:
104,192,66655,2,0,B|104:288|192:352,1,180
212,264,67130,2,0,P|188:216|188:168,1,90
325,180,67448,2,0,P|324:216|300:264,1,90,8|0,0:0|0:0,0:0:0:0:
328,345,67765,2,0,B|408:288|408:192,1,180,0|8,0:0|0:0,0:0:0:0:
324,180,68240,5,0,0:0:0:0:
256,124,68399,1,0,0:0:0:0:
188,180,68558,1,0,0:0:0:0:
256,240,68716,1,8,0:0:0:0:
256,124,69033,6,0,B|256:34,2,90
336,232,69509,2,0,B|256:296|160:224,1,180,0|0,0:0|0:0,0:0:0:0:
256,184,69985,2,0,B|256:368,2,180,8|0|8,0:0|0:0|0:0,0:0:0:0:
256,96,70777,1,0,0:0:0:0:
184,44,70936,2,0,P|140:64|88:56,1,90
24,136,71253,2,0,P|57:159|105:163,1,90
184,192,71570,5,0,0:0:0:0:
304,312,71729,1,0,0:0:0:0:
220,276,71887,1,0,0:0:0:0:
392,304,72046,1,0,0:0:0:0:
344,228,72204,6,0,P|423:202|455:110,1,180,0|8,0:0|0:0,0:0:0:0:
256,336,72839,1,0,0:0:0:0:
256,336,72997,1,0,0:0:0:0:
256,336,73157,1,8,0:0:0:0:
168,152,73473,2,0,P|142:231|50:263,1,180,0|8,0:0|0:0,0:0:0:0:
192,48,74107,1,0,0:0:0:0:
256,112,74266,1,0,0:0:0:0:
320,48,74424,1,8,0:0:0:0:
428,192,74741,5,0,0:0:0:0:
428,192,74899,2,0,L|328:256,1,90,2|0,0:0|0:0,0:0:0:0:
276,316,75217,1,0,0:0:0:0:
276,316,75375,2,0,L|212:252,1,90,2|0,0:0|0:0,0:0:0:0:
52,328,75693,2,0,L|75:240,1,90,2|0,0:0|0:0,0:0:0:0:
156,132,76010,1,2,0:0:0:0:
48,272,77278,6,0,B|136:272|136:272|144:264|144:264|240:264,1,180,4|8,0:0|0:0,0:0:0:0:
464,208,77754,2,0,B|376:208|376:208|368:200|368:200|272:200,1,180
256,120,78230,2,0,B|256:24,2,90,8|0|0,0:0|0:0|0:0,0:0:0:0:
256,216,78705,1,0,0:0:0:0:
256,304,78864,1,8,0:0:0:0:
256,304,79023,2,0,B|144:304|112:208,1,180
112,128,79498,1,8,0:0:0:0:
192,168,79657,1,0,0:0:0:0:
256,104,79815,6,0,B|312:72|312:72|320:80|320:80|440:80,1,180,0|8,0:0|0:0,0:0:0:0:
256,280,80291,2,0,B|200:312|200:312|192:304|192:304|72:304,1,180
256,192,80767,1,8,0:0:0:0:
256,192,80925,1,0,0:0:0:0:
192,128,81084,2,0,B|88:192|88:192|136:192|136:240,1,180,0|8,0:0|0:0,0:0:0:0:
320,128,81560,2,0,B|424:192|424:192|376:192|376:240,1,180
300,264,82035,1,8,0:0:0:0:
212,264,82194,1,0,0:0:0:0:
256,192,82352,6,0,B|256:72,2,90,0|0|8,0:0|0:0|0:0,0:0:0:0:
344,192,82828,2,0,B|344:96|344:96|392:72|448:96,1,180
344,192,83304,1,8,0:0:0:0:
168,192,83462,2,0,B|168:96|168:96|120:72|64:96,1,180
168,192,83938,1,8,0:0:0:0:
40,216,84097,6,0,P|88:296|168:324,1,180
256,248,84572,1,8,0:0:0:0:
345,323,84731,2,0,P|424:296|472:216,1,180
360,212,85207,5,2,0:0:0:0:
256,128,85365,1,0,0:0:0:0:
360,36,85524,2,0,L|404:120,1,90,2|0,0:0|0:0,0:0:0:0:
360,212,85841,1,0,0:0:0:0:
256,292,85999,1,0,0:0:0:0:
152,212,86158,6,0,P|104:208|68:232,2,90,2|0|0,0:0|0:0|0:0,0:0:0:0:
256,128,86634,1,0,0:0:0:0:
360,36,86792,2,0,P|408:32|444:56,2,90,2|0|0,0:0|0:0|0:0,0:0:0:0:
440,156,87268,1,0,0:0:0:0:
320,208,87426,6,0,B|368:280|368:280|376:280|376:280|424:360,1,180,2|8,0:0|0:0,0:0:0:0:
192,208,87902,2,0,B|144:280|144:280|136:280|136:280|88:360,1,180
184,352,88378,1,8,0:0:0:0:
256,296,88536,1,0,0:0:0:0:
256,88,88853,1,0,0:0:0:0:
328,32,89011,1,8,0:0:0:0:
344,120,89171,2,0,B|344:208|408:208|408:312,1,180
320,280,89646,1,8,0:0:0:0:
256,344,89805,1,0,0:0:0:0:
168,344,89963,6,0,B|166:266|230:266|230:178,1,180,0|8,0:0|0:0,0:0:0:0:
144,184,90439,1,0,0:0:0:0:
320,184,90756,1,0,0:0:0:0:
256,120,90915,1,8,0:0:0:0:
256,32,91073,1,0,0:0:0:0:
332,80,91232,2,0,L|432:100,1,90
180,80,91549,2,0,L|80:100,1,90
52,196,91866,5,0,0:0:0:0:
256,328,92104,1,0,0:0:0:0:
460,196,92342,1,0,0:0:0:0:
383,79,92500,6,0,B|384:152|312:152|312:238,1,180
199,238,92976,2,0,B|200:152|128:152|128:79,1,180,0|8,0:0|0:0,0:0:0:0:
256,148,93452,1,8,0:0:0:0:
256,60,93610,1,0,0:0:0:0:
344,40,93769,2,0,L|428:70,1,90
480,192,94086,2,0,L|395:161,1,90
320,236,94403,2,0,L|304:324,1,90
208,324,94720,2,0,L|192:236,1,90
108,288,95037,6,0,P|56:276|48:160,1,180,2|8,0:0|0:0,0:0:0:0:
132,156,95513,1,0,0:0:0:0:
164,72,95672,2,0,L|256:108,1,90
328,68,95989,2,0,L|420:104,1,90,8|0,0:0|0:0,0:0:0:0:
484,192,96306,6,0,P|420:188|368:296,1,180,2|8,0:0|0:0,0:0:0:0:
304,344,96782,1,0,0:0:0:0:
228,296,96940,2,0,L|284:216,1,90
307,62,97257,2,0,L|256:136,1,90,8|0,0:0|0:0,0:0:0:0:
60,108,97574,6,0,P|96:184|184:192,1,180,2|8,0:0|0:0,0:0:0:0:
152,108,98050,1,0,0:0:0:0:
40,248,98209,2,0,L|72:344,1,90
152,272,98526,2,0,L|227:339,1,90,8|0,0:0|0:0,0:0:0:0:
246,331,98764,1,0,0:0:0:0:
272,331,98843,6,0,L|368:298,1,90,2|0,0:0|0:0,0:0:0:0:
472,260,99160,2,0,L|376:227,1,90
256,200,99477,2,0,L|352:167,1,90
456,129,99794,2,0,L|360:96,2,90
