osu file format v5

[General]
AudioFilename: The All American Rejects - Gives You Hell.mp3
AudioLeadIn: 0
PreviewTime: 60493
Countdown: 1
SampleSet: Soft
StackLeniency: 0.7
Mode: 0
LetterboxInBreaks: 1
EditorBookmarks: 46543,60943,69643,70543,108943,118543,137743,154543,159343,177643,205843

[Metadata]
Title:Gives You Hell
Artist:The All-American Rejects
Creator:foulcoon
Version:Hard
Source:
Tags:

[Difficulty]
HPDrainRate:6
CircleSize:5
OverallDifficulty:6
SliderMultiplier:2.5
SliderTickRate:1

[Events]
//Background and Video events
//Break Periods
2,89943,98443
2,136430,145980
//Storyboard Layer 0 (Background)
//Storyboard Layer 1 (Failing)
//Storyboard Layer 2 (Passing)
//Storyboard Layer 3 (Foreground)
//Storyboard Sound Samples
//Background Colour Transformations
3,100,0,0,0

[TimingPoints]
3325,600,4,2,0,100,1
40535,600,4,1,0,100,0
41875,600,4,2,0,100,0
50135,600,4,1,0,100,0
51175,600,4,2,0,100,0
70375,600,4,1,0,100,0
106531,600,4,2,0,100,0
108331,600,4,1,0,100,0
108775,600,4,2,0,100,0
118375,600,4,1,0,100,0
137575,600,4,2,0,100,0
154375,600,4,1,0,100,0

[Colours]
Combo1 : 255,185,81
Combo2 : 150,89,86
Combo3 : 69,105,250
Combo4 : 164,129,192

[HitObjects]
22,176,12625,1,0
92,72,12925,1,0
216,57,13225,1,0
280,57,13375,1,0
402,75,13675,1,0
325,174,13975,1,0
449,176,14275,1,0
384,256,16225,5,0
320,256,16375,1,0
383,256,16525,1,0
384,160,16825,1,0
288,160,17125,1,0
192,160,17425,1,0
288,160,17725,1,0
18,28,18625,5,0
64,69,18775,1,0
81,129,18925,1,0
64,189,19075,1,0
79,249,19225,1,0
125,291,19375,1,0
192,288,19525,2,2,B|320:256,1,125
375,237,19975,1,2
90,109,22375,5,0
90,109,22525,1,0
197,172,22825,1,0
230,119,22975,1,0
349,81,23275,1,0
352,205,23575,1,0
245,270,23875,1,0
132,117,25825,1,0
171,165,25975,1,0
212,117,26125,1,0
337,117,26425,1,0
274,117,26575,1,0
202,290,27025,2,2,B|253:267|326:175|407:222,1,187.5
189,236,28375,5,0
211,177,28525,1,0
237,120,28675,1,0
264,64,28825,1,0
389,64,29125,1,0
264,64,29425,1,0
388,64,29725,1,0
96,96,31225,5,0
160,96,31375,1,0
96,96,31525,1,0
160,192,31825,1,0
288,192,32125,1,4
384,256,32425,1,0
320,256,32575,1,0
384,256,32725,1,0
480,192,33025,1,0
352,192,33325,1,4
224,224,33625,1,0
160,224,33775,1,0
224,224,33925,1,0
224,352,34225,1,0
224,224,34525,1,4
186,123,36025,5,0
220,174,36175,1,0
186,123,36325,1,0
256,224,36625,1,0
352,224,36925,1,4
320,128,37225,1,0
256,128,37375,1,0
198,103,37525,1,0
96,192,37825,1,0
64,320,38125,1,4
192,320,38425,1,0
256,320,38575,1,0
309,288,38725,1,0
224,192,39025,2,2,B|352:192,1,125
480,192,39625,1,4
127,192,40825,6,4,B|154:228|262:209|293:181,1,125
370,212,41425,2,4,B|343:176|235:195|204:223,1,125
187,92,42025,1,0
143,137,42175,1,0
77,257,42475,1,0
207,214,42775,1,0
373,335,43225,1,0
205,95,45175,5,0
267,92,45325,2,0,B|287:76|351:100,1,62.5
389,101,45625,1,0
440,214,45925,1,0
318,186,46225,1,0
255,181,46375,1,0
76,92,47575,5,0
126,128,47725,1,0
185,146,47875,1,0
247,151,48025,1,0
309,154,48175,1,0
371,147,48325,1,0
296,247,48625,1,0
372,147,48925,1,0
453,52,49225,1,0
108,77,50425,5,4
179,179,50725,1,4
258,275,51025,1,4
325,169,51325,5,0
387,170,51475,1,0
426,288,51775,1,0
387,170,52075,1,0
347,51,52375,1,0
160,70,52825,2,2,B|98:82|159:150|132:190|168:248|248:254,1,250
74,68,54775,5,0
132,91,54925,2,0,B|222:142,1,62.5
239,154,55225,1,0
290,189,55375,1,0
339,226,55525,1,0
226,277,55825,1,0
108,316,56125,1,0
108,99,57325,6,0,B|196:72,1,62.5
229,68,57625,1,0
351,90,57925,1,0
251,166,58225,1,0
308,190,58375,1,0
86,88,60625,5,0
209,70,60925,2,0,B|276:68|214:140|364:114,1,125
440,119,61525,1,0
359,214,61825,1,0
185,33,62425,5,0
36,246,63025,1,0
320,247,63625,1,0
448,196,65425,5,0
323,204,65725,2,0,B|269:207|309:131|186:152,1,125
100,108,66325,1,0
47,221,66625,1,0
269,335,67225,1,0
368,105,67825,2,2,B|355:55|495:79,1,125
96,96,69625,5,0
96,160,69775,1,0
96,96,69925,1,0
224,128,70225,1,0
352,128,70525,1,4
480,96,70825,1,0
480,160,70975,1,0
480,96,71125,1,0
352,128,71425,1,0
224,128,71725,1,4
96,96,72025,1,0
96,160,72175,1,0
96,96,72325,1,0
224,128,72625,1,0
352,128,72925,1,4
416,320,74425,5,0
416,256,74575,1,0
352,256,74725,1,0
480,256,75025,1,0
352,256,75325,1,4
320,128,75625,1,0
256,128,75775,1,0
256,192,75925,1,0
256,64,76225,1,0
256,192,76525,1,4
128,128,76825,1,0
64,128,76975,1,0
128,128,77125,1,0
256,128,77425,2,2,B|320:128|352:192|416:192,1,125
480,224,78025,1,4
448,64,79225,5,0
448,64,79375,1,0
448,64,79525,1,0
323,64,79825,1,0
385,64,79975,1,0
323,241,80425,1,0
198,245,80725,1,0
322,241,81025,1,0
384,243,81175,1,0
224,128,81625,1,0
352,128,81925,1,6
256,32,82225,1,6
384,32,82525,1,6
384,288,84025,5,0
286,210,84325,2,0,B|182:255|140:170,1,125
127,158,84775,1,0
299,83,85225,1,0
298,207,85525,1,0
422,209,85825,1,0
297,206,86125,1,0
172,203,86425,1,0
109,203,86575,1,0
46,203,86725,1,0
119,102,87025,1,0
258,309,87625,2,0,B|334:256|233:107|404:76,1,250
438,258,88675,5,0
386,222,88825,1,0
334,186,88975,1,0
282,150,89125,1,0
160,180,89425,1,0
60,255,89725,1,4
245,107,99175,6,0,B|302:168,2,62.5
139,175,99775,1,0
227,263,100075,1,0
346,225,100375,1,4
442,145,100675,1,4
324,102,100975,1,4
218,168,101275,1,4
293,267,101575,1,4
156,124,102625,5,0
278,148,102925,2,0,B|363:148,2,62.5
220,173,103375,1,0
103,218,103675,1,0
262,316,104125,1,0
236,116,105025,5,0
236,116,105175,1,0
236,116,105325,1,0
344,178,105625,1,0
237,243,105925,1,0
119,199,106225,1,0
82,148,106375,1,0
247,59,106825,5,0
309,60,106975,1,0
365,238,107425,1,0
427,237,107575,1,0
240,214,108025,1,0
177,218,108175,1,0
59,72,108625,5,0
150,156,108925,2,2,B|172:81|293:92,1,125
371,104,109525,1,2
258,159,109825,2,2,B|236:234|115:223,1,125
55,290,110425,1,2
56,40,111025,1,0
256,192,111625,1,0
96,85,113425,5,0
134,203,113725,2,2,B|150:266|220:308,1,125
328,264,114325,1,2
346,140,114625,2,2,B|278:113|189:184,1,125
125,230,115225,1,2
333,92,115825,1,0
376,209,116125,1,0
96,96,117625,5,0
160,96,117775,1,0
96,96,117925,1,0
160,192,118225,1,0
352,192,118525,1,4
352,64,118825,1,0
416,64,118975,1,0
352,64,119125,1,0
224,64,119425,1,0
224,256,119725,1,4
96,288,120025,1,0
32,288,120175,1,0
96,288,120325,1,0
224,288,120625,1,0
224,96,120925,1,4
160,96,122425,5,0
192,160,122575,1,0
160,96,122725,1,0
288,96,123025,1,0
288,288,123325,1,4
384,192,123625,1,0
320,192,123775,1,0
256,192,123925,1,0
128,192,124225,1,0
320,192,124525,1,4
448,192,124825,1,0
448,128,124975,1,0
448,192,125125,1,0
448,320,125425,2,2,B|384:320|352:256|288:256,1,125
232,198,126025,1,4
356,142,127225,5,0
301,173,127375,1,0
242,195,127525,1,0
128,246,127825,1,0
185,220,127975,1,0
355,141,128425,1,0
472,98,128725,1,0
354,141,129025,1,0
300,173,129175,1,0
127,247,129625,1,0
131,122,129925,1,6
255,123,130225,1,6
255,247,130525,1,6
112,254,132025,5,0
97,129,132325,2,0,B|112:66|215:56,1,125
254,66,132775,1,0
299,247,133225,1,0
187,190,133525,1,0
301,139,133825,1,0
416,186,134125,1,0
361,298,134425,1,0
361,298,134575,1,0
361,298,134725,1,0
242,258,135025,1,0
50,97,135625,2,0,B|69:161|140:122|182:75|315:105,1,250
331,67,147025,5,0
440,126,147325,2,0,B|427:177|302:179,1,125
203,156,147925,1,0
79,122,148225,2,0,B|146:163|177:67|190:4|271:-30|343:201,1,375
417,278,149425,1,0
335,176,149725,1,0
214,127,150025,1,0
154,153,150175,1,0
202,273,150475,1,0
262,250,150625,1,0
95,82,151525,5,0
219,85,151825,1,0
343,84,152125,2,0,B|385:104|352:208,1,125
235,160,152725,2,0,B|277:180|244:284,1,125
128,315,153325,1,0
28,74,153925,1,0
157,74,154225,1,0
286,76,154525,1,0
480,82,154975,2,0,B|424:130|485:223|424:270,1,187.5,8|0
256,192,155575,12,8,156325
192,192,156925,5,0
448,192,157525,1,12
192,192,158125,1,0
192,192,158425,1,0
64,192,158725,1,12
288,96,159325,5,0
96,256,159925,1,12
288,96,160525,1,0
288,96,160825,1,0
416,96,161125,1,12
288,320,161725,5,0
416,96,162325,1,12
288,320,162925,1,0
288,320,163225,1,0
192,224,163525,1,12
32,32,164125,5,0
224,192,164725,1,12
416,352,165325,1,0
416,352,165625,1,0
416,224,165925,1,12
160,224,166525,5,0
416,224,167125,1,12
416,32,167725,1,0
416,32,168025,1,4
416,96,168175,1,0
415,158,168325,1,8
416,224,168475,1,4
352,128,168925,5,0
96,128,169525,1,12
352,128,170125,1,0
352,128,170425,1,0
480,128,170725,1,12
224,64,171325,5,0
480,64,171925,1,12
480,320,172525,1,0
352,320,172825,1,0
352,192,173125,1,12
192,192,173725,5,0
448,192,174325,1,12
192,192,174925,1,0
192,192,175225,1,0
64,192,175525,1,12
288,96,176125,5,0
384,320,176725,1,12
160,192,177325,1,0
288,192,177625,5,0
352,192,177775,1,0
416,192,177925,1,0
352,288,178225,1,0
224,288,178525,1,4
96,224,178825,1,0
32,224,178975,1,0
32,160,179125,1,0
32,32,179425,1,0
160,32,179725,1,4
288,32,180025,1,0
352,32,180175,1,0
288,32,180325,1,0
160,32,180625,2,2,B|128:64|192:128|160:160,1,125
160,288,181225,1,4
416,96,182425,5,0
416,160,182575,1,0
416,96,182725,1,0
288,96,183025,1,0
416,96,183325,1,4
416,224,183625,1,0
416,288,183775,1,0
352,288,183925,1,0
224,288,184225,1,0
96,288,184525,1,4
96,160,184825,1,0
96,96,184975,1,0
96,160,185125,1,0
224,160,185425,2,2,B|256:96|352:96,1,125
448,96,186025,1,4
64,288,187225,5,0
128,256,187375,1,0
192,224,187525,1,0
320,160,187825,1,0
224,96,188125,1,0
96,96,188425,1,0
160,96,188575,1,0
224,96,188725,1,0
352,96,189025,1,0
416,96,189175,1,0
416,288,189625,1,0
352,288,189775,1,0
288,288,189925,1,0
288,224,190075,1,0
160,224,190375,1,0
352,96,192025,5,0
224,96,192325,1,0
224,224,192625,1,0
160,224,192775,1,0
160,32,193225,1,4
288,32,193525,1,4
416,32,193825,1,4
416,160,194125,1,4
416,288,194425,1,4
416,224,194575,1,0
416,160,194725,1,0
288,160,195025,2,4,B|224:128|192:224|128:192,1,125
32,192,195625,1,4
256,256,196825,5,0
320,256,196975,1,0
256,256,197125,1,0
128,256,197425,1,0
128,128,197725,1,4
256,128,198025,1,4
384,128,198325,1,4
384,256,198625,1,4
256,256,198925,1,4
384,256,199225,1,6
384,128,199525,1,6
256,128,199825,1,6
256,256,200125,1,6
160,64,201625,5,0
224,64,201775,1,0
288,64,201925,1,0
288,128,202075,1,0
224,224,202375,1,4
416,224,202825,1,6
416,96,203125,1,6
320,160,203425,1,6
256,192,203725,12,4,204925
