osu file format v5

[General]
AudioFilename: 01 Dirty Little Secret.mp3
AudioLeadIn: 0
PreviewTime: -1
Countdown: 1
SampleSet: Normal
StackLeniency: 0.7
Mode: 0

[Metadata]
Title:Dirty Little Secret
Artist:The All-American Rejects
Creator:Ichikira
Version:Hard

[Difficulty]
HPDrainRate:4
CircleSize:6
OverallDifficulty:7
SliderMultiplier:2.4
SliderTickRate:4

[Events]
//Background and Video events
0,0,"Sans titre.jpg"
//Break Periods
2,12741,13769
2,56203,57588
2,84910,102677
2,112702,115610
2,159719,162118
//Storyboard Layer 0 (Background)
//Storyboard Layer 1 (Failing)
//Storyboard Layer 2 (Passing)
//Storyboard Layer 3 (Foreground)
//Storyboard Sound Samples
//Background Colour Transformations
3,100,163,162,255

[TimingPoints]
14800,560.162521395588,4,1,0,100
33130,608.282052244223,4,1,0,100

[HitObjects]
128,288,1445,1,0
224,288,1861,1,0
320,224,2213,1,0
320,288,2571,1,0
64,160,3031,5,0
320,160,3440,1,0
224,256,3645,2,0,C|448:288,1,210
256,128,4724,5,4
256,96,5036,1,0
192,32,5321,1,0
192,32,5463,1,0
192,32,5653,1,0
352,64,5938,1,0
416,64,6317,5,0
352,64,6697,1,0
288,96,7029,1,0
288,96,7171,1,0
288,96,7361,1,0
224,32,7599,1,0
128,96,8026,5,0
192,96,8405,1,0
256,64,8690,1,0
256,64,8832,1,0
256,64,9070,1,0
320,96,9307,1,0
384,96,9729,5,0
320,64,10087,1,0
256,96,10394,1,0
256,96,10547,1,0
256,96,10700,1,0
160,96,10956,1,0
384,64,11365,5,0
288,96,11719,1,0
224,32,11979,1,0
224,32,12139,1,0
224,32,12349,1,0
160,32,12541,1,0
160,224,14669,5,0
256,224,15010,2,0,B|416:224,3,150
160,64,18090,5,0
256,96,18511,1,0
256,64,18721,1,0
256,64,19001,1,0
352,64,19351,1,0
128,64,19771,5,0
288,96,20191,1,0
224,96,20401,1,0
224,96,20541,1,0
352,96,20961,1,0
384,64,21451,5,0
320,64,21872,1,0
192,96,22012,1,0
192,96,22222,1,0
256,64,22642,1,0
416,96,23132,5,0
352,96,23482,1,0
288,64,23762,1,0
288,64,23902,1,0
160,96,24322,1,0
64,32,24742,5,0
64,96,25092,1,0
160,32,25303,1,0
160,32,25513,1,0
160,96,26003,1,0
416,32,26423,5,0
416,96,26913,1,0
352,32,27053,1,0
352,32,27263,1,0
352,64,27683,1,0
224,32,28103,5,0
224,96,28523,1,0
192,32,28664,1,0
192,32,28874,1,0
160,64,29294,1,0
384,32,29784,5,0
384,96,30204,1,0
352,32,30414,1,0
352,32,30554,1,0
320,64,30974,1,0
96,32,31464,5,0
96,96,31884,1,0
160,32,32095,1,0
160,32,32235,1,0
160,96,32655,1,0
288,32,33075,5,0
288,96,33485,1,0
384,64,33687,1,0
384,64,33890,1,0
384,96,34296,1,0
192,64,34702,5,0
128,64,35158,1,0
128,64,35310,1,0
128,64,35463,1,0
64,64,35919,1,0
256,64,36426,5,0
320,128,36832,1,0
352,64,36984,1,0
352,64,37187,1,0
416,96,37593,1,0
128,32,38049,5,0
128,96,38506,1,0
224,32,38658,1,0
224,32,38861,1,0
224,96,39266,1,0
320,32,39723,5,0
320,96,40179,1,0
384,64,40382,1,0
384,64,40534,1,0
384,96,40991,1,0
192,64,41397,5,0
192,64,41599,1,0
192,64,41752,1,0
352,96,41954,1,0
352,96,42157,1,0
352,96,42309,1,0
256,96,42563,1,0
256,96,42715,1,0
256,96,42766,1,0
256,96,42817,1,0
256,96,42969,1,0
256,96,43070,1,4
256,192,43172,5,0
288,192,43577,1,0
320,192,43932,1,0
288,224,44287,1,0
288,288,44693,1,0
288,288,44845,1,0
288,288,45048,1,0
288,320,45302,1,0
288,320,45555,1,0
288,320,46012,1,0
256,256,46418,5,0
256,256,46620,1,0
256,256,46874,1,0
256,256,47077,1,0
256,256,47229,1,0
192,256,47635,1,0
384,224,48497,5,0
288,192,48852,1,0
288,288,49258,1,0
352,224,49664,1,0
352,224,50120,1,0
352,224,50576,1,0
352,224,50982,1,0
192,224,51388,1,0
192,224,51591,1,0
192,224,51844,1,0
192,224,52047,1,0
256,224,52250,1,0
224,288,52656,1,0
384,224,53112,5,0
384,224,53315,1,0
384,224,53518,1,0
384,224,53721,1,0
384,224,53924,1,0
352,224,54330,1,0
192,224,55090,1,0
256,288,55344,1,0
256,224,55547,1,0
192,288,56003,1,0
288,256,58525,5,0
192,224,58894,1,0
224,288,59300,1,0
256,224,59503,1,2
224,128,59807,5,0
288,128,60213,1,0
160,128,60416,1,0
160,128,60568,1,0
224,128,60974,1,0
416,64,61379,1,0
416,96,61836,1,0
352,64,61988,1,0
352,64,62191,1,0
320,96,62647,1,0
256,64,63104,1,0
192,96,63510,1,0
192,64,63662,1,0
192,64,63865,1,0
128,96,64372,1,0
384,32,64777,1,0
384,64,65183,1,0
320,64,65386,1,0
320,64,65589,1,0
288,96,65995,1,0
192,288,67313,5,0
192,288,67668,1,0
192,288,67871,1,0
192,288,68328,1,0
192,288,68886,1,0
192,288,69241,1,0
192,288,69697,1,0
352,224,70610,1,0
256,224,71016,1,0
288,288,71422,1,0
352,288,71827,1,0
192,256,72284,1,0
160,192,72689,1,0
160,192,72892,1,0
192,192,73400,2,0,B|448:192,2,240
256,64,74820,5,0
128,96,75175,1,0
96,96,75378,1,0
96,96,75580,1,0
288,96,75986,1,0
256,32,76392,1,0
384,64,76848,1,0
384,64,77051,1,0
384,64,77203,1,0
288,96,77660,1,0
320,96,78116,1,0
320,64,78522,1,0
320,64,78725,1,0
320,64,78928,1,0
384,96,79334,1,0
416,96,79739,1,0
416,64,80196,1,0
288,64,80399,1,0
288,64,80601,1,0
256,128,80956,5,0
384,64,81362,1,0
160,64,81819,1,0
160,64,81971,1,0
160,64,82174,1,0
256,64,82681,1,0
352,64,83087,1,0
352,96,83543,1,0
416,96,83949,1,0
416,32,84355,1,0
416,64,84710,1,0
160,256,103577,5,0
256,256,103932,1,0
192,224,104337,1,0
352,224,104794,1,0
288,320,105200,1,0
320,320,105656,2,2,B|448:320,1,120
416,224,106975,5,0
320,224,107381,1,0
320,288,107736,1,0
224,224,108141,1,0
192,288,108547,1,0
224,288,108953,2,2,B|64:288,1,150
160,256,110221,5,0
160,320,110576,1,0
224,224,111032,1,0
224,320,111438,1,0
288,256,111844,1,0
288,288,112249,2,2,B|448:288,1,150
256,192,116510,12,4,119401
256,192,119908,12,4,122799
128,224,123205,1,0
128,256,123610,1,0
224,256,123864,1,0
224,288,124320,1,0
288,256,124827,1,0
288,288,125284,1,0
288,288,125436,1,0
288,288,125690,1,0
288,288,125893,1,0
320,288,126095,1,0
160,224,126501,5,0
160,288,126907,1,0
224,224,127313,1,0
224,288,127769,1,0
288,224,128124,1,0
320,256,128581,1,0
320,288,128834,1,0
288,256,129037,1,0
288,288,129494,2,0,B|256:288,1,30
64,224,129849,5,0
96,288,130305,1,0
128,224,130660,1,0
160,320,131116,1,0
192,224,131522,1,0
192,224,131877,1,0
192,224,132131,1,0
192,224,132384,1,0
224,256,132689,1,0
416,224,133145,1,0
416,288,133602,1,0
320,224,133957,1,0
352,288,134515,1,0
224,224,134819,1,0
224,288,135225,1,0
224,288,135428,1,0
224,288,135630,1,0
288,256,135985,1,2
128,64,136991,5,0
128,64,137000,5,4
224,96,137811,1,4
320,64,138623,1,4
128,64,139485,1,4
224,96,140296,1,4
352,64,141159,1,4
160,96,141919,1,4
288,64,142832,1,4
192,96,143593,1,4
384,96,144455,5,0
160,64,145064,1,0
160,64,145267,1,0
160,64,145520,1,0
224,64,146078,1,2
352,96,146788,1,0
352,96,146940,1,0
352,96,147143,1,0
352,96,147346,1,0
192,64,147752,1,0
96,64,148411,1,0
96,64,148614,1,0
96,64,148868,1,0
96,64,149020,1,0
256,96,149324,5,0
256,96,149476,1,0
256,96,149578,1,0
256,96,149730,1,0
256,96,149882,1,0
224,192,149933,5,0
256,192,150288,1,0
288,192,150744,1,0
256,224,151099,1,0
352,288,151505,1,0
352,288,151708,1,0
352,288,151962,1,0
352,288,152215,1,0
320,288,152418,1,0
256,224,152824,1,0
160,288,153280,1,0
160,288,153432,1,0
160,288,153585,1,0
160,288,153787,1,0
160,288,153990,1,0
224,288,154447,1,0
320,224,154852,1,0
320,224,155055,1,0
320,224,155258,1,0
320,224,155461,1,0
320,224,155664,1,0
320,288,156070,1,0
160,224,156475,5,0
160,256,156983,1,0
224,224,157439,1,0
224,256,157845,1,0
256,224,158251,1,0
256,224,158403,1,0
256,224,158606,1,0
256,224,158758,1,0
256,224,159011,1,0
288,224,159113,1,0
256,224,159519,1,0
256,192,162998,12,4,166092
256,192,166467,12,2,167836
256,192,168191,12,4,192840
