osu file format v5

[General]
AudioFilename: Dirty Little Secrets.mp3
AudioLeadIn: 0
PreviewTime: -1
Countdown: 1
SampleSet: None
StackLeniency: 0.7
Mode: 0
LetterboxInBreaks: 1

[Metadata]
Title:Dirty Little Secrets
Artist:The All American Rejects
Creator:Crazy_Red
Version:Normal
Source:
Tags:

[Difficulty]
HPDrainRate:5
CircleSize:5
OverallDifficulty:5
SliderMultiplier:1.4
SliderTickRate:1

[Events]
//Background and Video events
0,0,"beats4life3.jpg"
//Break Periods
//Storyboard Layer 0 (Background)
//Storyboard Layer 1 (Failing)
//Storyboard Layer 2 (Passing)
//Storyboard Layer 3 (Foreground)
//Storyboard Sound Samples
//Background Colour Transformations
3,100,163,162,255

[TimingPoints]
2200,416.747164360913,4,0,0,100,1

[HitObjects]
256,192,4240,1,0
256,192,5140,1,0
352,192,5970,1,0
192,192,6820,1,0
320,192,7630,1,0
192,192,8480,1,0
256,96,9290,1,0
256,256,10100,1,0
320,192,10930,1,0
160,192,11740,1,0
256,128,12590,1,0
320,192,13410,1,0
192,224,13868,5,0
288,256,14260,1,0
384,192,14710,1,0
256,192,15140,1,0
160,192,15580,1,0
224,128,15970,1,0
288,160,16830,1,0
192,224,17670,1,0
288,224,18510,1,0
384,192,19280,1,0
352,160,19700,1,0
224,160,20120,1,0
160,192,20600,1,0
160,224,21010,1,0
224,256,21390,1,0
320,256,21790,1,0
384,192,22170,1,0
256,160,23080,5,0
160,192,23850,1,0
160,256,24680,1,0
288,288,25480,1,0
416,224,26320,1,0
352,160,26790,1,0
224,160,27200,1,0
192,224,27560,1,0
288,256,27960,1,0
352,256,28340,1,0
384,160,28730,1,0
160,160,29184,5,0
160,160,29710,2,0,B|416:160|384:160,2,140
384,224,32120,2,0,B|192:224|192:224,1,140
128,160,33880,2,0,B|288:160,1,140
288,192,35123,5,0
160,160,35539,1,0
192,192,37623,1,0
192,192,38040,1,0
192,192,38457,1,0
256,192,38833,1,0
256,192,39273,1,0
256,192,39743,1,0
256,192,40133,1,0
256,192,40443,1,0
192,192,41950,1,0
288,128,43060,1,0
352,224,43830,1,0
192,256,44240,1,0
192,128,44680,1,0
320,160,45229,5,0
288,224,45500,1,0
128,224,45720,1,0
128,224,45920,1,0
256,160,46110,1,0
288,128,46310,1,0
384,160,46710,1,0
352,256,47140,1,0
256,256,47600,1,0
192,192,48030,1,0
96,160,48470,1,0
128,96,48880,1,0
192,128,49260,1,0
288,128,49633,5,0
288,128,49730,1,0
320,160,50100,1,0
352,192,50530,1,0
352,256,50940,1,0
224,256,51370,1,0
160,192,51790,1,0
256,160,52180,1,0
256,160,52370,1,0
256,160,52600,1,0
256,160,52790,1,0
256,160,53080,1,0
224,160,53520,1,0
128,160,54300,1,0
256,256,54760,1,0
352,256,55170,1,0
352,192,55590,5,0
288,160,55990,1,0
192,160,56430,1,0
192,224,56840,1,0
256,192,58863,1,0
128,160,59763,1,0
352,160,60623,1,0
320,224,61433,1,0
192,224,62211,5,0
224,128,63103,1,0
320,128,63893,1,0
352,224,64713,1,0
256,224,65163,1,0
192,224,65563,1,0
192,128,66403,1,0
288,128,67263,1,0
96,256,68023,1,0
384,256,68823,1,0
256,96,69673,1,0
64,96,70593,1,0
416,96,71443,1,0
256,256,72213,1,0
96,192,73073,1,0
288,96,73933,1,0
384,192,74813,5,0
256,288,75623,1,0
128,192,76393,1,0
256,96,77203,1,0
352,160,78033,1,0
224,288,78463,1,0
128,224,78933,1,0
192,128,79773,1,0
352,160,80613,1,0
256,256,81003,1,0
192,224,81383,1,0
192,160,81773,1,0
320,160,82213,1,0
352,224,82653,1,0
288,256,83063,5,0
192,224,83503,1,0
160,192,83873,1,0
256,160,84673,1,0
256,160,84823,1,0
256,160,85023,1,0
256,160,85253,1,0
384,192,86013,5,0
320,224,86843,1,0
192,224,87673,1,0
192,128,88533,1,0
320,160,88953,1,0
352,224,89303,1,0
256,224,89693,1,0
192,224,90153,1,0
160,160,90563,1,0
256,128,90993,1,0
352,160,91433,1,0
352,224,91863,1,0
256,224,92273,1,0
192,192,93133,5,0
352,160,93943,1,0
384,192,94353,1,0
384,256,94723,1,0
320,256,95123,1,0
256,224,95703,5,0
256,192,96483,1,0
320,192,96913,1,0
352,128,97313,1,0
288,96,97703,1,0
192,96,98083,1,0
160,160,98473,1,0
256,256,99133,5,0
384,256,99783,1,0
384,160,100233,1,0
384,160,101863,1,0
320,192,102293,1,0
256,256,102773,1,0
192,192,103183,1,0
160,128,103573,1,0
256,96,103953,1,0
288,160,104383,1,0
384,160,104783,1,0
384,96,105223,1,0
320,128,105653,1,0
192,224,106490,5,0
288,256,107263,1,0
384,256,107653,1,0
384,192,108063,1,0
160,160,108573,2,0,B|384:160|384:160,1,140
384,160,109923,1,0
224,160,110963,5,0
128,192,111463,1,0
160,256,111873,1,0
96,160,112393,2,0,B|256:160|256:160,1,140
288,160,113923,1,0
288,224,114853,1,0
352,288,115243,1,0
224,288,115653,1,0
96,160,116223,2,0,B|352:160|352:160,2,140
192,192,118576,1,0
224,192,119973,1,0
256,128,120823,1,0
352,160,121603,1,0
320,224,122033,1,0
256,192,123577,1,0
192,192,123603,5,0
320,192,124423,1,0
256,128,125203,1,0
192,192,125683,1,0
288,192,126073,1,0
256,128,126483,1,0
256,224,126893,1,0
192,192,127353,1,0
224,128,127693,1,0
288,192,128093,1,0
288,224,128463,1,0
192,192,128953,1,0
256,128,129393,1,0
320,192,129833,1,0
256,224,130203,1,0
192,192,130553,5,0
224,128,131003,1,0
320,192,131463,1,0
352,192,131703,1,0
416,192,131923,1,0
352,192,132823,1,0
256,192,133583,1,0
160,192,134393,1,0
256,128,135073,1,0
352,160,135343,1,0
288,192,136083,5,0
192,192,136943,1,0
256,96,137743,1,0
352,192,138603,1,0
256,256,139383,1,0
160,192,140243,1,0
256,128,141113,1,0
320,192,141903,1,0
256,256,142733,1,0
192,192,143613,1,0
256,128,144493,1,0
320,192,145273,1,0
192,192,146083,5,0
256,128,146963,1,0
320,192,147733,1,0
352,128,148563,1,0
288,96,149413,1,0
224,128,149803,1,0
192,192,150263,1,0
256,224,150653,1,0
256,224,150823,1,0
288,224,151083,1,0
320,224,151513,1,0
352,224,151933,1,0
352,160,152363,1,0
256,160,152963,5,0
192,160,153623,1,0
192,192,154033,1,0
224,224,154443,1,0
320,224,154833,1,0
352,224,155253,1,0
352,160,155663,1,0
352,160,155853,1,0
352,160,156073,1,0
352,160,156233,1,0
352,160,156473,1,0
352,160,156923,1,0
352,160,157343,1,0
352,160,157773,1,0
256,160,158173,1,0
224,160,158643,1,0
224,224,159522,1,0
288,160,159853,1,0
288,192,160263,1,0
224,192,161003,5,0
288,160,161543,1,0
320,160,161943,1,0
160,192,163168,1,0
160,192,163585,1,0
192,160,164213,1,0
288,160,164793,1,0
320,160,165283,1,0
320,96,166123,1,0
256,96,166583,1,0
192,96,166963,1,0
224,160,167833,1,0
320,192,168263,1,0
352,192,168653,1,0
416,192,169033,1,0
256,224,169863,1,0
256,224,170183,1,0
256,224,170633,1,0
256,224,171113,5,0
256,224,171563,1,0
256,224,171763,1,0
256,224,172013,1,0
256,160,172853,1,0
384,160,173693,1,0
256,256,174443,1,0
224,160,175303,1,0
320,160,175963,1,0
256,192,176817,12,0,179630
256,192,182234,12,4,184735
256,192,188363,5,4
