osu file format v9

[General]
AudioFilename: MEGA MAN 2 by The Adventures Of Duane And BrandO.mp3
AudioLeadIn: 2000
PreviewTime: 39695
Countdown: 0
SampleSet: Soft
StackLeniency: 0.7
Mode: 0
LetterboxInBreaks: 0

[Editor]
Bookmarks: 337,39995,72014,96144,103204,128961,158287,184321,186543,191726,219513,245576,270934,303080,315769,347716,379662,386204,411762,437519
DistanceSpacing: 1.3
BeatDivisor: 4
GridSize: 8

[Metadata]
Title:MEGA MAN 2
Artist:The Adventures of Duane & BrandO
Creator:Derekku
Version:Normal Marathon
Source:Mega Man 2
Tags:MegaMan II MAT Mapping Assistance Team Collab Collaboration LP of Devastation luigihann matma rex sushi sushi971 dangaard real1 fartownik ztrot happy30 derekku chan agnes agneschan 0_o doomsday doomsday93 gens zekira mashley agent spin here

[Difficulty]
HPDrainRate:4
CircleSize:3
OverallDifficulty:6
ApproachRate:6
SliderMultiplier:1.4
SliderTickRate:1

[Events]
//Background and Video events
0,0,"MegaMan\MegaMan2.jpg"
//Break Periods
2,96008,102553
2,186576,190842
2,303080,315052
2,369047,370459
2,379446,385354
//Storyboard Layer 0 (Background)
//Storyboard Layer 1 (Fail)
//Storyboard Layer 2 (Pass)
//Storyboard Layer 3 (Foreground)
//Storyboard Sound Samples
//Background Colour Transformations
3,100,0,0,0

[TimingPoints]
606,532.150776053215,4,2,0,100,1,0
26184,465.116279069767,4,2,0,100,1,0
33606,399.334442595674,4,2,0,100,1,0
40234,332.778702163062,4,2,0,100,1,0
72097,-100,4,1,0,100,0,0
82746,-100,4,2,0,100,0,0
95945,399.334442595674,4,2,0,100,1,0
102006,399.334442595674,4,1,0,70,1,0
129125,332.778702163062,4,1,0,70,1,0
134496,332.778702163062,4,1,0,30,1,0
135577,-100,4,1,0,60,0,0
158465,399.334442595674,4,1,0,100,1,0
184380,332.778702163062,4,2,0,100,1,0
188066,332.778702163062,4,2,0,100,1,0
191726,-100,4,2,0,71,0,0
192059,-200,4,1,0,71,0,0
193224,-100,4,2,0,71,0,0
193556,-200,4,1,0,71,0,0
196052,-200,4,2,0,71,0,0
196219,-200,4,1,0,71,0,0
196884,-200,4,2,0,71,0,0
197217,-200,4,1,0,71,0,0
197716,-200,4,2,0,71,0,0
197882,-200,4,1,0,71,0,0
198215,-200,4,2,0,71,0,0
199047,-200,4,1,0,71,0,0
199546,-200,4,2,0,71,0,0
200046,-200,4,1,0,71,0,0
200212,-200,4,2,0,71,0,0
200711,-200,4,1,0,71,0,0
200877,-200,4,2,0,71,0,0
202541,-100,4,1,0,84,0,0
219513,332.778702163062,4,1,0,84,1,0
219721,-100,4,1,0,10,0,0
219971,-100,4,1,0,100,0,0
220019,399.334442595674,4,1,0,100,1,0
220917,-100,4,1,0,75,0,0
221117,-100,4,1,0,100,0,0
222514,-100,4,1,0,75,0,0
222714,-100,4,1,0,100,0,0
223712,-100,4,1,0,75,0,0
223912,-100,4,1,0,100,0,0
224511,-100,4,1,0,75,0,0
224711,-100,4,1,0,100,0,0
225310,-100,4,1,0,75,0,0
225509,-100,4,1,0,100,0,0
225709,-100,4,1,0,75,0,0
226108,-100,4,1,0,100,0,0
226907,-100,4,1,0,75,0,0
227107,-100,4,1,0,100,0,0
227306,-100,4,1,0,75,0,0
227506,-100,4,1,0,100,0,0
228504,-100,4,1,0,75,0,0
228704,-100,4,1,0,100,0,0
228904,-100,4,1,0,75,0,0
229103,-100,4,1,0,50,0,0
231100,-100,4,1,0,100,0,0
234195,-100,4,1,0,50,0,0
234395,-100,4,1,0,100,0,0
237390,-100,4,1,0,50,0,0
237589,-100,4,1,0,100,0,0
240584,-100,4,1,0,50,0,0
240784,-100,4,1,0,100,0,0
243779,-100,4,1,0,50,0,0
243979,-100,4,1,0,100,0,0
258155,-200,4,1,0,100,0,0
264544,-100,4,1,0,100,0,0
276624,-125,4,1,0,70,0,0
277423,-100,4,1,0,100,0,0
314771,332.778702163062,4,1,0,100,1,0
380015,399.334442595674,4,2,0,100,1,0
411662,-100,4,1,0,100,0,0

[HitObjects]
168,64,605,2,0,B|72:88|128:200,1,140
152,304,1670,1,2
296,64,2734,6,0,B|384:96|376:184,1,140
368,304,3798,1,2
88,312,4863,6,0,B|56:240|120:168,1,140
216,88,5927,1,2
360,328,6991,6,0,B|432:280|416:208,1,140
384,72,8056,1,2
104,112,9120,5,0
208,208,9652,1,0
96,296,10184,1,0
232,320,10716,2,2,B|288:328|320:296,1,70,2|2
256,32,12047,6,2,B|336:72,1,70
360,120,12579,1,0
336,184,12845,2,0,B|296:248,1,70
176,168,13643,5,0
136,224,13909,1,0
184,272,14175,1,0
312,224,14707,5,0
360,272,14974,1,0
408,224,15240,1,0
408,152,15506,2,2,B|408:32|216:32|224:176,1,280
448,320,17634,6,0,B|352:336|288:280,1,140
264,248,18433,2,0,B|216:192|120:232,1,140
72,256,19231,1,2
48,120,19763,6,0,B|120:72|200:80,1,140
248,104,20561,2,0,B|304:136|328:136|376:128|392:120,1,140
440,88,21359,1,2
432,224,21892,6,0,B|368:296|288:280,1,140
240,280,22690,2,0,B|136:272|96:208,1,140
80,168,23488,1,2
168,56,24020,6,0,B|216:120|288:120,1,140
352,144,24818,2,0,B|424:184|392:272,1,140
352,320,25617,1,2
192,312,26184,6,2,B|64:192|192:48,1,280
248,56,27346,1,0
312,88,27579,1,0
280,152,27811,1,0
344,184,28044,2,0,B|408:232|392:304|304:328|232:320|184:280,1,280
144,248,29207,6,0,B|96:200|88:160|104:112,1,140
160,80,29904,2,0,B|304:48|440:144,1,280
384,264,31300,5,0
328,312,31532,1,0
256,320,31765,2,2,B|168:200,3,140
152,48,33606,5,4
344,136,34205,1,0
344,136,34404,1,0
344,136,34604,1,0
384,272,35003,6,0,B|376:320|304:320,1,70,0|4
136,248,35802,1,0
136,248,36002,1,0
136,248,36201,1,0
72,120,36601,5,0
144,120,36800,2,2,B|344:120|400:160|360:224|256:232|224:248|216:312|272:344,1,420
256,192,38198,12,8,40234
102,86,40566,5,0
254,64,40899,1,8
403,102,41232,2,0,B|480:118|487:183,2,70,0|0|8
294,210,41897,1,0
276,363,42230,1,8
237,304,42397,6,0,B|194:231|130:205|40:218|40:218,1,210,0|8
141,86,43229,1,0
294,107,43561,2,0,B|321:163|289:236|228:253,1,140,8|0
120,291,44227,2,0,B|93:235|125:162|186:145,1,140,8|0
293,108,44892,1,8
431,175,45225,5,0
488,318,45558,1,8
430,175,45891,2,0,B|371:191|338:264|366:320,1,140,0|8
214,342,46556,1,0
214,342,46723,1,8
90,250,47055,2,0,B|45:211|59:164|59:164,1,70
34,37,47555,1,8
174,99,47887,5,0
252,231,48220,1,8
316,371,48553,2,0,B|376:394|410:355|410:355,2,70,0|0|8
165,335,49219,1,0
99,196,49551,2,0,B|46:91|128:10|128:10,1,140,8|0
156,107,50050,2,0,B|209:212|127:293|127:293,1,140,8|0
379,62,50882,5,8
173,167,51382,2,0,B|226:285|322:261|322:261,1,140,8|0
426,259,52047,1,0
426,259,52214,1,8
344,128,52546,1,0
344,128,52713,1,8
122,61,53212,5,0
83,210,53545,2,0,B|118:334|221:313|221:313,1,140,8|0
324,291,54210,2,0,B|288:166|185:187|185:187,1,140,8|0
227,122,54709,1,8
106,25,55042,1,8
94,178,55375,1,0
94,178,55541,1,8
188,299,55874,5,0
337,337,56207,2,0,B|400:353|438:299,2,70,8|0|0
317,184,56872,2,0,B|220:163|119:217,1,140,8|0
93,320,57538,1,8
156,292,57704,2,0,B|239:238|336:274,1,140
125,98,58536,5,0
253,12,58869,2,0,B|340:59|365:167,1,140,8|0
210,185,59535,2,0,B|123:232|98:340,1,140,8|0
261,335,60200,1,8
404,278,60533,2,0,B|430:211|374:158|374:158,1,70,0|8
331,74,61032,2,0,B|307:98|308:161,1,70,0|0
244,278,61531,5,8
95,236,61864,1,0
28,96,62197,1,8
181,109,62530,1,0
95,236,62862,1,8
206,342,63195,1,0
360,336,63528,2,0,B|471:289|433:185|433:185,1,140,8|0
291,277,64194,6,0,B|402:230|364:126|364:126,1,140,8|0
222,217,64859,2,0,B|333:170|295:66|295:66,1,140,8|0
313,42,65358,1,8
151,154,65857,2,0,B|262:107|224:3|224:3,1,140,8|8
77,68,66523,5,0
39,217,66856,2,0,B|30:275|89:308|89:308,3,70,8|0|0|8
196,351,67688,1,8
200,282,67854,2,0,B|310:216|365:284|365:284,1,140,0|8
466,339,68520,1,0
459,185,68852,1,8
335,92,69185,6,0,B|240:114|145:220|154:328,1,280
6,328,70184,1,8
54,182,70516,1,0
156,66,70849,1,8
291,0,71182,5,8
445,5,71515,1,12
256,192,72180,5,4
256,64,72513,2,2,B|336:96|368:176,1,140,2|2
416,256,73179,2,0,B|448:288|448:336,2,70,8|0|0
320,336,73844,1,8
224,256,74177,1,0
176,224,74343,1,0
128,256,74510,1,8
80,224,74676,2,2,B|16:160|96:96,1,140
86,103,75175,5,8
208,64,75508,1,0
336,80,75841,1,8
432,160,76174,2,2,B|464:192|448:224,3,70
368,320,77006,1,4
368,320,77172,1,4
240,352,77505,5,2
176,352,77671,1,0
112,352,77837,1,2
32,256,78170,2,0,B|64:176|128:160,1,140,0|8
256,144,78836,2,0,B|224:224|160:240,1,140,0|8
161,239,79335,1,0
240,336,79668,1,0
240,336,79834,1,8
368,336,80167,6,2,B|448:336|488:273,1,140
486,211,80666,1,0
486,147,80833,2,2,B|447:85|367:85,1,140
367,84,81332,1,0
256,144,81664,5,0
256,208,81831,1,0
256,272,81997,1,4
368,208,82330,1,0
368,208,82496,1,4
368,80,82829,6,2,L|464:80,1,70
304,80,83328,1,0
176,80,83661,2,0,L|224:80,2,35,0|0|4
48,80,84160,6,0,L|16:112|48:160|16:192,1,140,2|0
144,208,84826,2,0,L|176:240|224:208|256:240,1,140,2|0
320,240,85325,2,0,L|416:240|432:192,1,140
429,198,85824,1,2
429,198,85991,1,2
432,80,86323,5,2
432,80,86490,1,0
304,80,86823,2,0,L|160:80,1,140,0|2
64,160,87488,2,0,L|176:160,1,105,2|0
144,256,87987,1,0
144,256,88154,1,2
272,256,88486,1,2
272,256,88653,1,2
400,112,89152,6,0,L|384:96|288:128|272:112,1,140,2|4
96,48,89984,1,0
64,96,90150,2,0,L|48:192|80:224,2,140,2|0|2
160,128,91065,1,2
256,160,91315,2,0,L|336:192|352:256,1,140,2|0
349,244,91814,1,0
349,244,91981,1,2
233,292,92313,5,2
169,292,92480,1,2
137,244,92646,1,0
73,244,92813,2,0,L|73:100,2,140,2|0|2
137,244,93644,1,2
169,196,93811,1,0
233,196,93977,1,2
409,244,94476,6,0,L|432:240|416:156|449:147,1,140,0|4
448,16,95142,2,0,L|288:16,1,140,0|2
176,16,95808,1,4
120,344,103603,6,0,L|152:344|208:288|256:288,1,140,6|0
440,344,104601,2,0,L|368:344,1,70,2|8
480,256,105200,6,0,L|448:256|392:200|344:200,1,140,2|0
160,256,106199,2,0,L|232:256,2,70,2|8|0
96,224,106798,6,0,L|96:192|40:136|40:88,1,140,2|0
72,48,107397,1,0
136,64,107596,2,0,L|136:96|192:152|192:200,1,140,2|8
264,64,108395,6,0,L|352:64,1,70,2|0
408,144,108894,2,0,L|320:144,1,70,2|2
264,224,109393,2,0,L|352:224,1,70,2|8
216,144,109992,6,0,L|216:72,2,70,6|0|0
96,72,110791,2,0,L|96:216,1,140,2|8
216,280,111590,6,0,L|216:368,2,70,2|0|0
336,352,112388,2,0,L|336:192,1,140,2|8
216,144,113187,6,0,L|256:104|256:40,2,105,2|0|0
144,144,113986,2,0,L|104:184|104:248,2,105,2|0|0
216,144,114784,6,0,L|216:216,1,70,2|0
280,232,115184,2,0,L|408:232,1,105,2|2
480,192,115783,2,0,L|480:120,1,70,0|8
328,40,116382,6,0,L|296:40|240:96|192:96,1,140,4|8
64,168,117180,1,0
16,96,117380,1,0
64,24,117580,1,8
152,168,117979,6,0,L|184:168|240:224|288:224,1,140,0|8
416,296,118778,1,0
464,224,118977,1,8
416,152,119177,1,8
256,104,119576,6,0,L|256:32,2,70,4|0|8
256,280,120375,2,0,L|256:368,2,70,0|0|8
96,280,121174,5,0
96,192,121373,1,0
184,192,121573,2,0,L|328:192,1,140,8|0
416,192,122172,1,8
416,280,122372,2,0,L|336:280,1,70,8|0
256,280,122771,5,6
256,104,123170,1,8
104,32,123570,1,2
56,104,123769,1,0
104,176,123969,1,8
168,336,124368,6,0,L|168:264,2,70,2|0|8
344,336,125167,2,0,L|344:264,2,70,2|0|8
456,216,125966,6,0,L|424:216|368:160|320:160,1,140,4|8
168,160,126764,2,0,L|96:160,2,70,0|0|8
288,40,127563,6,0,L|416:40,2,105,2|2|0
200,40,128362,2,0,L|200:72|256:128|256:176,1,140,2|0
112,192,129125,5,0
168,64,129457,1,2
224,192,129790,1,8
288,64,130123,1,2
352,192,130456,6,0,B|352:288|288:336|192:336,1,210,8|0
112,256,131288,1,2
112,256,131454,1,2
112,192,131787,5,0
216,288,132120,1,2
320,192,132452,1,8
216,104,132785,1,2
320,192,133118,2,0,B|288:296|320:336|472:352,1,210,8|0
432,208,133950,1,2
432,208,134116,1,2
256,96,134496,6,0,B|192:96,11,35
176,192,135660,5,2
176,192,135993,1,2
384,192,136492,1,2
384,192,136825,1,2
384,120,136991,5,8
176,192,137491,1,0
312,192,137823,1,8
248,72,138156,6,0,B|160:72,4,70,0|0|0|8|0
392,72,139154,1,8
320,192,139487,5,0
256,320,139820,1,0
192,192,140153,1,0
256,72,140486,1,8
392,64,140818,6,0,B|392:144,4,70,0|0|0|8|0
392,208,141817,1,8
256,248,142149,6,0,B|256:96,1,140
112,112,142815,2,0,B|112:264,1,140,0|8
256,248,143481,6,0,B|256:328,4,70,0|0|0|8|0
256,104,144479,1,8
80,112,144812,6,2,B|96:168|48:200|80:272,1,140,0|2
144,248,145311,1,0
144,248,145477,1,0
144,248,145644,1,0
216,248,145810,1,8
216,104,146143,6,0,B|216:184,4,70,0|0|0|8|0
360,104,147141,2,0,B|424:104|448:120|488:224,1,140,8|4
360,104,147807,6,8,B|256:64|168:64|64:104,1,280
216,152,148805,6,0,B|216:232,4,70,0|0|0|8|0
216,296,149803,1,8
472,192,150469,6,8,B|424:96|352:56|208:64,1,280
104,72,151467,2,0,B|104:240,1,140
104,280,151966,1,8
176,280,152133,2,0,B|272:160,1,140,0|8
416,96,153131,5,0
416,96,153297,1,0
416,96,153464,1,0
272,96,153797,1,8
168,192,154129,2,0,B|72:192,1,70
96,120,154462,2,0,B|168:120,2,70,0|8|0
240,120,155128,1,4
240,264,155461,6,0,B|336:144,1,140
288,304,156126,1,0
368,192,156459,1,8
368,48,156792,6,0,B|208:48,1,140
160,48,157291,1,8
88,48,157457,1,0
120,184,157790,1,8
256,192,158123,5,4
432,192,158465,6,0,C|384:128|384:48,1,140,4|2
208,48,159263,2,0,C|208:128|160:192,1,140,0|8
336,256,160062,1,0
256,304,160262,1,0
176,256,160461,1,0
192,80,160861,2,0,C|258:59|336:88,2,140,0|8|4
256,144,161859,6,0,C|256:224,1,70,0|2
80,192,162458,2,0,C|32:192,2,35
144,128,162857,2,0,C|160:96|208:80,1,70,8|0
288,64,163257,2,0,C|336:80|352:64,1,70,4|0
400,144,163656,2,0,C|416:192|480:256,2,140
320,176,164654,2,0,C|256:192,2,35,0|0|8
320,272,165054,5,0
240,304,165253,2,0,C|176:320|96:256,1,140,2|0
176,96,166052,1,8
208,176,166252,2,0,C|224:208,2,35,0|0|0
288,144,166651,2,0,C|320:128,2,35
320,224,167050,2,0,C|352:272,2,35
400,192,167450,2,0,C|448:160,1,35
480,304,167849,6,0,C|464:336,2,35,2|0|0
384,304,168248,2,0,C|352:336|320:336,1,70,2|0
240,320,168648,2,0,C|208:320|160:288,1,70,2|0
80,288,169047,2,0,C|64:272|80:256,1,35,2|0
160,160,169446,1,0
240,112,169646,1,4
256,192,169846,12,4,171243
176,128,171643,5,0
352,144,172042,1,4
288,320,172441,1,0
112,304,172841,2,0,C|80:272|80:224,1,70,4|0
176,240,173240,2,0,C|224:224|224:176,1,70
320,192,173639,2,0,C|352:224|400:224,1,70,4|0
464,192,174039,2,0,C|464:144,4,35,0|0|0|0|4
320,96,174837,5,0
160,176,175237,1,8
160,176,175436,1,0
160,176,175636,1,8
160,176,175836,1,0
160,176,176035,5,4
256,336,176435,1,0
416,256,176834,1,8
416,256,177034,1,0
416,256,177233,1,8
416,256,177433,2,0,C|416:320,2,35,0|8|0
208,80,178232,5,0
112,80,178431,1,8
64,160,178631,1,0
64,256,178831,2,0,C|64:304|96:320,1,70,0|0
176,320,179230,2,0,C|244:336|320:320,1,140,4|0
464,224,180029,2,0,C|432:160|368:112,1,140,4|0
256,256,180827,5,4
112,144,181227,1,0
288,96,181626,1,8
288,96,181826,1,0
288,96,182025,1,8
288,96,182225,1,0
288,96,182425,6,0,C|368:96,1,70,4|0
432,144,182824,2,0,C|432:224,1,70
416,304,183223,2,0,C|336:304,1,70,4|0
256,272,183623,2,0,C|176:272,1,70,4|0
424,64,184380,6,0,B|288:0|144:56,1,280,4|4
80,352,185711,1,0
200,216,186043,1,0
80,72,186376,1,4
392,264,191892,5,0
392,264,192059,2,0,B|344:320|344:320|192:320,1,210
104,312,193390,1,0
56,216,193723,1,0
112,128,194056,2,0,B|160:184|160:184|312:184,2,210
56,216,196385,6,0,B|56:304,1,70
144,344,197051,1,2
232,280,197383,6,0,B|336:280,1,70
408,280,198049,1,0
368,184,198382,2,0,B|344:144|344:144|248:144,1,140
144,144,199380,1,0
48,272,199713,2,0,B|48:192,1,70,2|0
168,352,200378,6,0,B|168:272,1,70
256,224,201044,1,0
256,224,201210,1,0
392,304,201709,1,0
392,304,201876,2,0,B|424:192,1,105,0|2
456,64,202708,6,0,B|368:64,2,70,6|0|8
344,152,203373,2,0,B|256:152,2,70,2|0|8
392,304,204039,2,0,B|472:304,2,70,0|2|8
344,248,204538,2,0,B|272:248|272:248|208:272|208:272|136:272,1,210,2|8
48,88,205370,6,0,B|48:232,1,140,2|8
176,16,206036,2,0,B|176:160,1,140,2|8
248,280,206701,2,0,B|320:280|320:280|384:304|384:304|456:304,1,210,2|2
456,160,207533,2,0,B|456:80,2,70,2|10|0
416,216,208032,5,4
296,136,208365,2,0,B|152:136,1,140,8|2
16,136,209031,1,10
80,264,209363,2,0,B|232:264,1,140,0|8
220,264,209863,1,2
416,336,210362,5,10
280,368,210694,2,0,B|200:368,2,70,0|0|10
352,248,211360,2,0,B|352:176,2,70,0|0|10
216,280,212026,2,0,B|216:208|216:208|160:160|160:160|160:80,1,210,0|2
40,168,212858,1,2
40,168,213024,1,8
120,280,213357,6,0,B|408:280,1,280,4|0
432,216,214189,1,0
432,216,214355,1,8
344,104,214688,2,0,B|344:32,2,70,0|0|8
216,160,215353,2,0,B|216:208|216:208|240:232|240:232|240:312,1,140,0|8
240,290,215853,1,2
104,256,216185,6,0,B|32:256,2,70,0|10|0
136,192,216684,2,0,B|208:192,3,70,2|2|8|0
344,192,217516,1,2
448,288,217849,1,2
448,288,218016,2,0,B|392:368|392:368|176:368,1,280,2|4
64,96,219762,6,0,B|96:128|192:128,1,105,0|4
272,32,220318,2,0,B|320:80|320:144,1,105,8|0
320,208,220817,1,0
320,208,221017,1,2
272,288,221217,2,0,B|240:336|192:336,1,70,8|0
128,336,221616,2,0,B|128:304|128:304|96:288|96:288|160:272|160:272|64:240|64:240|192:224|192:224,1,350,0|2
224,144,222814,6,0,B|144:112,2,70,8|0|0
272,224,223413,1,0
320,144,223613,2,0,B|400:176,1,70,8|2
352,256,224012,2,0,B|320:320|320:320|224:320,1,140,0|8
176,256,224611,5,2
176,160,224811,2,0,B|176:112|224:112,1,70
256,192,225210,1,8
288,272,225410,2,0,B|336:272|336:224,1,70,2|0
256,192,225809,5,10
256,192,226009,1,10
416,96,226408,6,0,B|464:144|464:240,1,140,4|8
432,320,227007,1,2
352,368,227207,1,0
256,368,227406,1,2
160,352,227606,2,0,B|112:304|112:208,1,140,8|0
128,128,228205,1,0
176,48,228405,2,0,B|208:32|256:32,1,70,8|2
336,32,228804,5,0
336,32,229004,1,2
416,96,229203,1,8
464,176,229403,2,0,B|448:192|416:192,1,35
256,344,230002,6,0,B|224:384|192:352|192:352|160:392|128:320,1,140,8|0
152,256,230601,1,0
240,256,230801,1,8
195,176,231000,1,0
294,174,231200,5,4
313,79,231400,1,4
235,31,231599,1,12
161,89,231799,1,4
195,176,231999,1,4
240,256,232198,6,0,B|240:304|208:320,1,70,0|8
240,256,232598,6,0,B|240:304|272:320,1,70,0|4
480,144,233396,1,0
432,64,233596,1,0
256,32,233995,2,0,B|176:32|128:80,1,105,8|2
80,112,234494,2,0,B|56:134|56:160,3,35,0|0|0|8
32,224,234994,2,0,B|32:272|64:304,1,70
224,368,235593,2,0,B|272:384|304:352,2,70,8|0|4
80,112,236591,6,0,B|96:80|96:80|144:96,1,70
224,240,237190,2,0,B|256:288|256:288|320:240,1,105,8|2
368,192,237689,2,0,B|384:176|384:176|384:144,6,35,0|0|0|8|0|0|0
384,80,238488,2,0,B|352:48,1,35
272,32,238787,2,0,B|256:48|256:48|256:80,4,35,8|0|0|0|4
48,192,239786,6,0,B|48:240|96:240,1,70
272,288,240385,2,0,B|352:288|352:224,1,105,8|2
288,176,240884,2,0,B|256:176|256:208,3,35,0|0|0|8
176,144,241383,2,0,B|192:96|256:96,1,70
400,32,241982,2,0,B|448:47|447:112,1,70,8|0
400,160,242381,6,0,B|400:64|288:64,1,140,4|8
304,160,242980,2,0,B|240:224,1,70
160,368,243579,2,0,B|96:352|96:288,1,105,8|2
80,160,244178,6,0,B|80:128|112:128,2,35,0|0|8
144,224,244578,2,0,B|192:208,1,35
240,336,244977,2,0,B|240:304|210:304,5,35,0|0|8|0|0|0
160,144,245975,5,0
296,192,246375,1,0
192,280,246774,2,0,C|120:312,1,70,0|4
128,308,247173,1,0
264,272,247573,1,8
264,272,247772,1,8
392,216,248172,1,0
336,168,248371,1,8
112,64,248771,6,0,B|88:96|88:136|112:192|144:208,1,140
48,264,249469,2,0,C|64:296|112:304,1,70,0|2
184,272,249869,2,0,B|240:216|232:160,1,105,0|2
232,181,250368,2,0,B|312:216|384:176,1,140
368,183,250967,1,2
368,183,251167,1,4
368,183,251366,1,2
128,104,251965,6,0,B|160:64|192:64|232:88|240:120,1,140
240,192,252564,1,0
312,192,252764,1,2
144,224,253163,2,0,B|176:264|192:296|184:320|144:352,3,140,0|10|8|10
104,144,254761,1,0
160,96,254960,2,0,B|312:96,1,140,0|2
480,80,255759,2,0,B|504:112|504:152|496:176,1,70,0|2
472,312,256358,1,0
304,328,256757,6,0,B|288:280|304:256|312:224|280:192,1,140
216,168,257356,1,4
32,40,257955,1,0
88,88,258355,6,0,B|64:152|80:192|112:232,1,140,0|2
105,220,259553,1,4
176,224,259952,2,0,B|208:184|200:160|160:96,1,140
176,32,261150,1,8
224,128,261549,6,0,B|256:200,1,70
296,288,262348,1,2
376,240,262647,2,0,C|384:296,2,46.6666666666667,8|0|8
440,200,263446,2,0,C|448:256,2,46.6666666666667,8|0|8
280,96,264345,1,0
480,120,264744,5,0
400,232,265143,2,0,C|352:256|312:256|272:240|248:224,1,140,2|0
304,104,265942,2,0,C|304:208,2,70,2|0|0
224,216,266741,1,2
304,320,267140,1,2
288,176,267539,6,0,C|408:96,1,140
408,240,268338,1,2
304,336,268737,1,0
192,248,269137,1,2
192,248,269336,1,0
192,248,269536,1,0
264,128,269935,6,2,C|288:88|328:80,1,70
309,81,270335,1,0
416,248,270734,1,4
276,337,271133,6,0,B|215:281|195:388|140:323|140:323|142:324,1,140,0|8
16,160,272132,1,2
72,120,272331,1,8
128,160,272531,1,0
128,232,272731,6,0,B|192:296|272:224,1,140,4|4
320,112,273529,2,0,B|384:56|464:120,1,140,0|0
480,248,274328,5,8
432,296,274528,1,0
376,344,274727,2,0,B|224:344,1,140,4|0
96,336,275526,2,2,B|40:288|72:192|72:192,1,140,2|0
184,240,276325,5,8
280,184,276724,2,0,B|312:112|248:48|224:40|224:40,1,168
145,38,277523,6,0,B|41:33|27:131|27:131,2,140,4|8|0
232,128,278721,1,2
200,216,279020,2,0,B|280:288|384:216|384:216,1,175,4|8
456,144,279919,1,0
503,185,280118,1,2
509,247,280318,2,0,B|501:327|413:343,1,140,0|4
319,266,281117,6,0,B|226:302|211:368,2,140,2|8|0
440,176,282315,6,0,B|288:176|288:176,1,140,4|4
112,176,283313,1,8
112,176,283513,1,8
16,272,283912,6,0,L|16:352|104:352|104:352,2,140,4|0|0
16,144,285110,1,8
88,88,285410,2,0,L|144:40|248:40|248:40,1,175,4|0
368,40,286308,1,0
496,40,286707,1,8
440,168,287107,1,4
304,176,287506,6,0,L|304:154|208:154|208:192|208:192,2,140,2|8|0
368,288,288704,5,4
256,352,289103,1,0
144,288,289503,2,0,L|32:288|32:288,2,105,0|0|2
208,288,290301,5,4
312,224,290701,1,8
336,104,291100,2,0,B|376:48|432:64|432:64,2,105,2|4|0
288,144,291899,2,0,B|216:192|144:144|144:144,1,140,0|8
78,49,292697,1,0
32,92,292897,1,2
22,154,293097,1,0
41,293,293496,6,0,B|89:349|185:325|185:325,1,140,4|2
191,203,294295,2,0,B|255:163|327:203|327:203,2,140,0|0|4
296,280,295493,5,8
397,364,295892,2,0,B|101:364|101:364,1,280,0|4
32,264,297090,5,0
32,136,297489,2,0,L|32:88|80:88|80:32|80:32,2,140,0|8|4
160,144,298687,1,0
200,264,299087,2,0,L|256:304|324:258|324:258,2,140,0|8|4
118,167,300285,5,2
201,72,300684,2,0,B|330:71|330:71,2,105
137,74,301483,5,8
176,192,301882,1,8
256,224,302082,1,8
336,192,302281,2,0,B|400:248|400:320|328:376,1,210,4|0
112,48,316102,6,0,B|56:200,1,140,4|0
192,168,316767,2,0,B|120:336,1,140,8|0
280,312,317433,2,0,B|392:384|488:248|400:160,1,280,0|8
224,88,318597,6,0,B|152:120|120:176|112:312,1,210,4|0
256,288,319429,1,8
296,88,319929,2,0,B|368:120|400:176|408:312,1,210
256,288,320761,1,8
256,144,321093,1,0
384,80,321426,6,0,B|296:16|208:16|104:96,2,280,4|8|0
320,208,323090,6,0,B|256:256|176:200,1,140,0|8
352,192,324088,6,0,B|416:232|384:328,2,140,0|0|2
160,192,325419,6,0,B|96:152|128:56,2,140,0|0|2
256,192,326418,1,0
256,192,326584,1,4
424,64,327083,6,0,B|360:88|344:32|240:80,1,140,0|8
152,112,327749,1,0
40,32,328082,2,0,B|0:160|88:248|208:240,1,280,0|8
304,272,329080,5,0
360,144,329413,2,0,B|368:80|328:40|224:80,1,140,4|0
232,200,330078,2,0,B|179:217|139:185|147:121,1,140,8|0
256,32,330744,6,0,B|336:152|144:208|288:328,1,280,0|8
464,312,331909,5,0
464,312,332075,2,0,B|408:216|312:240|240:120,1,280,4|8
120,96,333073,1,0
104,232,333406,2,0,B|136:328|200:360|352:352,1,280,0|8
424,248,334404,5,0
424,248,334571,2,0,B|520:144|368:-40|216:136,1,350,4|8
88,248,335736,5,0
88,248,335902,2,0,B|-8:144|144:-40|296:136,1,350,0|8
256,240,337067,1,0
187,41,337566,6,0,B|91:89,2,70,0|0|4
323,81,338231,2,0,B|419:33,2,70,0|0|4
256,208,338897,2,0,B|256:296,3,70,0|0|0|4
256,278,339729,1,0
256,72,340228,5,0
256,72,340394,1,0
150,164,340727,2,0,B|182:268|345:268|358:148,1,280
181,42,341892,1,0
328,40,342225,1,0
292,319,342890,6,0,B|212:319,1,70,0|0
198,180,343389,2,0,B|230:132|302:132|340:216,1,140,8|0
384,56,344055,2,0,B|312:-8|184:-8|96:80,1,280,0|8
256,112,345053,1,0
256,192,345386,12,4,347383
160,112,348048,5,4
256,48,348381,1,8
352,112,348714,1,2
380,272,349379,2,0,B|256:386|132:272,1,280,4|2
385,96,350711,6,0,B|320:296|192:296|127:96,1,420,4|0
190,38,352042,2,0,B|256:272|322:38,2,280,4|2|4
256,248,354038,5,6
336,48,354704,1,8
256,128,355037,1,0
176,48,355370,1,12
256,309,356035,6,0,B|376:192|136:192|256:75,1,280,2|4
380,200,357366,2,0,B|256:314|132:200,1,280,2|8
396,112,358697,6,0,B|108:112,2,280,4|0|2
256,192,360694,1,4
100,232,361193,6,0,B|256:372|412:232,1,350,2|0
476,116,362358,1,0
352,86,362691,2,0,B|256:10|160:86,2,210,4|0|0
384,192,364022,6,2,B|256:134|256:134|128:192,1,280
256,240,365020,1,0
160,304,365353,2,0,B|256:347|256:347|352:304,2,210,4|4|0
116,192,366684,6,2,B|404:192,1,280
456,104,367682,1,0
361,16,368015,2,4,B|144:16,1,210
56,104,368847,1,6
256,48,371509,5,2
256,48,371842,2,0,B|344:88|344:232,1,210,4|0
256,312,372674,2,0,B|128:240|160:56,2,280,8|2|2
256,312,374171,1,0
360,295,374504,6,0,B|448:295|448:295|480:295|480:263|480:263|480:192,1,210,4|0
326,192,375336,2,0,B|176:192,1,140,8|0
36,192,376002,2,4,B|36:120|36:120|36:88|68:88|68:88|156:88,1,210
326,192,377000,6,2,B|176:192,1,140,2|6
192,320,377666,2,0,B|336:320,1,140,0|8
256,192,378331,2,0,B|256:48,2,140,0|12|0
256,192,379246,1,4
72,192,386404,6,0,B|72:32,2,140,0|0|8
200,192,387602,1,0
200,192,387802,1,8
200,192,388001,2,0,B|200:40,2,140,0|0|8
328,192,389199,1,8
328,192,389399,1,0
392,192,389599,5,0
368,248,389798,1,0
312,280,389998,1,0
184,280,390397,1,0
184,280,390797,1,8
96,192,391196,1,0
120,136,391396,1,0
176,104,391595,1,0
304,104,391995,1,0
304,104,392394,1,8
400,192,392793,6,0,B|400:288,2,70,8|0|8
272,192,393592,2,0,B|184:192,2,70,0|0|8
272,64,394391,2,0,B|368:64,2,70,0|8|0
144,64,395189,2,0,B|144:144,2,70,8|8|0
48,152,395988,5,0
56,216,396188,1,2
104,256,396387,1,0
168,272,396587,1,2
232,272,396787,1,0
296,256,396986,1,2
344,216,397186,1,0
360,152,397386,1,2
256,80,397785,1,0
256,80,397985,1,0
256,80,398384,1,4
32,200,399183,6,2,B|248:16|400:280,1,420
256,280,400780,1,8
192,280,400980,1,8
192,216,401179,1,0
256,216,401379,1,0
256,152,401579,1,8
192,152,401778,1,8
192,88,401978,1,0
320,88,402377,6,2,B|496:336|136:344,1,420
96,240,403975,1,0
160,240,404174,1,0
160,176,404374,1,8
96,176,404574,1,8
96,112,404773,1,0
160,112,404973,1,0
160,48,405173,1,8
288,48,405572,5,0
344,72,405772,1,0
384,120,405971,1,0
408,176,406171,1,0
416,240,406371,1,0
328,336,406770,1,4
200,344,407169,5,2
152,304,407369,1,2
136,240,407569,1,2
144,176,407768,1,2
168,120,407968,1,2
296,104,408367,1,6
256,192,408767,12,4,411163
64,64,411762,5,0
64,160,411961,2,0,B|144:144|160:48,1,140,4|8
240,32,412560,1,0
320,80,412760,2,2,B|368:96|432:80,2,105,2|2|0
272,160,413559,5,8
320,240,413758,1,0
464,128,414158,1,4
496,304,414757,6,2,B|448:352|304:352|256:240|256:240|208:352|64:352|16:304,1,560,6|2
128,240,416753,5,8
384,240,417352,1,4
96,80,417951,5,0
64,184,418351,1,8
168,216,418750,1,0
208,112,419149,1,12
368,64,419748,5,0
368,64,419948,2,0,B|464:128|416:256,1,210,8|4
328,320,420946,1,0
328,320,421146,1,0
328,320,421346,1,8
192,344,421745,6,2,B|104:264,2,105
264,264,422743,1,0
256,152,423143,1,8
360,192,423542,1,0
344,80,423941,1,4
80,56,424341,6,0,B|176:56|72:144|192:144,1,140,0|12
40,288,425339,1,2
40,288,425539,1,4
288,328,426337,5,8
416,352,426737,1,4
376,232,427136,1,2
440,72,427535,6,0,B|272:40|256:152|216:256|56:176,1,420,0|12
136,80,429133,6,2,B|232:160|232:336,1,280
288,360,430131,1,12
424,336,430530,1,2
448,280,430730,5,0
416,224,430930,1,2
440,168,431129,1,12
416,40,431529,2,0,B|352:104,1,70
320,48,431928,2,0,B|264:104,1,70,12|0
80,104,432527,5,0
80,104,432727,1,8
40,224,433126,1,0
40,224,433326,1,12
104,328,433725,6,2,B|240:344|136:256|304:264,1,210
344,288,434524,2,0,B|432:288|432:192,1,140
432,136,435123,1,12
352,40,435522,5,0
352,40,435722,1,8
232,80,436121,1,8
120,128,436520,1,0
120,128,436720,1,12
120,128,436920,1,0
256,264,437519,5,0
