osu file format v14

[General]
AudioFilename: The 4th ft.Yukacco - As One.mp3
AudioLeadIn: 0
PreviewTime: 132757
Countdown: 0
SampleSet: Normal
StackLeniency: 0.7
Mode: 1
LetterboxInBreaks: 0
WidescreenStoryboard: 0

[Editor]
DistanceSpacing: 1.2
BeatDivisor: 4
GridSize: 32
TimelineZoom: 2.1

[Metadata]
Title:As One feat.Yukacco (Original Mix)
TitleUnicode:As One feat.Yukacco (Original Mix)
Artist:The 4th
ArtistUnicode:The 4th
Creator:game rock
Version:Together
Source:
Tags:The 4th EP Happy Hardcore Kors k Ryu☆ Electronic Dance Music
BeatmapID:1247509
BeatmapSetID:589353

[Difficulty]
HPDrainRate:5
CircleSize:2
OverallDifficulty:6
ApproachRate:5
SliderMultiplier:1.4
SliderTickRate:1

[Events]
//Background and Video events
0,0,"BG1.jpg",0,70
//Break Periods
//Storyboard Layer 0 (Background)
//Storyboard Layer 1 (Fail)
//Storyboard Layer 2 (Pass)
//Storyboard Layer 3 (Foreground)
//Storyboard Sound Samples

[TimingPoints]
1100,342.857142857143,4,1,0,80,1,0
44985,-100,4,1,0,80,0,1
64185,-100,4,1,0,80,0,0
66928,-133.333333333333,4,1,0,80,0,0
110814,-100,4,1,0,80,0,0
132757,-100,4,1,0,80,0,1
153328,-100,4,1,0,80,0,0
154700,-100,4,1,0,80,0,1
176642,-100,4,1,0,80,0,0
198585,-100,4,1,0,80,0,1
220528,-133.333333333333,4,1,0,80,0,0
231500,-100,4,1,0,80,0,0
243842,-100,4,1,0,80,0,1
264414,-100,4,1,0,80,0,0
265785,-100,4,1,0,80,0,1
284985,-100,4,1,0,80,0,0
331957,-100,4,1,0,75,0,0
332300,-100,4,1,0,70,0,0
332642,-100,4,1,0,65,0,0
332985,-100,4,1,0,60,0,0
333328,-100,4,1,0,55,0,0
333671,-100,4,1,0,50,0,0
334014,-100,4,1,0,45,0,0
334357,-100,4,1,0,40,0,0

[HitObjects]
256,192,1100,5,4,0:0:0:0:
256,192,1442,1,0,0:0:0:0:
256,192,1785,1,0,0:0:0:0:
256,192,2128,1,0,0:0:0:0:
256,192,2471,1,0,0:0:0:0:
256,192,2642,1,8,0:0:0:0:
256,192,2814,1,0,0:0:0:0:
256,192,2985,1,8,0:0:0:0:
256,192,3157,1,0,0:0:0:0:
256,192,3500,1,0,0:0:0:0:
256,192,3671,1,8,0:0:0:0:
256,192,3842,1,0,0:0:0:0:
256,192,4185,1,0,0:0:0:0:
256,192,4528,1,0,0:0:0:0:
256,192,4871,1,0,0:0:0:0:
256,192,5214,1,0,0:0:0:0:
256,192,5385,1,8,0:0:0:0:
256,192,5728,1,8,0:0:0:0:
256,192,6071,1,8,0:0:0:0:
256,192,6242,1,0,0:0:0:0:
256,192,6585,1,4,0:0:0:0:
256,192,6928,1,0,0:0:0:0:
256,192,7271,1,0,0:0:0:0:
256,192,7614,1,0,0:0:0:0:
256,192,7957,1,0,0:0:0:0:
256,192,8128,1,8,0:0:0:0:
256,192,8300,1,0,0:0:0:0:
256,192,8471,1,8,0:0:0:0:
256,192,8642,1,0,0:0:0:0:
256,192,8985,1,0,0:0:0:0:
256,192,9157,1,8,0:0:0:0:
256,192,9328,1,0,0:0:0:0:
256,192,9671,1,0,0:0:0:0:
256,192,10014,1,0,0:0:0:0:
256,192,10357,1,0,0:0:0:0:
256,192,10700,1,0,0:0:0:0:
256,192,10871,1,0,0:0:0:0:
256,192,11042,1,0,0:0:0:0:
256,192,11214,1,8,0:0:0:0:
256,192,11385,1,0,0:0:0:0:
256,192,11557,1,8,0:0:0:0:
256,192,11728,1,8,0:0:0:0:
256,192,11814,1,8,0:0:0:0:
256,192,11900,1,0,0:0:0:0:
256,192,12071,1,4,0:0:0:0:
256,192,12414,1,0,0:0:0:0:
256,192,12757,1,0,0:0:0:0:
256,192,13100,1,0,0:0:0:0:
256,192,13442,1,0,0:0:0:0:
256,192,13614,1,8,0:0:0:0:
256,192,13785,1,0,0:0:0:0:
256,192,13957,1,8,0:0:0:0:
256,192,14128,1,0,0:0:0:0:
256,192,14471,1,0,0:0:0:0:
256,192,14642,1,8,0:0:0:0:
256,192,14814,1,0,0:0:0:0:
256,192,15157,1,0,0:0:0:0:
256,192,15500,1,0,0:0:0:0:
256,192,15842,1,0,0:0:0:0:
256,192,16185,1,0,0:0:0:0:
256,192,16357,1,8,0:0:0:0:
256,192,16700,1,8,0:0:0:0:
256,192,17042,1,8,0:0:0:0:
256,192,17214,1,0,0:0:0:0:
256,192,17385,1,8,0:0:0:0:
256,192,17471,1,8,0:0:0:0:
256,192,17557,1,0,0:0:0:0:
256,192,17900,1,8,0:0:0:0:
256,192,18242,1,8,0:0:0:0:
256,192,18585,1,8,0:0:0:0:
256,192,18757,1,8,0:0:0:0:
256,192,18842,1,8,0:0:0:0:
256,192,18928,1,0,0:0:0:0:
256,192,19100,1,8,0:0:0:0:
256,192,19271,1,0,0:0:0:0:
256,192,19442,1,8,0:0:0:0:
256,192,19528,1,8,0:0:0:0:
256,192,19614,1,0,0:0:0:0:
256,192,19785,1,8,0:0:0:0:
256,192,19957,1,0,0:0:0:0:
256,192,20128,1,8,0:0:0:0:
256,192,20214,1,8,0:0:0:0:
256,192,20300,1,8,0:0:0:0:
256,192,20385,1,0,0:0:0:0:
256,192,20471,1,0,0:0:0:0:
256,192,20557,1,0,0:0:0:0:
256,192,20642,1,8,0:0:0:0:
256,192,20728,1,0,0:0:0:0:
256,192,20814,1,0,0:0:0:0:
256,192,20900,1,0,0:0:0:0:
256,192,20985,1,8,0:0:0:0:
256,192,21071,1,0,0:0:0:0:
256,192,21157,1,8,0:0:0:0:
256,192,21242,1,8,0:0:0:0:
256,192,21328,1,0,0:0:0:0:
256,192,21414,1,0,0:0:0:0:
256,192,21500,1,8,0:0:0:0:
256,192,21585,1,0,0:0:0:0:
256,192,21671,1,8,0:0:0:0:
256,192,21842,1,0,0:0:0:0:
256,192,22014,1,8,0:0:0:0:
256,192,22185,1,8,0:0:0:0:
256,192,22357,1,0,0:0:0:0:
256,192,22528,1,8,0:0:0:0:
256,192,22700,1,4,0:0:0:0:
256,192,23042,1,12,0:0:0:0:
256,192,23214,1,0,0:0:0:0:
256,192,23385,1,8,0:0:0:0:
256,192,23471,1,0,0:0:0:0:
256,192,23557,1,8,0:0:0:0:
256,192,23642,1,0,0:0:0:0:
256,192,23728,1,0,0:0:0:0:
256,192,23900,1,8,0:0:0:0:
256,192,23985,1,8,0:0:0:0:
256,192,24071,1,8,0:0:0:0:
256,192,24242,1,0,0:0:0:0:
256,192,24328,1,0,0:0:0:0:
256,192,24414,1,8,0:0:0:0:
256,192,24585,1,0,0:0:0:0:
256,192,24757,1,8,0:0:0:0:
256,192,24842,1,8,0:0:0:0:
256,192,24928,1,0,0:0:0:0:
256,192,25014,1,0,0:0:0:0:
256,192,25100,1,8,0:0:0:0:
256,192,25271,1,0,0:0:0:0:
256,192,25442,1,8,0:0:0:0:
256,192,25614,1,8,0:0:0:0:
256,192,25700,1,8,0:0:0:0:
256,192,25785,1,0,0:0:0:0:
256,192,25957,1,0,0:0:0:0:
256,192,26128,1,8,0:0:0:0:
256,192,26214,1,8,0:0:0:0:
256,192,26300,1,0,0:0:0:0:
256,192,26385,1,0,0:0:0:0:
256,192,26471,1,8,0:0:0:0:
256,192,26642,1,0,0:0:0:0:
256,192,26728,1,8,0:0:0:0:
256,192,26900,1,0,0:0:0:0:
256,192,26985,1,8,0:0:0:0:
256,192,27071,1,0,0:0:0:0:
256,192,27157,1,8,0:0:0:0:
256,192,27328,1,0,0:0:0:0:
256,192,27414,1,0,0:0:0:0:
256,192,27500,1,8,0:0:0:0:
256,192,27585,1,0,0:0:0:0:
256,192,27671,1,8,0:0:0:0:
256,192,27842,1,8,0:0:0:0:
256,192,27928,1,0,0:0:0:0:
256,192,28014,1,0,0:0:0:0:
256,192,28100,1,0,0:0:0:0:
256,192,28185,1,8,0:0:0:0:
256,192,28357,1,8,0:0:0:0:
256,192,28442,1,8,0:0:0:0:
256,192,28528,1,0,0:0:0:0:
256,192,28700,1,8,0:0:0:0:
256,192,28871,1,0,0:0:0:0:
256,192,28957,1,0,0:0:0:0:
256,192,29042,1,8,0:0:0:0:
256,192,29128,1,8,0:0:0:0:
256,192,29214,1,0,0:0:0:0:
256,192,29385,1,8,0:0:0:0:
256,192,29557,1,0,0:0:0:0:
256,192,29642,1,0,0:0:0:0:
256,192,29728,1,8,0:0:0:0:
256,192,29814,1,0,0:0:0:0:
256,192,29900,1,0,0:0:0:0:
256,192,30071,1,8,0:0:0:0:
256,192,30242,1,0,0:0:0:0:
256,192,30328,1,0,0:0:0:0:
256,192,30414,1,8,0:0:0:0:
256,192,30585,1,0,0:0:0:0:
256,192,30757,1,8,0:0:0:0:
256,192,30842,1,8,0:0:0:0:
256,192,30928,1,0,0:0:0:0:
256,192,31100,1,0,0:0:0:0:
256,192,31185,1,0,0:0:0:0:
256,192,31271,1,8,0:0:0:0:
256,192,31442,1,0,0:0:0:0:
256,192,31614,1,8,0:0:0:0:
256,192,31700,1,8,0:0:0:0:
256,192,31785,1,0,0:0:0:0:
256,192,31871,1,8,0:0:0:0:
256,192,31957,1,0,0:0:0:0:
256,192,32128,1,8,0:0:0:0:
256,192,32300,1,0,0:0:0:0:
256,192,32385,1,0,0:0:0:0:
256,192,32471,1,8,0:0:0:0:
256,192,32557,1,0,0:0:0:0:
256,192,32642,1,8,0:0:0:0:
256,192,32814,1,0,0:0:0:0:
256,192,32985,1,8,0:0:0:0:
256,192,33157,1,0,0:0:0:0:
256,192,33242,1,0,0:0:0:0:
256,192,33328,1,8,0:0:0:0:
256,192,33500,1,0,0:0:0:0:
256,192,33842,1,0,0:0:0:0:
256,192,34014,1,12,0:0:0:0:
256,192,34185,1,0,0:0:0:0:
256,192,34357,1,8,0:0:0:0:
256,192,34442,1,0,0:0:0:0:
256,192,34528,1,8,0:0:0:0:
256,192,34614,1,0,0:0:0:0:
256,192,34700,1,0,0:0:0:0:
256,192,34871,1,8,0:0:0:0:
256,192,34957,1,8,0:0:0:0:
256,192,35042,1,8,0:0:0:0:
256,192,35214,1,0,0:0:0:0:
256,192,35300,1,0,0:0:0:0:
256,192,35385,1,8,0:0:0:0:
256,192,35557,1,0,0:0:0:0:
256,192,35728,1,8,0:0:0:0:
256,192,35814,1,8,0:0:0:0:
256,192,35900,1,0,0:0:0:0:
256,192,35985,1,0,0:0:0:0:
256,192,36071,1,8,0:0:0:0:
256,192,36242,1,0,0:0:0:0:
256,192,36414,1,8,0:0:0:0:
256,192,36585,1,8,0:0:0:0:
256,192,36671,1,8,0:0:0:0:
256,192,36757,1,0,0:0:0:0:
256,192,36928,1,0,0:0:0:0:
256,192,37100,1,8,0:0:0:0:
256,192,37185,1,8,0:0:0:0:
256,192,37271,1,0,0:0:0:0:
256,192,37357,1,0,0:0:0:0:
256,192,37442,1,8,0:0:0:0:
256,192,37614,1,0,0:0:0:0:
256,192,37700,1,8,0:0:0:0:
256,192,37871,1,0,0:0:0:0:
256,192,37957,1,8,0:0:0:0:
256,192,38042,1,0,0:0:0:0:
256,192,38128,1,8,0:0:0:0:
256,192,38300,1,0,0:0:0:0:
256,192,38385,1,0,0:0:0:0:
256,192,38471,1,8,0:0:0:0:
256,192,38557,1,0,0:0:0:0:
256,192,38642,1,8,0:0:0:0:
256,192,38814,1,8,0:0:0:0:
256,192,38900,1,0,0:0:0:0:
256,192,38985,1,0,0:0:0:0:
256,192,39071,1,0,0:0:0:0:
256,192,39157,1,8,0:0:0:0:
256,192,39328,1,8,0:0:0:0:
256,192,39414,1,8,0:0:0:0:
256,192,39500,1,0,0:0:0:0:
256,192,39671,1,8,0:0:0:0:
256,192,39842,1,8,0:0:0:0:
256,192,40014,1,8,0:0:0:0:
256,192,40100,1,8,0:0:0:0:
256,192,40185,1,0,0:0:0:0:
256,192,40357,1,8,0:0:0:0:
256,192,40528,1,8,0:0:0:0:
256,192,40700,1,8,0:0:0:0:
256,192,40785,1,8,0:0:0:0:
256,192,40871,1,0,0:0:0:0:
256,192,41042,1,8,0:0:0:0:
256,192,41214,1,8,0:0:0:0:
256,192,41385,1,8,0:0:0:0:
256,192,41471,1,8,0:0:0:0:
256,192,41557,1,0,0:0:0:0:
256,192,41728,1,8,0:0:0:0:
256,192,41900,1,8,0:0:0:0:
256,192,42071,1,8,0:0:0:0:
256,192,42157,1,0,0:0:0:0:
256,192,42242,1,8,0:0:0:0:
256,192,42328,1,0,0:0:0:0:
256,192,42414,1,0,0:0:0:0:
256,192,42500,1,8,0:0:0:0:
256,192,42585,1,0,0:0:0:0:
256,192,42671,1,0,0:0:0:0:
256,192,42757,1,8,0:0:0:0:
256,192,42842,1,0,0:0:0:0:
256,192,42928,1,8,0:0:0:0:
256,192,43014,1,8,0:0:0:0:
256,192,43100,1,0,0:0:0:0:
256,192,43185,1,0,0:0:0:0:
256,192,43271,1,8,0:0:0:0:
256,192,43357,1,8,0:0:0:0:
256,192,43442,1,0,0:0:0:0:
256,192,43614,1,0,0:0:0:0:
256,192,43700,1,0,0:0:0:0:
256,192,43785,1,8,0:0:0:0:
256,192,43871,1,8,0:0:0:0:
256,192,43957,1,8,0:0:0:0:
256,192,44128,1,0,0:0:0:0:
256,192,44214,1,8,0:0:0:0:
256,192,44385,1,8,0:0:0:0:
256,192,44471,1,8,0:0:0:0:
256,192,44642,1,4,0:0:0:0:
256,192,44985,1,12,0:0:0:0:
256,192,45157,1,0,0:0:0:0:
256,192,45242,1,8,0:0:0:0:
256,192,45414,1,0,0:0:0:0:
256,192,45500,1,8,0:0:0:0:
256,192,45671,1,8,0:0:0:0:
256,192,45757,1,8,0:0:0:0:
256,192,45842,1,0,0:0:0:0:
256,192,46014,1,8,0:0:0:0:
256,192,46185,1,0,0:0:0:0:
256,192,46271,1,8,0:0:0:0:
256,192,46357,1,8,0:0:0:0:
256,192,46528,1,0,0:0:0:0:
256,192,46614,1,8,0:0:0:0:
256,192,46785,1,8,0:0:0:0:
256,192,46871,1,0,0:0:0:0:
256,192,47042,1,8,0:0:0:0:
256,192,47128,1,8,0:0:0:0:
256,192,47214,1,0,0:0:0:0:
256,192,47300,1,0,0:0:0:0:
256,192,47385,1,8,0:0:0:0:
256,192,47557,1,8,0:0:0:0:
256,192,47642,1,0,0:0:0:0:
256,192,47728,1,8,0:0:0:0:
256,192,47900,1,8,0:0:0:0:
256,192,47985,1,8,0:0:0:0:
256,192,48157,1,0,0:0:0:0:
256,192,48242,1,8,0:0:0:0:
256,192,48414,1,0,0:0:0:0:
256,192,48500,1,8,0:0:0:0:
256,192,48585,1,0,0:0:0:0:
256,192,48757,1,8,0:0:0:0:
256,192,48928,1,0,0:0:0:0:
256,192,49014,1,8,0:0:0:0:
256,192,49100,1,8,0:0:0:0:
256,192,49271,1,8,0:0:0:0:
256,192,49357,1,0,0:0:0:0:
256,192,49528,1,0,0:0:0:0:
256,192,49614,1,8,0:0:0:0:
256,192,49785,1,0,0:0:0:0:
256,192,49871,1,8,0:0:0:0:
256,192,49957,1,0,0:0:0:0:
256,192,50042,1,0,0:0:0:0:
256,192,50128,1,8,0:0:0:0:
256,192,50214,1,8,0:0:0:0:
256,192,50300,1,0,0:0:0:0:
256,192,50385,1,0,0:0:0:0:
256,192,50471,1,8,0:0:0:0:
256,192,50642,1,0,0:0:0:0:
256,192,50728,1,0,0:0:0:0:
256,192,50814,1,8,0:0:0:0:
256,192,50900,1,0,0:0:0:0:
256,192,50985,1,8,0:0:0:0:
256,192,51157,1,0,0:0:0:0:
256,192,51242,1,8,0:0:0:0:
256,192,51414,1,0,0:0:0:0:
256,192,51500,1,8,0:0:0:0:
256,192,51671,1,0,0:0:0:0:
256,192,51757,1,0,0:0:0:0:
256,192,51842,1,8,0:0:0:0:
256,192,52014,1,0,0:0:0:0:
256,192,52100,1,8,0:0:0:0:
256,192,52185,1,8,0:0:0:0:
256,192,52271,1,0,0:0:0:0:
256,192,52357,1,8,0:0:0:0:
256,192,52528,1,0,0:0:0:0:
256,192,52614,1,8,0:0:0:0:
256,192,52785,1,8,0:0:0:0:
256,192,52871,1,8,0:0:0:0:
256,192,53042,1,8,0:0:0:0:
256,192,53128,1,0,0:0:0:0:
256,192,53214,1,8,0:0:0:0:
256,192,53385,1,0,0:0:0:0:
256,192,53471,1,8,0:0:0:0:
256,192,53557,1,0,0:0:0:0:
256,192,53728,1,8,0:0:0:0:
256,192,53900,1,0,0:0:0:0:
256,192,53985,1,8,0:0:0:0:
256,192,54157,1,0,0:0:0:0:
256,192,54242,1,8,0:0:0:0:
256,192,54414,1,0,0:0:0:0:
256,192,54500,1,0,0:0:0:0:
256,192,54585,1,8,0:0:0:0:
256,192,54757,1,8,0:0:0:0:
256,192,54842,1,0,0:0:0:0:
256,192,55014,1,0,0:0:0:0:
256,192,55100,1,8,0:0:0:0:
256,192,55271,1,0,0:0:0:0:
256,192,55357,1,8,0:0:0:0:
256,192,55442,1,0,0:0:0:0:
256,192,55528,1,0,0:0:0:0:
256,192,55614,1,8,0:0:0:0:
256,192,55700,1,8,0:0:0:0:
256,192,55785,1,0,0:0:0:0:
256,192,55871,1,0,0:0:0:0:
256,192,55957,1,8,0:0:0:0:
256,192,56128,1,0,0:0:0:0:
256,192,56214,1,8,0:0:0:0:
256,192,56385,1,0,0:0:0:0:
256,192,56471,1,8,0:0:0:0:
256,192,56642,1,8,0:0:0:0:
256,192,56728,1,0,0:0:0:0:
256,192,56814,1,0,0:0:0:0:
256,192,56900,1,0,0:0:0:0:
256,192,56985,1,8,0:0:0:0:
256,192,57157,1,0,0:0:0:0:
256,192,57242,1,8,0:0:0:0:
256,192,57328,1,8,0:0:0:0:
256,192,57500,1,0,0:0:0:0:
256,192,57585,1,8,0:0:0:0:
256,192,57757,1,8,0:0:0:0:
256,192,57842,1,0,0:0:0:0:
256,192,58014,1,8,0:0:0:0:
256,192,58100,1,8,0:0:0:0:
256,192,58185,1,0,0:0:0:0:
256,192,58271,1,0,0:0:0:0:
256,192,58357,1,8,0:0:0:0:
256,192,58528,1,8,0:0:0:0:
256,192,58614,1,0,0:0:0:0:
256,192,58700,1,8,0:0:0:0:
256,192,58871,1,8,0:0:0:0:
256,192,58957,1,8,0:0:0:0:
256,192,59128,1,0,0:0:0:0:
256,192,59214,1,8,0:0:0:0:
256,192,59385,1,0,0:0:0:0:
256,192,59471,1,8,0:0:0:0:
256,192,59557,1,0,0:0:0:0:
256,192,59728,1,8,0:0:0:0:
256,192,59814,1,0,0:0:0:0:
256,192,59900,1,0,0:0:0:0:
256,192,59985,1,0,0:0:0:0:
256,192,60071,1,8,0:0:0:0:
256,192,60242,1,8,0:0:0:0:
256,192,60328,1,0,0:0:0:0:
256,192,60500,1,0,0:0:0:0:
256,192,60585,1,8,0:0:0:0:
256,192,60757,1,0,0:0:0:0:
256,192,60842,1,8,0:0:0:0:
256,192,60928,1,8,0:0:0:0:
256,192,61014,1,0,0:0:0:0:
256,192,61100,1,8,0:0:0:0:
256,192,61271,1,0,0:0:0:0:
256,192,61442,1,8,0:0:0:0:
256,192,61528,1,0,0:0:0:0:
256,192,61614,1,0,0:0:0:0:
256,192,61700,1,8,0:0:0:0:
256,192,61785,1,0,0:0:0:0:
256,192,61871,1,0,0:0:0:0:
256,192,61957,1,8,0:0:0:0:
256,192,62042,1,8,0:0:0:0:
256,192,62128,1,0,0:0:0:0:
256,192,62214,1,8,0:0:0:0:
256,192,62300,1,0,0:0:0:0:
256,192,62385,1,0,0:0:0:0:
256,192,62471,1,8,0:0:0:0:
256,192,62557,1,8,0:0:0:0:
256,192,62642,1,0,0:0:0:0:
256,192,62728,1,0,0:0:0:0:
256,192,62814,1,8,0:0:0:0:
256,192,62900,1,0,0:0:0:0:
256,192,62985,1,0,0:0:0:0:
256,192,63071,1,8,0:0:0:0:
256,192,63157,1,0,0:0:0:0:
256,192,63242,1,0,0:0:0:0:
256,192,63328,1,8,0:0:0:0:
256,192,63414,1,8,0:0:0:0:
256,192,63500,1,0,0:0:0:0:
256,192,63585,1,8,0:0:0:0:
256,192,63671,1,0,0:0:0:0:
256,192,63757,1,0,0:0:0:0:
256,192,63842,1,8,0:0:0:0:
256,192,63928,1,0,0:0:0:0:
256,192,64014,1,8,0:0:0:0:
256,192,64100,1,8,0:0:0:0:
256,192,64185,1,0,0:0:0:0:
256,192,64357,12,0,66757,0:0:0:0:
256,192,66928,5,0,0:0:0:0:
256,192,68300,1,8,0:0:0:0:
256,192,69671,1,0,0:0:0:0:
256,192,71042,1,8,0:0:0:0:
256,192,71728,1,8,0:0:0:0:
256,192,72414,1,0,0:0:0:0:
256,192,73785,1,8,0:0:0:0:
256,192,75157,1,0,0:0:0:0:
256,192,76528,1,8,0:0:0:0:
256,192,77214,1,0,0:0:0:0:
256,192,77557,1,8,0:0:0:0:
256,192,77900,1,0,0:0:0:0:
256,192,79271,1,8,0:0:0:0:
256,192,80642,1,0,0:0:0:0:
256,192,82014,1,8,0:0:0:0:
256,192,82700,1,8,0:0:0:0:
256,192,83385,1,0,0:0:0:0:
256,192,84757,1,8,0:0:0:0:
256,192,86128,1,0,0:0:0:0:
256,192,87500,1,8,0:0:0:0:
256,192,88185,1,0,0:0:0:0:
256,192,88528,1,8,0:0:0:0:
256,192,88871,1,4,0:0:0:0:
256,192,90242,1,8,0:0:0:0:
256,192,91614,1,0,0:0:0:0:
256,192,92985,1,0,0:0:0:0:
256,192,93671,1,0,0:0:0:0:
256,192,94357,1,8,0:0:0:0:
256,192,95728,1,8,0:0:0:0:
256,192,97100,1,0,0:0:0:0:
256,192,98471,1,0,0:0:0:0:
256,192,99157,1,0,0:0:0:0:
256,192,99842,1,8,0:0:0:0:
256,192,101214,1,8,0:0:0:0:
256,192,102585,1,0,0:0:0:0:
256,192,103957,1,8,0:0:0:0:
256,192,104642,1,0,0:0:0:0:
256,192,105328,1,8,0:0:0:0:
256,192,106700,1,8,0:0:0:0:
256,192,108071,1,0,0:0:0:0:
256,192,109442,1,8,0:0:0:0:
256,192,109785,1,8,0:0:0:0:
256,192,110128,1,8,0:0:0:0:
256,192,110214,1,8,0:0:0:0:
256,192,110300,1,0,0:0:0:0:
256,192,110385,1,8,0:0:0:0:
256,192,110471,1,0,0:0:0:0:
256,192,110814,1,4,0:0:0:0:
256,192,110985,1,8,0:0:0:0:
256,192,111242,1,8,0:0:0:0:
256,192,111500,1,8,0:0:0:0:
256,192,111757,1,0,0:0:0:0:
256,192,112014,1,8,0:0:0:0:
256,192,112357,1,0,0:0:0:0:
256,192,112614,1,0,0:0:0:0:
256,192,112871,1,0,0:0:0:0:
256,192,113128,1,8,0:0:0:0:
256,192,113385,1,0,0:0:0:0:
256,192,113728,1,0,0:0:0:0:
256,192,113985,1,0,0:0:0:0:
256,192,114242,1,8,0:0:0:0:
256,192,114500,1,8,0:0:0:0:
256,192,114757,1,0,0:0:0:0:
256,192,115014,1,8,0:0:0:0:
256,192,115271,1,8,0:0:0:0:
256,192,115528,1,0,0:0:0:0:
256,192,115785,1,8,0:0:0:0:
256,192,115957,1,8,0:0:0:0:
256,192,116128,1,0,0:0:0:0:
256,192,116300,1,0,0:0:0:0:
256,192,116471,1,8,0:0:0:0:
256,192,116728,1,8,0:0:0:0:
256,192,116985,1,8,0:0:0:0:
256,192,117242,1,0,0:0:0:0:
256,192,117500,1,8,0:0:0:0:
256,192,117842,1,0,0:0:0:0:
256,192,118100,1,0,0:0:0:0:
256,192,118357,1,0,0:0:0:0:
256,192,118614,1,8,0:0:0:0:
256,192,118871,1,0,0:0:0:0:
256,192,119214,1,0,0:0:0:0:
256,192,119471,1,0,0:0:0:0:
256,192,119728,1,8,0:0:0:0:
256,192,119985,1,8,0:0:0:0:
256,192,120242,1,0,0:0:0:0:
256,192,120500,1,8,0:0:0:0:
256,192,120757,1,8,0:0:0:0:
256,192,121014,1,0,0:0:0:0:
256,192,121271,1,8,0:0:0:0:
256,192,121442,1,8,0:0:0:0:
256,192,121614,1,8,0:0:0:0:
256,192,121785,1,4,0:0:0:0:
256,192,122128,1,8,0:0:0:0:
256,192,122471,1,8,0:0:0:0:
256,192,122642,1,8,0:0:0:0:
256,192,122728,1,8,0:0:0:0:
256,192,122814,1,0,0:0:0:0:
256,192,122985,1,8,0:0:0:0:
256,192,123157,1,8,0:0:0:0:
256,192,123500,1,8,0:0:0:0:
256,192,123842,1,8,0:0:0:0:
256,192,124014,1,8,0:0:0:0:
256,192,124185,1,8,0:0:0:0:
256,192,124271,1,8,0:0:0:0:
256,192,124357,1,8,0:0:0:0:
256,192,124442,1,8,0:0:0:0:
256,192,124528,1,8,0:0:0:0:
256,192,124871,1,8,0:0:0:0:
256,192,125214,1,8,0:0:0:0:
256,192,125385,1,8,0:0:0:0:
256,192,125471,1,8,0:0:0:0:
256,192,125557,1,0,0:0:0:0:
256,192,125728,1,8,0:0:0:0:
256,192,125900,1,8,0:0:0:0:
256,192,126071,1,8,0:0:0:0:
256,192,126157,1,8,0:0:0:0:
256,192,126242,1,0,0:0:0:0:
256,192,126414,1,8,0:0:0:0:
256,192,126585,1,8,0:0:0:0:
256,192,126757,1,8,0:0:0:0:
256,192,126842,1,8,0:0:0:0:
256,192,126928,1,8,0:0:0:0:
256,192,127014,1,8,0:0:0:0:
256,192,127100,1,8,0:0:0:0:
256,192,127271,1,4,0:0:0:0:
256,192,127442,1,8,0:0:0:0:
256,192,127614,1,8,0:0:0:0:
256,192,127785,1,8,0:0:0:0:
256,192,127957,1,8,0:0:0:0:
256,192,128128,1,0,0:0:0:0:
256,192,128300,1,8,0:0:0:0:
256,192,128471,1,0,0:0:0:0:
256,192,128557,1,0,0:0:0:0:
256,192,128642,1,8,0:0:0:0:
256,192,128814,1,8,0:0:0:0:
256,192,128985,1,8,0:0:0:0:
256,192,129157,1,8,0:0:0:0:
256,192,129328,1,8,0:0:0:0:
256,192,129500,1,0,0:0:0:0:
256,192,129671,1,8,0:0:0:0:
256,192,129842,1,0,0:0:0:0:
256,192,130014,1,8,0:0:0:0:
256,192,130100,1,8,0:0:0:0:
256,192,130185,1,0,0:0:0:0:
256,192,130271,1,0,0:0:0:0:
256,192,130357,1,8,0:0:0:0:
256,192,130442,1,8,0:0:0:0:
256,192,130528,1,0,0:0:0:0:
256,192,130614,1,0,0:0:0:0:
256,192,130700,1,8,0:0:0:0:
256,192,130785,1,0,0:0:0:0:
256,192,130871,1,8,0:0:0:0:
256,192,130957,1,0,0:0:0:0:
256,192,131042,1,8,0:0:0:0:
256,192,131128,1,8,0:0:0:0:
256,192,131214,1,0,0:0:0:0:
256,192,131385,1,0,0:0:0:0:
256,192,131471,1,0,0:0:0:0:
256,192,131557,1,8,0:0:0:0:
256,192,131642,1,8,0:0:0:0:
256,192,131728,1,8,0:0:0:0:
256,192,131900,1,0,0:0:0:0:
256,192,131985,1,8,0:0:0:0:
256,192,132157,1,8,0:0:0:0:
256,192,132242,1,8,0:0:0:0:
256,192,132414,1,4,0:0:0:0:
256,192,132757,1,12,0:0:0:0:
256,192,132928,1,0,0:0:0:0:
256,192,133014,1,0,0:0:0:0:
256,192,133100,1,8,0:0:0:0:
256,192,133185,1,0,0:0:0:0:
256,192,133271,1,8,0:0:0:0:
256,192,133442,1,0,0:0:0:0:
256,192,133528,1,8,0:0:0:0:
256,192,133700,1,8,0:0:0:0:
256,192,133785,1,0,0:0:0:0:
256,192,133957,1,8,0:0:0:0:
256,192,134128,1,0,0:0:0:0:
256,192,134300,1,8,0:0:0:0:
256,192,134385,1,0,0:0:0:0:
256,192,134471,1,0,0:0:0:0:
256,192,134557,1,8,0:0:0:0:
256,192,134642,1,8,0:0:0:0:
256,192,134814,1,8,0:0:0:0:
256,192,134900,1,0,0:0:0:0:
256,192,135071,1,0,0:0:0:0:
256,192,135157,1,8,0:0:0:0:
256,192,135328,1,8,0:0:0:0:
256,192,135500,1,0,0:0:0:0:
256,192,135671,1,8,0:0:0:0:
256,192,135757,1,8,0:0:0:0:
256,192,135842,1,0,0:0:0:0:
256,192,135928,1,8,0:0:0:0:
256,192,136014,1,0,0:0:0:0:
256,192,136185,1,8,0:0:0:0:
256,192,136271,1,0,0:0:0:0:
256,192,136442,1,8,0:0:0:0:
256,192,136528,1,8,0:0:0:0:
256,192,136700,1,8,0:0:0:0:
256,192,136785,1,0,0:0:0:0:
256,192,136871,1,0,0:0:0:0:
256,192,136957,1,8,0:0:0:0:
256,192,137042,1,0,0:0:0:0:
256,192,137128,1,0,0:0:0:0:
256,192,137214,1,8,0:0:0:0:
256,192,137385,1,0,0:0:0:0:
256,192,137471,1,8,0:0:0:0:
256,192,137557,1,0,0:0:0:0:
256,192,137642,1,0,0:0:0:0:
256,192,137728,1,8,0:0:0:0:
256,192,137814,1,0,0:0:0:0:
256,192,137900,1,8,0:0:0:0:
256,192,137985,1,8,0:0:0:0:
256,192,138071,1,8,0:0:0:0:
256,192,138157,1,8,0:0:0:0:
256,192,138242,1,0,0:0:0:0:
256,192,138414,1,8,0:0:0:0:
256,192,138500,1,8,0:0:0:0:
256,192,138585,1,0,0:0:0:0:
256,192,138671,1,0,0:0:0:0:
256,192,138757,1,8,0:0:0:0:
256,192,138928,1,0,0:0:0:0:
256,192,139014,1,8,0:0:0:0:
256,192,139185,1,8,0:0:0:0:
256,192,139271,1,0,0:0:0:0:
256,192,139442,1,8,0:0:0:0:
256,192,139614,1,0,0:0:0:0:
256,192,139785,1,8,0:0:0:0:
256,192,139871,1,8,0:0:0:0:
256,192,139957,1,0,0:0:0:0:
256,192,140042,1,8,0:0:0:0:
256,192,140128,1,0,0:0:0:0:
256,192,140300,1,8,0:0:0:0:
256,192,140385,1,0,0:0:0:0:
256,192,140557,1,8,0:0:0:0:
256,192,140642,1,0,0:0:0:0:
256,192,140814,1,8,0:0:0:0:
256,192,140985,1,0,0:0:0:0:
256,192,141157,1,8,0:0:0:0:
256,192,141242,1,0,0:0:0:0:
256,192,141328,1,0,0:0:0:0:
256,192,141414,1,8,0:0:0:0:
256,192,141500,1,0,0:0:0:0:
256,192,141671,1,8,0:0:0:0:
256,192,141757,1,8,0:0:0:0:
256,192,141928,1,0,0:0:0:0:
256,192,142014,1,8,0:0:0:0:
256,192,142185,1,8,0:0:0:0:
256,192,142271,1,8,0:0:0:0:
256,192,142357,1,0,0:0:0:0:
256,192,142442,1,8,0:0:0:0:
256,192,142528,1,8,0:0:0:0:
256,192,142614,1,0,0:0:0:0:
256,192,142700,1,8,0:0:0:0:
256,192,142871,1,0,0:0:0:0:
256,192,142957,1,8,0:0:0:0:
256,192,143042,1,0,0:0:0:0:
256,192,143128,1,0,0:0:0:0:
256,192,143214,1,8,0:0:0:0:
256,192,143300,1,0,0:0:0:0:
256,192,143385,1,8,0:0:0:0:
256,192,143471,1,8,0:0:0:0:
256,192,143557,1,8,0:0:0:0:
256,192,143642,1,8,0:0:0:0:
256,192,143728,1,0,0:0:0:0:
256,192,143900,1,0,0:0:0:0:
256,192,143985,1,8,0:0:0:0:
256,192,144071,1,8,0:0:0:0:
256,192,144157,1,0,0:0:0:0:
256,192,144242,1,0,0:0:0:0:
256,192,144414,1,0,0:0:0:0:
256,192,144500,1,8,0:0:0:0:
256,192,144671,1,8,0:0:0:0:
256,192,144757,1,0,0:0:0:0:
256,192,144928,1,8,0:0:0:0:
256,192,145100,1,0,0:0:0:0:
256,192,145271,1,8,0:0:0:0:
256,192,145357,1,0,0:0:0:0:
256,192,145442,1,0,0:0:0:0:
256,192,145528,1,8,0:0:0:0:
256,192,145614,1,8,0:0:0:0:
256,192,145785,1,8,0:0:0:0:
256,192,145871,1,0,0:0:0:0:
256,192,146042,1,0,0:0:0:0:
256,192,146128,1,8,0:0:0:0:
256,192,146300,1,8,0:0:0:0:
256,192,146471,1,0,0:0:0:0:
256,192,146642,1,8,0:0:0:0:
256,192,146728,1,8,0:0:0:0:
256,192,146814,1,0,0:0:0:0:
256,192,146900,1,8,0:0:0:0:
256,192,146985,1,0,0:0:0:0:
256,192,147157,1,8,0:0:0:0:
256,192,147242,1,0,0:0:0:0:
256,192,147414,1,8,0:0:0:0:
256,192,147500,1,8,0:0:0:0:
256,192,147671,1,8,0:0:0:0:
256,192,147757,1,0,0:0:0:0:
256,192,147842,1,0,0:0:0:0:
256,192,147928,1,8,0:0:0:0:
256,192,148014,1,0,0:0:0:0:
256,192,148100,1,0,0:0:0:0:
256,192,148185,1,8,0:0:0:0:
256,192,148357,1,0,0:0:0:0:
256,192,148442,1,8,0:0:0:0:
256,192,148528,1,0,0:0:0:0:
256,192,148614,1,0,0:0:0:0:
256,192,148700,1,8,0:0:0:0:
256,192,148785,1,0,0:0:0:0:
256,192,148871,1,8,0:0:0:0:
256,192,148957,1,8,0:0:0:0:
256,192,149042,1,8,0:0:0:0:
256,192,149128,1,8,0:0:0:0:
256,192,149214,1,0,0:0:0:0:
256,192,149385,1,8,0:0:0:0:
256,192,149471,1,8,0:0:0:0:
256,192,149557,1,0,0:0:0:0:
256,192,149642,1,0,0:0:0:0:
256,192,149728,1,8,0:0:0:0:
256,192,149900,1,0,0:0:0:0:
256,192,149985,1,8,0:0:0:0:
256,192,150157,1,8,0:0:0:0:
256,192,150242,1,0,0:0:0:0:
256,192,150414,1,8,0:0:0:0:
256,192,150585,1,0,0:0:0:0:
256,192,150757,1,8,0:0:0:0:
256,192,150842,1,8,0:0:0:0:
256,192,150928,1,0,0:0:0:0:
256,192,151014,1,8,0:0:0:0:
256,192,151100,1,0,0:0:0:0:
256,192,151271,1,8,0:0:0:0:
256,192,151357,1,0,0:0:0:0:
256,192,151528,1,8,0:0:0:0:
256,192,151614,1,8,0:0:0:0:
256,192,151785,1,0,0:0:0:0:
256,192,151957,1,8,0:0:0:0:
256,192,152128,1,8,0:0:0:0:
256,192,152300,1,8,0:0:0:0:
256,192,152471,1,8,0:0:0:0:
256,192,152557,1,8,0:0:0:0:
256,192,152642,1,0,0:0:0:0:
256,192,152814,1,8,0:0:0:0:
256,192,152985,1,8,0:0:0:0:
256,192,153157,1,8,0:0:0:0:
256,192,153242,1,8,0:0:0:0:
256,192,153328,1,0,0:0:0:0:
256,192,153414,1,8,0:0:0:0:
256,192,153500,1,0,0:0:0:0:
256,192,153585,1,0,0:0:0:0:
256,192,153671,1,8,0:0:0:0:
256,192,153757,1,0,0:0:0:0:
256,192,153842,1,0,0:0:0:0:
256,192,153928,1,8,0:0:0:0:
256,192,154014,1,8,0:0:0:0:
256,192,154185,1,0,0:0:0:0:
256,192,154357,1,8,0:0:0:0:
256,192,154528,1,0,0:0:0:0:
256,192,154614,1,0,0:0:0:0:
256,192,154700,1,8,0:0:0:0:
256,192,154871,1,0,0:0:0:0:
256,192,154957,1,8,0:0:0:0:
256,192,155042,1,0,0:0:0:0:
256,192,155128,1,0,0:0:0:0:
256,192,155214,1,8,0:0:0:0:
256,192,155385,1,8,0:0:0:0:
256,192,155471,1,0,0:0:0:0:
256,192,155557,1,0,0:0:0:0:
256,192,155642,1,8,0:0:0:0:
256,192,155728,1,0,0:0:0:0:
256,192,155900,1,8,0:0:0:0:
256,192,155985,1,0,0:0:0:0:
256,192,156071,1,8,0:0:0:0:
256,192,156242,1,8,0:0:0:0:
256,192,156328,1,0,0:0:0:0:
256,192,156414,1,0,0:0:0:0:
256,192,156500,1,8,0:0:0:0:
256,192,156585,1,0,0:0:0:0:
256,192,156757,1,8,0:0:0:0:
256,192,156842,1,8,0:0:0:0:
256,192,156928,1,0,0:0:0:0:
256,192,157014,1,8,0:0:0:0:
256,192,157100,1,0,0:0:0:0:
256,192,157271,1,8,0:0:0:0:
256,192,157357,1,0,0:0:0:0:
256,192,157442,1,8,0:0:0:0:
256,192,157528,1,0,0:0:0:0:
256,192,157614,1,8,0:0:0:0:
256,192,157700,1,8,0:0:0:0:
256,192,157785,1,0,0:0:0:0:
256,192,157957,1,8,0:0:0:0:
256,192,158042,1,0,0:0:0:0:
256,192,158128,1,0,0:0:0:0:
256,192,158214,1,8,0:0:0:0:
256,192,158300,1,0,0:0:0:0:
256,192,158385,1,0,0:0:0:0:
256,192,158471,1,8,0:0:0:0:
256,192,158642,1,0,0:0:0:0:
256,192,158728,1,8,0:0:0:0:
256,192,158814,1,0,0:0:0:0:
256,192,158900,1,8,0:0:0:0:
256,192,158985,1,0,0:0:0:0:
256,192,159157,1,8,0:0:0:0:
256,192,159242,1,0,0:0:0:0:
256,192,159328,1,0,0:0:0:0:
256,192,159414,1,8,0:0:0:0:
256,192,159500,1,0,0:0:0:0:
256,192,159671,1,8,0:0:0:0:
256,192,159757,1,8,0:0:0:0:
256,192,159842,1,0,0:0:0:0:
256,192,159928,1,8,0:0:0:0:
256,192,160014,1,8,0:0:0:0:
256,192,160100,1,0,0:0:0:0:
256,192,160185,1,8,0:0:0:0:
256,192,160357,1,8,0:0:0:0:
256,192,160442,1,0,0:0:0:0:
256,192,160528,1,8,0:0:0:0:
256,192,160700,1,0,0:0:0:0:
256,192,160871,1,0,0:0:0:0:
256,192,160957,1,8,0:0:0:0:
256,192,161042,1,8,0:0:0:0:
256,192,161128,1,8,0:0:0:0:
256,192,161214,1,0,0:0:0:0:
256,192,161300,1,0,0:0:0:0:
256,192,161385,1,8,0:0:0:0:
256,192,161471,1,8,0:0:0:0:
256,192,161557,1,0,0:0:0:0:
256,192,161642,1,8,0:0:0:0:
256,192,161728,1,8,0:0:0:0:
256,192,161814,1,0,0:0:0:0:
256,192,161900,1,8,0:0:0:0:
256,192,161985,1,0,0:0:0:0:
256,192,162071,1,8,0:0:0:0:
256,192,162157,1,8,0:0:0:0:
256,192,162242,1,0,0:0:0:0:
256,192,162328,1,0,0:0:0:0:
256,192,162414,1,8,0:0:0:0:
256,192,162500,1,8,0:0:0:0:
256,192,162585,1,0,0:0:0:0:
256,192,162671,1,8,0:0:0:0:
256,192,162757,1,8,0:0:0:0:
256,192,162842,1,8,0:0:0:0:
256,192,162928,1,0,0:0:0:0:
256,192,163100,1,8,0:0:0:0:
256,192,163185,1,8,0:0:0:0:
256,192,163271,1,0,0:0:0:0:
256,192,163357,1,8,0:0:0:0:
256,192,163442,1,0,0:0:0:0:
256,192,163614,1,8,0:0:0:0:
256,192,163700,1,0,0:0:0:0:
256,192,163785,1,0,0:0:0:0:
256,192,163871,1,8,0:0:0:0:
256,192,163957,1,0,0:0:0:0:
256,192,164128,1,8,0:0:0:0:
256,192,164214,1,8,0:0:0:0:
256,192,164300,1,0,0:0:0:0:
256,192,164385,1,8,0:0:0:0:
256,192,164471,1,0,0:0:0:0:
256,192,164557,1,0,0:0:0:0:
256,192,164642,1,8,0:0:0:0:
256,192,164814,1,0,0:0:0:0:
256,192,164900,1,8,0:0:0:0:
256,192,164985,1,0,0:0:0:0:
256,192,165071,1,0,0:0:0:0:
256,192,165157,1,8,0:0:0:0:
256,192,165242,1,0,0:0:0:0:
256,192,165328,1,0,0:0:0:0:
256,192,165414,1,8,0:0:0:0:
256,192,165500,1,8,0:0:0:0:
256,192,165585,1,8,0:0:0:0:
256,192,165671,1,0,0:0:0:0:
256,192,165842,1,0,0:0:0:0:
256,192,165928,1,8,0:0:0:0:
256,192,166014,1,0,0:0:0:0:
256,192,166100,1,0,0:0:0:0:
256,192,166185,1,8,0:0:0:0:
256,192,166357,1,8,0:0:0:0:
256,192,166442,1,0,0:0:0:0:
256,192,166528,1,0,0:0:0:0:
256,192,166614,1,8,0:0:0:0:
256,192,166700,1,0,0:0:0:0:
256,192,166871,1,8,0:0:0:0:
256,192,166957,1,8,0:0:0:0:
256,192,167042,1,0,0:0:0:0:
256,192,167214,1,8,0:0:0:0:
256,192,167300,1,0,0:0:0:0:
256,192,167385,1,0,0:0:0:0:
256,192,167471,1,8,0:0:0:0:
256,192,167557,1,0,0:0:0:0:
256,192,167728,1,8,0:0:0:0:
256,192,167814,1,8,0:0:0:0:
256,192,167900,1,0,0:0:0:0:
256,192,167985,1,8,0:0:0:0:
256,192,168071,1,0,0:0:0:0:
256,192,168242,1,8,0:0:0:0:
256,192,168328,1,8,0:0:0:0:
256,192,168414,1,0,0:0:0:0:
256,192,168500,1,0,0:0:0:0:
256,192,168585,1,8,0:0:0:0:
256,192,168671,1,0,0:0:0:0:
256,192,168757,1,8,0:0:0:0:
256,192,168928,1,8,0:0:0:0:
256,192,169014,1,0,0:0:0:0:
256,192,169100,1,0,0:0:0:0:
256,192,169185,1,8,0:0:0:0:
256,192,169271,1,0,0:0:0:0:
256,192,169357,1,0,0:0:0:0:
256,192,169442,1,8,0:0:0:0:
256,192,169614,1,8,0:0:0:0:
256,192,169700,1,8,0:0:0:0:
256,192,169785,1,0,0:0:0:0:
256,192,169871,1,8,0:0:0:0:
256,192,169957,1,0,0:0:0:0:
256,192,170042,1,0,0:0:0:0:
256,192,170128,1,8,0:0:0:0:
256,192,170300,1,0,0:0:0:0:
256,192,170385,1,8,0:0:0:0:
256,192,170471,1,0,0:0:0:0:
256,192,170557,1,0,0:0:0:0:
256,192,170642,1,8,0:0:0:0:
256,192,170728,1,8,0:0:0:0:
256,192,170814,1,0,0:0:0:0:
256,192,170985,1,8,0:0:0:0:
256,192,171071,1,8,0:0:0:0:
256,192,171157,1,8,0:0:0:0:
256,192,171328,1,0,0:0:0:0:
256,192,171414,1,0,0:0:0:0:
256,192,171500,1,8,0:0:0:0:
256,192,171585,1,0,0:0:0:0:
256,192,171671,1,8,0:0:0:0:
256,192,171842,1,8,0:0:0:0:
256,192,171928,1,0,0:0:0:0:
256,192,172014,1,8,0:0:0:0:
256,192,172185,1,8,0:0:0:0:
256,192,172271,1,8,0:0:0:0:
256,192,172357,1,0,0:0:0:0:
256,192,172528,1,12,0:0:0:0:
256,192,172700,1,0,0:0:0:0:
256,192,172785,1,0,0:0:0:0:
256,192,172871,1,8,0:0:0:0:
256,192,172957,1,0,0:0:0:0:
256,192,173042,1,8,0:0:0:0:
256,192,173214,1,8,0:0:0:0:
256,192,173300,1,0,0:0:0:0:
256,192,173385,1,8,0:0:0:0:
256,192,173557,1,8,0:0:0:0:
256,192,173642,1,8,0:0:0:0:
256,192,173728,1,0,0:0:0:0:
256,192,173900,1,8,0:0:0:0:
256,192,173985,1,8,0:0:0:0:
256,192,174071,1,8,0:0:0:0:
256,192,174157,1,8,0:0:0:0:
256,192,174242,1,0,0:0:0:0:
256,192,174328,1,0,0:0:0:0:
256,192,174414,1,0,0:0:0:0:
256,192,174500,1,0,0:0:0:0:
256,192,174585,1,8,0:0:0:0:
256,192,174671,1,8,0:0:0:0:
256,192,174757,1,0,0:0:0:0:
256,192,174842,1,0,0:0:0:0:
256,192,174928,1,8,0:0:0:0:
256,192,175014,1,8,0:0:0:0:
256,192,175100,1,0,0:0:0:0:
256,192,175185,1,0,0:0:0:0:
256,192,175271,1,8,0:0:0:0:
256,192,175442,12,0,176471,0:0:0:0:
256,192,176642,5,12,0:0:0:0:
256,192,176985,1,8,0:0:0:0:
256,192,177328,1,8,0:0:0:0:
256,192,177671,1,8,0:0:0:0:
256,192,178014,1,8,0:0:0:0:
256,192,178357,1,8,0:0:0:0:
256,192,178700,1,8,0:0:0:0:
256,192,179042,1,8,0:0:0:0:
256,192,179214,1,0,0:0:0:0:
256,192,179385,1,8,0:0:0:0:
256,192,179728,1,8,0:0:0:0:
256,192,180071,1,8,0:0:0:0:
256,192,180414,1,8,0:0:0:0:
256,192,180757,1,8,0:0:0:0:
256,192,181100,1,8,0:0:0:0:
256,192,181442,1,8,0:0:0:0:
256,192,181614,1,0,0:0:0:0:
256,192,181785,1,0,0:0:0:0:
256,192,181957,1,0,0:0:0:0:
256,192,182128,1,8,0:0:0:0:
256,192,182471,1,8,0:0:0:0:
256,192,182814,1,8,0:0:0:0:
256,192,183157,1,8,0:0:0:0:
256,192,183500,1,8,0:0:0:0:
256,192,183842,1,8,0:0:0:0:
256,192,184185,1,8,0:0:0:0:
256,192,184528,1,8,0:0:0:0:
256,192,184700,1,0,0:0:0:0:
256,192,184871,1,8,0:0:0:0:
256,192,185214,1,8,0:0:0:0:
256,192,185557,1,8,0:0:0:0:
256,192,185900,1,8,0:0:0:0:
256,192,186071,1,0,0:0:0:0:
256,192,186242,1,8,0:0:0:0:
256,192,186585,1,8,0:0:0:0:
256,192,186928,1,8,0:0:0:0:
256,192,187100,1,0,0:0:0:0:
256,192,187271,1,8,0:0:0:0:
256,192,187442,1,0,0:0:0:0:
256,192,187614,1,12,0:0:0:0:
256,192,187871,1,0,0:0:0:0:
256,192,188128,1,8,0:0:0:0:
256,192,188385,1,0,0:0:0:0:
256,192,188642,1,8,0:0:0:0:
256,192,188814,1,0,0:0:0:0:
256,192,188985,1,8,0:0:0:0:
256,192,189242,1,0,0:0:0:0:
256,192,189500,1,8,0:0:0:0:
256,192,189757,1,0,0:0:0:0:
256,192,190014,1,8,0:0:0:0:
256,192,190185,1,0,0:0:0:0:
256,192,190357,1,8,0:0:0:0:
256,192,190614,1,0,0:0:0:0:
256,192,190871,1,8,0:0:0:0:
256,192,191128,1,0,0:0:0:0:
256,192,191385,1,8,0:0:0:0:
256,192,191557,1,0,0:0:0:0:
256,192,191728,1,8,0:0:0:0:
256,192,191985,1,8,0:0:0:0:
256,192,192242,1,0,0:0:0:0:
256,192,192500,1,8,0:0:0:0:
256,192,192757,1,8,0:0:0:0:
256,192,192928,1,8,0:0:0:0:
256,192,193100,1,8,0:0:0:0:
256,192,193185,1,8,0:0:0:0:
256,192,193271,1,0,0:0:0:0:
256,192,193357,1,0,0:0:0:0:
256,192,193442,1,8,0:0:0:0:
256,192,193528,1,8,0:0:0:0:
256,192,193614,1,0,0:0:0:0:
256,192,193700,1,0,0:0:0:0:
256,192,193785,1,8,0:0:0:0:
256,192,193871,1,8,0:0:0:0:
256,192,193957,1,0,0:0:0:0:
256,192,194042,1,0,0:0:0:0:
256,192,194128,1,8,0:0:0:0:
256,192,194214,1,8,0:0:0:0:
256,192,194300,1,0,0:0:0:0:
256,192,194385,1,0,0:0:0:0:
256,192,194471,1,8,0:0:0:0:
256,192,194557,1,0,0:0:0:0:
256,192,194642,1,0,0:0:0:0:
256,192,194728,1,0,0:0:0:0:
256,192,194814,1,8,0:0:0:0:
256,192,194900,1,0,0:0:0:0:
256,192,194985,1,0,0:0:0:0:
256,192,195071,1,0,0:0:0:0:
256,192,195157,1,8,0:0:0:0:
256,192,195242,1,0,0:0:0:0:
256,192,195328,1,0,0:0:0:0:
256,192,195414,1,0,0:0:0:0:
256,192,195500,1,8,0:0:0:0:
256,192,195585,1,8,0:0:0:0:
256,192,195671,1,0,0:0:0:0:
256,192,195757,1,0,0:0:0:0:
256,192,195842,1,8,0:0:0:0:
256,192,195928,1,8,0:0:0:0:
256,192,196014,1,8,0:0:0:0:
256,192,196100,1,0,0:0:0:0:
256,192,196185,1,0,0:0:0:0:
256,192,196271,1,0,0:0:0:0:
256,192,196357,1,8,0:0:0:0:
256,192,196442,1,8,0:0:0:0:
256,192,196528,1,8,0:0:0:0:
256,192,196614,1,0,0:0:0:0:
256,192,196700,1,0,0:0:0:0:
256,192,196785,1,0,0:0:0:0:
256,192,196871,1,8,0:0:0:0:
256,192,196957,1,8,0:0:0:0:
256,192,197042,1,0,0:0:0:0:
256,192,197128,1,0,0:0:0:0:
256,192,197214,1,8,0:0:0:0:
256,192,197557,1,0,0:0:0:0:
256,192,197642,1,0,0:0:0:0:
256,192,197728,1,8,0:0:0:0:
256,192,197785,1,8,0:0:0:0:
256,192,197842,1,8,0:0:0:0:
256,192,197900,1,0,0:0:0:0:
256,192,198071,1,8,0:0:0:0:
256,192,198157,1,0,0:0:0:0:
256,192,198242,1,0,0:0:0:0:
256,192,198414,1,8,0:0:0:0:
256,192,198585,1,8,0:0:0:0:
256,192,198671,1,8,0:0:0:0:
256,192,198757,1,0,0:0:0:0:
256,192,198842,1,8,0:0:0:0:
256,192,198928,1,0,0:0:0:0:
256,192,199100,1,8,0:0:0:0:
256,192,199185,1,0,0:0:0:0:
256,192,199271,1,8,0:0:0:0:
256,192,199357,1,8,0:0:0:0:
256,192,199442,1,0,0:0:0:0:
256,192,199528,1,0,0:0:0:0:
256,192,199614,1,8,0:0:0:0:
256,192,199785,1,0,0:0:0:0:
256,192,199871,1,8,0:0:0:0:
256,192,199957,1,8,0:0:0:0:
256,192,200128,1,0,0:0:0:0:
256,192,200214,1,8,0:0:0:0:
256,192,200300,1,0,0:0:0:0:
256,192,200385,1,0,0:0:0:0:
256,192,200471,1,8,0:0:0:0:
256,192,200642,1,8,0:0:0:0:
256,192,200728,1,8,0:0:0:0:
256,192,200814,1,0,0:0:0:0:
256,192,200900,1,0,0:0:0:0:
256,192,200985,1,8,0:0:0:0:
256,192,201157,1,0,0:0:0:0:
256,192,201242,1,0,0:0:0:0:
256,192,201328,1,8,0:0:0:0:
256,192,201500,1,0,0:0:0:0:
256,192,201585,1,8,0:0:0:0:
256,192,201671,1,0,0:0:0:0:
256,192,201757,1,0,0:0:0:0:
256,192,201842,1,8,0:0:0:0:
256,192,202014,1,0,0:0:0:0:
256,192,202100,1,0,0:0:0:0:
256,192,202185,1,8,0:0:0:0:
256,192,202271,1,0,0:0:0:0:
256,192,202357,1,8,0:0:0:0:
256,192,202442,1,8,0:0:0:0:
256,192,202528,1,0,0:0:0:0:
256,192,202614,1,0,0:0:0:0:
256,192,202700,1,8,0:0:0:0:
256,192,202871,1,0,0:0:0:0:
256,192,202957,1,8,0:0:0:0:
256,192,203042,1,8,0:0:0:0:
256,192,203128,1,0,0:0:0:0:
256,192,203214,1,8,0:0:0:0:
256,192,203385,1,8,0:0:0:0:
256,192,203471,1,8,0:0:0:0:
256,192,203557,1,0,0:0:0:0:
256,192,203642,1,0,0:0:0:0:
256,192,203728,1,8,0:0:0:0:
256,192,203900,1,0,0:0:0:0:
256,192,203985,1,8,0:0:0:0:
256,192,204071,1,8,0:0:0:0:
256,192,204157,1,0,0:0:0:0:
256,192,204242,1,0,0:0:0:0:
256,192,204328,1,8,0:0:0:0:
256,192,204414,1,0,0:0:0:0:
256,192,204585,1,8,0:0:0:0:
256,192,204671,1,0,0:0:0:0:
256,192,204757,1,0,0:0:0:0:
256,192,204842,1,8,0:0:0:0:
256,192,204928,1,0,0:0:0:0:
256,192,205014,1,0,0:0:0:0:
256,192,205100,1,8,0:0:0:0:
256,192,205271,1,0,0:0:0:0:
256,192,205357,1,8,0:0:0:0:
256,192,205442,1,8,0:0:0:0:
256,192,205614,1,0,0:0:0:0:
256,192,205700,1,0,0:0:0:0:
256,192,205785,1,8,0:0:0:0:
256,192,205871,1,8,0:0:0:0:
256,192,205957,1,0,0:0:0:0:
256,192,206128,1,8,0:0:0:0:
256,192,206214,1,8,0:0:0:0:
256,192,206300,1,0,0:0:0:0:
256,192,206385,1,0,0:0:0:0:
256,192,206471,1,8,0:0:0:0:
256,192,206642,1,0,0:0:0:0:
256,192,206728,1,0,0:0:0:0:
256,192,206814,1,8,0:0:0:0:
256,192,206985,1,0,0:0:0:0:
256,192,207071,1,8,0:0:0:0:
256,192,207157,1,0,0:0:0:0:
256,192,207242,1,8,0:0:0:0:
256,192,207328,1,0,0:0:0:0:
256,192,207500,1,0,0:0:0:0:
256,192,207585,1,8,0:0:0:0:
256,192,207671,1,8,0:0:0:0:
256,192,207757,1,0,0:0:0:0:
256,192,207842,1,8,0:0:0:0:
256,192,207928,1,8,0:0:0:0:
256,192,208014,1,0,0:0:0:0:
256,192,208100,1,0,0:0:0:0:
256,192,208185,1,8,0:0:0:0:
256,192,208357,1,0,0:0:0:0:
256,192,208442,1,0,0:0:0:0:
256,192,208528,1,8,0:0:0:0:
256,192,208614,1,0,0:0:0:0:
256,192,208700,1,8,0:0:0:0:
256,192,208871,1,8,0:0:0:0:
256,192,209042,1,0,0:0:0:0:
256,192,209128,1,0,0:0:0:0:
256,192,209214,1,8,0:0:0:0:
256,192,209385,1,8,0:0:0:0:
256,192,209471,1,8,0:0:0:0:
256,192,209557,1,8,0:0:0:0:
256,192,209642,1,0,0:0:0:0:
256,192,209728,1,0,0:0:0:0:
256,192,209814,1,8,0:0:0:0:
256,192,209900,1,0,0:0:0:0:
256,192,210071,1,8,0:0:0:0:
256,192,210157,1,0,0:0:0:0:
256,192,210242,1,8,0:0:0:0:
256,192,210328,1,8,0:0:0:0:
256,192,210414,1,0,0:0:0:0:
256,192,210500,1,0,0:0:0:0:
256,192,210585,1,8,0:0:0:0:
256,192,210757,1,0,0:0:0:0:
256,192,210842,1,8,0:0:0:0:
256,192,210928,1,8,0:0:0:0:
256,192,211100,1,0,0:0:0:0:
256,192,211185,1,8,0:0:0:0:
256,192,211271,1,0,0:0:0:0:
256,192,211357,1,0,0:0:0:0:
256,192,211442,1,8,0:0:0:0:
256,192,211614,1,8,0:0:0:0:
256,192,211700,1,8,0:0:0:0:
256,192,211785,1,0,0:0:0:0:
256,192,211871,1,0,0:0:0:0:
256,192,211957,1,8,0:0:0:0:
256,192,212128,1,0,0:0:0:0:
256,192,212214,1,0,0:0:0:0:
256,192,212300,1,8,0:0:0:0:
256,192,212471,1,0,0:0:0:0:
256,192,212557,1,8,0:0:0:0:
256,192,212642,1,0,0:0:0:0:
256,192,212728,1,0,0:0:0:0:
256,192,212814,1,8,0:0:0:0:
256,192,212985,1,0,0:0:0:0:
256,192,213071,1,0,0:0:0:0:
256,192,213157,1,8,0:0:0:0:
256,192,213242,1,0,0:0:0:0:
256,192,213328,1,8,0:0:0:0:
256,192,213414,1,8,0:0:0:0:
256,192,213500,1,0,0:0:0:0:
256,192,213585,1,0,0:0:0:0:
256,192,213671,1,8,0:0:0:0:
256,192,213842,1,0,0:0:0:0:
256,192,213900,1,0,0:0:0:0:
256,192,213957,1,0,0:0:0:0:
256,192,214014,1,0,0:0:0:0:
256,192,214185,1,12,0:0:0:0:
256,192,214528,1,12,0:0:0:0:
256,192,214871,1,12,0:0:0:0:
256,192,215042,1,8,0:0:0:0:
256,192,215128,1,0,0:0:0:0:
256,192,215214,1,0,0:0:0:0:
256,192,215300,1,8,0:0:0:0:
256,192,215385,1,0,0:0:0:0:
256,192,215471,1,0,0:0:0:0:
256,192,215557,1,8,0:0:0:0:
256,192,215642,1,0,0:0:0:0:
256,192,215728,1,8,0:0:0:0:
256,192,215814,1,0,0:0:0:0:
256,192,215900,1,0,0:0:0:0:
256,192,215985,1,8,0:0:0:0:
256,192,216071,1,0,0:0:0:0:
256,192,216157,1,0,0:0:0:0:
256,192,216242,1,8,0:0:0:0:
256,192,216328,1,0,0:0:0:0:
256,192,216414,1,8,0:0:0:0:
256,192,216500,1,0,0:0:0:0:
256,192,216585,1,0,0:0:0:0:
256,192,216671,1,8,0:0:0:0:
256,192,216757,1,0,0:0:0:0:
256,192,216842,1,0,0:0:0:0:
256,192,216928,1,8,0:0:0:0:
256,192,217014,1,0,0:0:0:0:
256,192,217100,1,8,0:0:0:0:
256,192,217185,1,0,0:0:0:0:
256,192,217271,1,0,0:0:0:0:
256,192,217357,1,8,0:0:0:0:
256,192,217442,1,0,0:0:0:0:
256,192,217528,1,0,0:0:0:0:
256,192,217614,1,8,0:0:0:0:
256,192,217700,1,0,0:0:0:0:
256,192,217785,1,8,0:0:0:0:
256,192,217871,1,8,0:0:0:0:
256,192,217957,1,0,0:0:0:0:
256,192,218042,1,0,0:0:0:0:
256,192,218128,1,8,0:0:0:0:
256,192,218214,1,8,0:0:0:0:
256,192,218300,1,0,0:0:0:0:
256,192,218385,1,0,0:0:0:0:
256,192,218471,1,8,0:0:0:0:
256,192,218557,1,8,0:0:0:0:
256,192,218642,1,0,0:0:0:0:
256,192,218728,1,0,0:0:0:0:
256,192,218814,1,8,0:0:0:0:
256,192,218900,1,8,0:0:0:0:
256,192,218985,1,0,0:0:0:0:
256,192,219157,1,0,0:0:0:0:
256,192,219242,1,0,0:0:0:0:
256,192,219328,1,8,0:0:0:0:
256,192,219414,1,8,0:0:0:0:
256,192,219500,1,8,0:0:0:0:
256,192,219671,1,0,0:0:0:0:
256,192,219757,1,8,0:0:0:0:
256,192,219928,1,8,0:0:0:0:
256,192,220014,1,8,0:0:0:0:
256,192,220185,1,4,0:0:0:0:
256,192,220528,1,12,0:0:0:0:
256,192,221900,1,8,0:0:0:0:
256,192,223271,1,0,0:0:0:0:
256,192,224642,1,0,0:0:0:0:
256,192,225328,1,0,0:0:0:0:
256,192,226014,1,8,0:0:0:0:
256,192,227385,1,8,0:0:0:0:
256,192,228757,1,0,0:0:0:0:
256,192,229785,1,0,0:0:0:0:
256,192,230128,1,8,0:0:0:0:
256,192,230471,1,0,0:0:0:0:
256,192,230814,1,8,0:0:0:0:
256,192,231157,1,0,0:0:0:0:
256,192,231500,1,12,0:0:0:0:
256,192,231671,1,8,0:0:0:0:
256,192,231842,1,8,0:0:0:0:
256,192,232014,1,8,0:0:0:0:
256,192,232185,1,8,0:0:0:0:
256,192,232357,1,8,0:0:0:0:
256,192,232528,1,8,0:0:0:0:
256,192,232700,1,8,0:0:0:0:
256,192,232871,1,8,0:0:0:0:
256,192,233042,1,8,0:0:0:0:
256,192,233214,1,8,0:0:0:0:
256,192,233385,1,8,0:0:0:0:
256,192,233557,1,8,0:0:0:0:
256,192,233728,1,8,0:0:0:0:
256,192,233900,1,8,0:0:0:0:
256,192,234071,1,0,0:0:0:0:
256,192,234157,1,0,0:0:0:0:
256,192,234242,1,8,0:0:0:0:
256,192,234414,1,8,0:0:0:0:
256,192,234585,1,8,0:0:0:0:
256,192,234757,1,8,0:0:0:0:
256,192,234928,1,8,0:0:0:0:
256,192,235100,1,8,0:0:0:0:
256,192,235271,1,8,0:0:0:0:
256,192,235442,1,8,0:0:0:0:
256,192,235614,1,8,0:0:0:0:
256,192,235785,1,8,0:0:0:0:
256,192,235957,1,8,0:0:0:0:
256,192,236128,1,8,0:0:0:0:
256,192,236300,1,8,0:0:0:0:
256,192,236471,1,8,0:0:0:0:
256,192,236642,1,8,0:0:0:0:
256,192,236814,1,0,0:0:0:0:
256,192,236900,1,0,0:0:0:0:
256,192,236985,1,8,0:0:0:0:
256,192,237071,1,0,0:0:0:0:
256,192,237157,1,0,0:0:0:0:
256,192,237242,1,8,0:0:0:0:
256,192,237328,1,0,0:0:0:0:
256,192,237414,1,0,0:0:0:0:
256,192,237500,1,8,0:0:0:0:
256,192,237585,1,0,0:0:0:0:
256,192,237671,1,0,0:0:0:0:
256,192,237757,1,8,0:0:0:0:
256,192,237842,1,0,0:0:0:0:
256,192,237928,1,0,0:0:0:0:
256,192,238014,1,8,0:0:0:0:
256,192,238100,1,0,0:0:0:0:
256,192,238185,1,8,0:0:0:0:
256,192,238271,1,0,0:0:0:0:
256,192,238357,1,8,0:0:0:0:
256,192,238442,1,8,0:0:0:0:
256,192,238528,1,0,0:0:0:0:
256,192,238614,1,8,0:0:0:0:
256,192,238700,1,8,0:0:0:0:
256,192,238785,1,8,0:0:0:0:
256,192,238871,1,0,0:0:0:0:
256,192,238957,1,8,0:0:0:0:
256,192,239042,1,8,0:0:0:0:
256,192,239128,1,8,0:0:0:0:
256,192,239214,1,0,0:0:0:0:
256,192,239300,1,8,0:0:0:0:
256,192,239385,1,8,0:0:0:0:
256,192,239471,1,8,0:0:0:0:
256,192,239557,1,0,0:0:0:0:
256,192,239642,1,8,0:0:0:0:
256,192,239728,1,0,0:0:0:0:
256,192,239900,12,0,240928,0:0:0:0:
256,192,241100,5,0,0:0:0:0:
256,192,241442,1,8,0:0:0:0:
256,192,241785,1,0,0:0:0:0:
256,192,242042,1,8,0:0:0:0:
256,192,242300,1,8,0:0:0:0:
256,192,242471,1,0,0:0:0:0:
256,192,242557,1,8,0:0:0:0:
256,192,242642,1,0,0:0:0:0:
256,192,242728,1,0,0:0:0:0:
256,192,242814,1,8,0:0:0:0:
256,192,242900,1,0,0:0:0:0:
256,192,242985,1,0,0:0:0:0:
256,192,243071,1,8,0:0:0:0:
256,192,243157,1,0,0:0:0:0:
256,192,243242,1,0,0:0:0:0:
256,192,243328,1,8,0:0:0:0:
256,192,243414,1,8,0:0:0:0:
256,192,243500,1,0,0:0:0:0:
256,192,243671,1,8,0:0:0:0:
256,192,243842,1,12,0:0:0:0:
256,192,244014,1,0,0:0:0:0:
256,192,244100,1,8,0:0:0:0:
256,192,244185,1,8,0:0:0:0:
256,192,244271,1,0,0:0:0:0:
256,192,244357,1,0,0:0:0:0:
256,192,244528,1,8,0:0:0:0:
256,192,244614,1,0,0:0:0:0:
256,192,244785,1,8,0:0:0:0:
256,192,244871,1,0,0:0:0:0:
256,192,244957,1,0,0:0:0:0:
256,192,245042,1,8,0:0:0:0:
256,192,245214,1,0,0:0:0:0:
256,192,245385,1,8,0:0:0:0:
256,192,245471,1,0,0:0:0:0:
256,192,245557,1,0,0:0:0:0:
256,192,245642,1,8,0:0:0:0:
256,192,245728,1,8,0:0:0:0:
256,192,245900,1,0,0:0:0:0:
256,192,245985,1,8,0:0:0:0:
256,192,246157,1,8,0:0:0:0:
256,192,246242,1,0,0:0:0:0:
256,192,246328,1,0,0:0:0:0:
256,192,246414,1,8,0:0:0:0:
256,192,246585,1,0,0:0:0:0:
256,192,246757,1,8,0:0:0:0:
256,192,246842,1,0,0:0:0:0:
256,192,246928,1,0,0:0:0:0:
256,192,247014,1,8,0:0:0:0:
256,192,247100,1,0,0:0:0:0:
256,192,247271,1,8,0:0:0:0:
256,192,247357,1,8,0:0:0:0:
256,192,247442,1,0,0:0:0:0:
256,192,247528,1,8,0:0:0:0:
256,192,247614,1,0,0:0:0:0:
256,192,247785,1,8,0:0:0:0:
256,192,247871,1,0,0:0:0:0:
256,192,247957,1,0,0:0:0:0:
256,192,248042,1,8,0:0:0:0:
256,192,248128,1,0,0:0:0:0:
256,192,248214,1,0,0:0:0:0:
256,192,248300,1,8,0:0:0:0:
256,192,248471,1,0,0:0:0:0:
256,192,248557,1,8,0:0:0:0:
256,192,248642,1,0,0:0:0:0:
256,192,248728,1,0,0:0:0:0:
256,192,248814,1,8,0:0:0:0:
256,192,248900,1,0,0:0:0:0:
256,192,248985,1,8,0:0:0:0:
256,192,249071,1,8,0:0:0:0:
256,192,249157,1,8,0:0:0:0:
256,192,249242,1,8,0:0:0:0:
256,192,249328,1,0,0:0:0:0:
256,192,249500,1,8,0:0:0:0:
256,192,249585,1,8,0:0:0:0:
256,192,249671,1,0,0:0:0:0:
256,192,249757,1,0,0:0:0:0:
256,192,249842,1,8,0:0:0:0:
256,192,250014,1,0,0:0:0:0:
256,192,250100,1,8,0:0:0:0:
256,192,250185,1,0,0:0:0:0:
256,192,250271,1,8,0:0:0:0:
256,192,250442,1,0,0:0:0:0:
256,192,250528,1,8,0:0:0:0:
256,192,250700,1,0,0:0:0:0:
256,192,250871,1,8,0:0:0:0:
256,192,250957,1,8,0:0:0:0:
256,192,251042,1,0,0:0:0:0:
256,192,251128,1,8,0:0:0:0:
256,192,251214,1,0,0:0:0:0:
256,192,251385,1,8,0:0:0:0:
256,192,251471,1,0,0:0:0:0:
256,192,251557,1,0,0:0:0:0:
256,192,251642,1,8,0:0:0:0:
256,192,251814,1,0,0:0:0:0:
256,192,251900,1,8,0:0:0:0:
256,192,252071,1,0,0:0:0:0:
256,192,252242,1,8,0:0:0:0:
256,192,252328,1,0,0:0:0:0:
256,192,252414,1,0,0:0:0:0:
256,192,252500,1,8,0:0:0:0:
256,192,252585,1,0,0:0:0:0:
256,192,252757,1,8,0:0:0:0:
256,192,252842,1,8,0:0:0:0:
256,192,252928,1,0,0:0:0:0:
256,192,253014,1,8,0:0:0:0:
256,192,253100,1,0,0:0:0:0:
256,192,253271,1,8,0:0:0:0:
256,192,253357,1,8,0:0:0:0:
256,192,253442,1,0,0:0:0:0:
256,192,253528,1,8,0:0:0:0:
256,192,253614,1,8,0:0:0:0:
256,192,253700,1,0,0:0:0:0:
256,192,253785,1,8,0:0:0:0:
256,192,253871,1,0,0:0:0:0:
256,192,253957,1,0,0:0:0:0:
256,192,254042,1,8,0:0:0:0:
256,192,254128,1,0,0:0:0:0:
256,192,254214,1,0,0:0:0:0:
256,192,254300,1,8,0:0:0:0:
256,192,254385,1,0,0:0:0:0:
256,192,254471,1,8,0:0:0:0:
256,192,254557,1,8,0:0:0:0:
256,192,254642,1,8,0:0:0:0:
256,192,254728,1,8,0:0:0:0:
256,192,254814,1,0,0:0:0:0:
256,192,254985,1,0,0:0:0:0:
256,192,255071,1,8,0:0:0:0:
256,192,255157,1,8,0:0:0:0:
256,192,255242,1,0,0:0:0:0:
256,192,255328,1,0,0:0:0:0:
256,192,255500,1,8,0:0:0:0:
256,192,255585,1,0,0:0:0:0:
256,192,255757,1,8,0:0:0:0:
256,192,255842,1,0,0:0:0:0:
256,192,255928,1,0,0:0:0:0:
256,192,256014,1,8,0:0:0:0:
256,192,256185,1,0,0:0:0:0:
256,192,256357,1,8,0:0:0:0:
256,192,256442,1,0,0:0:0:0:
256,192,256528,1,0,0:0:0:0:
256,192,256614,1,8,0:0:0:0:
256,192,256700,1,8,0:0:0:0:
256,192,256871,1,0,0:0:0:0:
256,192,256957,1,8,0:0:0:0:
256,192,257128,1,8,0:0:0:0:
256,192,257214,1,0,0:0:0:0:
256,192,257300,1,0,0:0:0:0:
256,192,257385,1,8,0:0:0:0:
256,192,257557,1,0,0:0:0:0:
256,192,257728,1,8,0:0:0:0:
256,192,257814,1,0,0:0:0:0:
256,192,257900,1,0,0:0:0:0:
256,192,257985,1,8,0:0:0:0:
256,192,258071,1,0,0:0:0:0:
256,192,258242,1,8,0:0:0:0:
256,192,258328,1,8,0:0:0:0:
256,192,258414,1,0,0:0:0:0:
256,192,258500,1,8,0:0:0:0:
256,192,258585,1,0,0:0:0:0:
256,192,258757,1,8,0:0:0:0:
256,192,258842,1,0,0:0:0:0:
256,192,258928,1,0,0:0:0:0:
256,192,259014,1,8,0:0:0:0:
256,192,259100,1,0,0:0:0:0:
256,192,259185,1,0,0:0:0:0:
256,192,259271,1,8,0:0:0:0:
256,192,259442,1,0,0:0:0:0:
256,192,259528,1,8,0:0:0:0:
256,192,259614,1,0,0:0:0:0:
256,192,259700,1,0,0:0:0:0:
256,192,259785,1,8,0:0:0:0:
256,192,259871,1,0,0:0:0:0:
256,192,259957,1,8,0:0:0:0:
256,192,260042,1,8,0:0:0:0:
256,192,260128,1,8,0:0:0:0:
256,192,260214,1,8,0:0:0:0:
256,192,260300,1,0,0:0:0:0:
256,192,260471,1,8,0:0:0:0:
256,192,260557,1,8,0:0:0:0:
256,192,260642,1,0,0:0:0:0:
256,192,260728,1,0,0:0:0:0:
256,192,260814,1,8,0:0:0:0:
256,192,260985,1,0,0:0:0:0:
256,192,261071,1,8,0:0:0:0:
256,192,261157,1,8,0:0:0:0:
256,192,261242,1,8,0:0:0:0:
256,192,261328,1,0,0:0:0:0:
256,192,261414,1,0,0:0:0:0:
256,192,261500,1,8,0:0:0:0:
256,192,261585,1,8,0:0:0:0:
256,192,261671,1,0,0:0:0:0:
256,192,261757,1,8,0:0:0:0:
256,192,261842,1,8,0:0:0:0:
256,192,261928,1,0,0:0:0:0:
256,192,262014,1,8,0:0:0:0:
256,192,262100,1,0,0:0:0:0:
256,192,262185,1,8,0:0:0:0:
256,192,262271,1,8,0:0:0:0:
256,192,262357,1,0,0:0:0:0:
256,192,262442,1,0,0:0:0:0:
256,192,262528,1,8,0:0:0:0:
256,192,262614,1,8,0:0:0:0:
256,192,262700,1,0,0:0:0:0:
256,192,262785,1,8,0:0:0:0:
256,192,262871,1,8,0:0:0:0:
256,192,262957,1,8,0:0:0:0:
256,192,263042,1,0,0:0:0:0:
256,192,263214,1,8,0:0:0:0:
256,192,263300,1,0,0:0:0:0:
256,192,263385,1,0,0:0:0:0:
256,192,263471,1,8,0:0:0:0:
256,192,263557,1,0,0:0:0:0:
256,192,263728,1,8,0:0:0:0:
256,192,263814,1,8,0:0:0:0:
256,192,263900,1,0,0:0:0:0:
256,192,263985,1,8,0:0:0:0:
256,192,264071,1,0,0:0:0:0:
256,192,264242,1,8,0:0:0:0:
256,192,264328,1,8,0:0:0:0:
256,192,264414,1,0,0:0:0:0:
256,192,264500,1,8,0:0:0:0:
256,192,264585,1,0,0:0:0:0:
256,192,264671,1,0,0:0:0:0:
256,192,264757,1,8,0:0:0:0:
256,192,264842,1,0,0:0:0:0:
256,192,264928,1,8,0:0:0:0:
256,192,265014,1,8,0:0:0:0:
256,192,265100,1,8,0:0:0:0:
256,192,265271,1,8,0:0:0:0:
256,192,265357,1,8,0:0:0:0:
256,192,265442,1,8,0:0:0:0:
256,192,265614,1,0,0:0:0:0:
256,192,265785,1,12,0:0:0:0:
256,192,265957,1,0,0:0:0:0:
256,192,266042,1,8,0:0:0:0:
256,192,266128,1,0,0:0:0:0:
256,192,266214,1,0,0:0:0:0:
256,192,266300,1,8,0:0:0:0:
256,192,266385,1,0,0:0:0:0:
256,192,266471,1,0,0:0:0:0:
256,192,266557,1,8,0:0:0:0:
256,192,266728,1,0,0:0:0:0:
256,192,266814,1,8,0:0:0:0:
256,192,266985,1,0,0:0:0:0:
256,192,267071,1,8,0:0:0:0:
256,192,267157,1,8,0:0:0:0:
256,192,267242,1,0,0:0:0:0:
256,192,267328,1,0,0:0:0:0:
256,192,267414,1,8,0:0:0:0:
256,192,267500,1,0,0:0:0:0:
256,192,267671,1,8,0:0:0:0:
256,192,267757,1,0,0:0:0:0:
256,192,267842,1,0,0:0:0:0:
256,192,267928,1,8,0:0:0:0:
256,192,268014,1,8,0:0:0:0:
256,192,268100,1,0,0:0:0:0:
256,192,268185,1,8,0:0:0:0:
256,192,268357,1,0,0:0:0:0:
256,192,268442,1,0,0:0:0:0:
256,192,268528,1,8,0:0:0:0:
256,192,268614,1,0,0:0:0:0:
256,192,268700,1,0,0:0:0:0:
256,192,268785,1,8,0:0:0:0:
256,192,268871,1,0,0:0:0:0:
256,192,269042,1,8,0:0:0:0:
256,192,269128,1,0,0:0:0:0:
256,192,269214,1,0,0:0:0:0:
256,192,269300,1,8,0:0:0:0:
256,192,269385,1,0,0:0:0:0:
256,192,269471,1,0,0:0:0:0:
256,192,269557,1,8,0:0:0:0:
256,192,269728,1,0,0:0:0:0:
256,192,269814,1,8,0:0:0:0:
256,192,269900,1,8,0:0:0:0:
256,192,269985,1,0,0:0:0:0:
256,192,270157,1,8,0:0:0:0:
256,192,270242,1,0,0:0:0:0:
256,192,270414,1,8,0:0:0:0:
256,192,270500,1,8,0:0:0:0:
256,192,270585,1,0,0:0:0:0:
256,192,270671,1,8,0:0:0:0:
256,192,270757,1,0,0:0:0:0:
256,192,270842,1,0,0:0:0:0:
256,192,270928,1,8,0:0:0:0:
256,192,271014,1,0,0:0:0:0:
256,192,271100,1,8,0:0:0:0:
256,192,271271,1,8,0:0:0:0:
256,192,271357,1,0,0:0:0:0:
256,192,271442,1,0,0:0:0:0:
256,192,271528,1,8,0:0:0:0:
256,192,271614,1,0,0:0:0:0:
256,192,271785,1,8,0:0:0:0:
256,192,271871,1,8,0:0:0:0:
256,192,271957,1,0,0:0:0:0:
256,192,272042,1,8,0:0:0:0:
256,192,272128,1,8,0:0:0:0:
256,192,272300,1,8,0:0:0:0:
256,192,272471,1,0,0:0:0:0:
256,192,272557,1,8,0:0:0:0:
256,192,272642,1,8,0:0:0:0:
256,192,272814,1,0,0:0:0:0:
256,192,272900,1,8,0:0:0:0:
256,192,272985,1,0,0:0:0:0:
256,192,273071,1,0,0:0:0:0:
256,192,273157,1,8,0:0:0:0:
256,192,273328,1,0,0:0:0:0:
256,192,273414,1,8,0:0:0:0:
256,192,273500,1,0,0:0:0:0:
256,192,273585,1,0,0:0:0:0:
256,192,273671,1,8,0:0:0:0:
256,192,273757,1,0,0:0:0:0:
256,192,273842,1,8,0:0:0:0:
256,192,273928,1,8,0:0:0:0:
256,192,274014,1,0,0:0:0:0:
256,192,274185,1,0,0:0:0:0:
256,192,274271,1,8,0:0:0:0:
256,192,274357,1,0,0:0:0:0:
256,192,274442,1,8,0:0:0:0:
256,192,274528,1,0,0:0:0:0:
256,192,274700,1,0,0:0:0:0:
256,192,274785,1,8,0:0:0:0:
256,192,274871,1,0,0:0:0:0:
256,192,274957,1,0,0:0:0:0:
256,192,275042,1,8,0:0:0:0:
256,192,275128,1,8,0:0:0:0:
256,192,275214,1,0,0:0:0:0:
256,192,275300,1,0,0:0:0:0:
256,192,275385,1,8,0:0:0:0:
256,192,275557,1,0,0:0:0:0:
256,192,275642,1,8,0:0:0:0:
256,192,275728,1,0,0:0:0:0:
256,192,275814,1,8,0:0:0:0:
256,192,275900,1,8,0:0:0:0:
256,192,276071,1,8,0:0:0:0:
256,192,276157,1,8,0:0:0:0:
256,192,276242,1,0,0:0:0:0:
256,192,276328,1,0,0:0:0:0:
256,192,276414,1,8,0:0:0:0:
256,192,276500,1,0,0:0:0:0:
256,192,276585,1,8,0:0:0:0:
256,192,276757,1,12,0:0:0:0:
256,192,276928,1,0,0:0:0:0:
256,192,277014,1,0,0:0:0:0:
256,192,277100,1,8,0:0:0:0:
256,192,277185,1,0,0:0:0:0:
256,192,277271,1,0,0:0:0:0:
256,192,277442,1,8,0:0:0:0:
256,192,277614,1,0,0:0:0:0:
256,192,277700,1,0,0:0:0:0:
256,192,277785,1,8,0:0:0:0:
256,192,277871,1,8,0:0:0:0:
256,192,277957,1,0,0:0:0:0:
256,192,278042,1,0,0:0:0:0:
256,192,278128,1,8,0:0:0:0:
256,192,278300,1,0,0:0:0:0:
256,192,278385,1,0,0:0:0:0:
256,192,278471,1,8,0:0:0:0:
256,192,278557,1,8,0:0:0:0:
256,192,278642,1,0,0:0:0:0:
256,192,278814,1,8,0:0:0:0:
256,192,278985,1,0,0:0:0:0:
256,192,279071,1,8,0:0:0:0:
256,192,279242,1,0,0:0:0:0:
256,192,279328,1,8,0:0:0:0:
256,192,279414,1,0,0:0:0:0:
256,192,279500,1,8,0:0:0:0:
256,192,279671,1,0,0:0:0:0:
256,192,279757,1,0,0:0:0:0:
256,192,279842,1,8,0:0:0:0:
256,192,279928,1,0,0:0:0:0:
256,192,280014,1,0,0:0:0:0:
256,192,280185,1,8,0:0:0:0:
256,192,280357,1,0,0:0:0:0:
256,192,280442,1,0,0:0:0:0:
256,192,280528,1,8,0:0:0:0:
256,192,280614,1,8,0:0:0:0:
256,192,280700,1,0,0:0:0:0:
256,192,280785,1,0,0:0:0:0:
256,192,280871,1,8,0:0:0:0:
256,192,281042,1,0,0:0:0:0:
256,192,281128,1,0,0:0:0:0:
256,192,281214,1,8,0:0:0:0:
256,192,281300,1,8,0:0:0:0:
256,192,281385,1,0,0:0:0:0:
256,192,281557,1,8,0:0:0:0:
256,192,281728,1,0,0:0:0:0:
256,192,281814,1,8,0:0:0:0:
256,192,281900,1,0,0:0:0:0:
256,192,281985,1,0,0:0:0:0:
256,192,282071,1,8,0:0:0:0:
256,192,282157,1,0,0:0:0:0:
256,192,282242,1,8,0:0:0:0:
256,192,282414,1,0,0:0:0:0:
256,192,282500,1,8,0:0:0:0:
256,192,282585,1,0,0:0:0:0:
256,192,282671,1,8,0:0:0:0:
256,192,282757,1,0,0:0:0:0:
256,192,282842,1,0,0:0:0:0:
256,192,282928,1,8,0:0:0:0:
256,192,283014,1,8,0:0:0:0:
256,192,283100,1,0,0:0:0:0:
256,192,283185,1,8,0:0:0:0:
256,192,283271,1,0,0:0:0:0:
256,192,283357,1,0,0:0:0:0:
256,192,283442,1,8,0:0:0:0:
256,192,283528,1,8,0:0:0:0:
256,192,283614,1,0,0:0:0:0:
256,192,283700,1,0,0:0:0:0:
256,192,283785,1,8,0:0:0:0:
256,192,283871,1,0,0:0:0:0:
256,192,283957,1,0,0:0:0:0:
256,192,284042,1,8,0:0:0:0:
256,192,284128,1,0,0:0:0:0:
256,192,284214,1,0,0:0:0:0:
256,192,284300,1,8,0:0:0:0:
256,192,284385,1,0,0:0:0:0:
256,192,284471,1,8,0:0:0:0:
256,192,284557,1,8,0:0:0:0:
256,192,284642,1,0,0:0:0:0:
256,192,284728,1,0,0:0:0:0:
256,192,284814,1,8,0:0:0:0:
256,192,284985,1,4,0:0:0:0:
256,192,286357,1,8,0:0:0:0:
256,192,286700,1,8,0:0:0:0:
256,192,287042,1,8,0:0:0:0:
256,192,287128,1,8,0:0:0:0:
256,192,287214,1,8,0:0:0:0:
256,192,287300,1,8,0:0:0:0:
256,192,287385,1,0,0:0:0:0:
256,192,287728,1,12,0:0:0:0:
256,192,287900,1,0,0:0:0:0:
256,192,288071,1,8,0:0:0:0:
256,192,288157,1,0,0:0:0:0:
256,192,288242,1,8,0:0:0:0:
256,192,288328,1,0,0:0:0:0:
256,192,288414,1,0,0:0:0:0:
256,192,288585,1,8,0:0:0:0:
256,192,288671,1,8,0:0:0:0:
256,192,288757,1,8,0:0:0:0:
256,192,288928,1,0,0:0:0:0:
256,192,289014,1,0,0:0:0:0:
256,192,289100,1,8,0:0:0:0:
256,192,289271,1,0,0:0:0:0:
256,192,289442,1,8,0:0:0:0:
256,192,289528,1,8,0:0:0:0:
256,192,289614,1,0,0:0:0:0:
256,192,289700,1,0,0:0:0:0:
256,192,289785,1,8,0:0:0:0:
256,192,289957,1,0,0:0:0:0:
256,192,290128,1,8,0:0:0:0:
256,192,290300,1,8,0:0:0:0:
256,192,290385,1,8,0:0:0:0:
256,192,290471,1,0,0:0:0:0:
256,192,290642,1,0,0:0:0:0:
256,192,290814,1,8,0:0:0:0:
256,192,290900,1,8,0:0:0:0:
256,192,290985,1,0,0:0:0:0:
256,192,291071,1,0,0:0:0:0:
256,192,291157,1,8,0:0:0:0:
256,192,291328,1,0,0:0:0:0:
256,192,291414,1,8,0:0:0:0:
256,192,291585,1,0,0:0:0:0:
256,192,291671,1,8,0:0:0:0:
256,192,291757,1,0,0:0:0:0:
256,192,291842,1,8,0:0:0:0:
256,192,292014,1,0,0:0:0:0:
256,192,292100,1,0,0:0:0:0:
256,192,292185,1,8,0:0:0:0:
256,192,292271,1,0,0:0:0:0:
256,192,292357,1,8,0:0:0:0:
256,192,292528,1,8,0:0:0:0:
256,192,292614,1,0,0:0:0:0:
256,192,292700,1,0,0:0:0:0:
256,192,292785,1,0,0:0:0:0:
256,192,292871,1,8,0:0:0:0:
256,192,293042,1,8,0:0:0:0:
256,192,293128,1,8,0:0:0:0:
256,192,293214,1,0,0:0:0:0:
256,192,293385,1,8,0:0:0:0:
256,192,293557,1,0,0:0:0:0:
256,192,293642,1,0,0:0:0:0:
256,192,293728,1,8,0:0:0:0:
256,192,293814,1,8,0:0:0:0:
256,192,293900,1,0,0:0:0:0:
256,192,294071,1,8,0:0:0:0:
256,192,294242,1,0,0:0:0:0:
256,192,294328,1,0,0:0:0:0:
256,192,294414,1,8,0:0:0:0:
256,192,294500,1,0,0:0:0:0:
256,192,294585,1,0,0:0:0:0:
256,192,294757,1,8,0:0:0:0:
256,192,294928,1,0,0:0:0:0:
256,192,295014,1,0,0:0:0:0:
256,192,295100,1,8,0:0:0:0:
256,192,295271,1,0,0:0:0:0:
256,192,295442,1,8,0:0:0:0:
256,192,295528,1,8,0:0:0:0:
256,192,295614,1,0,0:0:0:0:
256,192,295785,1,0,0:0:0:0:
256,192,295871,1,0,0:0:0:0:
256,192,295957,1,8,0:0:0:0:
256,192,296128,1,0,0:0:0:0:
256,192,296300,1,8,0:0:0:0:
256,192,296385,1,8,0:0:0:0:
256,192,296471,1,0,0:0:0:0:
256,192,296557,1,8,0:0:0:0:
256,192,296642,1,0,0:0:0:0:
256,192,296814,1,8,0:0:0:0:
256,192,296985,1,0,0:0:0:0:
256,192,297071,1,0,0:0:0:0:
256,192,297157,1,8,0:0:0:0:
256,192,297242,1,0,0:0:0:0:
256,192,297328,1,8,0:0:0:0:
256,192,297500,1,0,0:0:0:0:
256,192,297671,1,8,0:0:0:0:
256,192,297842,1,0,0:0:0:0:
256,192,297928,1,0,0:0:0:0:
256,192,298014,1,8,0:0:0:0:
256,192,298185,1,0,0:0:0:0:
256,192,298528,1,0,0:0:0:0:
256,192,298700,1,12,0:0:0:0:
256,192,298871,1,0,0:0:0:0:
256,192,299042,1,8,0:0:0:0:
256,192,299128,1,0,0:0:0:0:
256,192,299214,1,8,0:0:0:0:
256,192,299300,1,0,0:0:0:0:
256,192,299385,1,0,0:0:0:0:
256,192,299557,1,8,0:0:0:0:
256,192,299642,1,8,0:0:0:0:
256,192,299728,1,8,0:0:0:0:
256,192,299900,1,0,0:0:0:0:
256,192,299985,1,0,0:0:0:0:
256,192,300071,1,8,0:0:0:0:
256,192,300242,1,0,0:0:0:0:
256,192,300414,1,8,0:0:0:0:
256,192,300500,1,8,0:0:0:0:
256,192,300585,1,0,0:0:0:0:
256,192,300671,1,0,0:0:0:0:
256,192,300757,1,8,0:0:0:0:
256,192,300928,1,0,0:0:0:0:
256,192,301100,1,8,0:0:0:0:
256,192,301271,1,8,0:0:0:0:
256,192,301357,1,8,0:0:0:0:
256,192,301442,1,0,0:0:0:0:
256,192,301614,1,0,0:0:0:0:
256,192,301785,1,8,0:0:0:0:
256,192,301871,1,8,0:0:0:0:
256,192,301957,1,0,0:0:0:0:
256,192,302042,1,0,0:0:0:0:
256,192,302128,1,8,0:0:0:0:
256,192,302300,1,0,0:0:0:0:
256,192,302385,1,8,0:0:0:0:
256,192,302557,1,0,0:0:0:0:
256,192,302642,1,8,0:0:0:0:
256,192,302728,1,0,0:0:0:0:
256,192,302814,1,8,0:0:0:0:
256,192,302985,1,0,0:0:0:0:
256,192,303071,1,0,0:0:0:0:
256,192,303157,1,8,0:0:0:0:
256,192,303242,1,0,0:0:0:0:
256,192,303328,1,8,0:0:0:0:
256,192,303500,1,8,0:0:0:0:
256,192,303585,1,0,0:0:0:0:
256,192,303671,1,0,0:0:0:0:
256,192,303757,1,0,0:0:0:0:
256,192,303842,1,8,0:0:0:0:
256,192,304014,1,8,0:0:0:0:
256,192,304100,1,8,0:0:0:0:
256,192,304185,1,0,0:0:0:0:
256,192,304357,1,8,0:0:0:0:
256,192,304528,1,0,0:0:0:0:
256,192,304614,1,0,0:0:0:0:
256,192,304700,1,8,0:0:0:0:
256,192,304785,1,8,0:0:0:0:
256,192,304871,1,0,0:0:0:0:
256,192,305042,1,8,0:0:0:0:
256,192,305214,1,0,0:0:0:0:
256,192,305300,1,0,0:0:0:0:
256,192,305385,1,8,0:0:0:0:
256,192,305471,1,0,0:0:0:0:
256,192,305557,1,8,0:0:0:0:
256,192,305728,1,0,0:0:0:0:
256,192,305814,1,0,0:0:0:0:
256,192,305900,1,8,0:0:0:0:
256,192,306071,1,8,0:0:0:0:
256,192,306157,1,8,0:0:0:0:
256,192,306242,1,0,0:0:0:0:
256,192,306414,1,8,0:0:0:0:
256,192,306585,1,8,0:0:0:0:
256,192,306671,1,0,0:0:0:0:
256,192,306757,1,8,0:0:0:0:
256,192,306842,1,8,0:0:0:0:
256,192,306928,1,0,0:0:0:0:
256,192,307100,1,8,0:0:0:0:
256,192,307185,1,8,0:0:0:0:
256,192,307271,1,0,0:0:0:0:
256,192,307442,1,8,0:0:0:0:
256,192,307614,1,8,0:0:0:0:
256,192,307785,1,8,0:0:0:0:
256,192,307871,1,8,0:0:0:0:
256,192,307957,1,0,0:0:0:0:
256,192,308128,1,8,0:0:0:0:
256,192,308300,1,12,0:0:0:0:
256,192,308642,1,8,0:0:0:0:
256,192,308985,1,8,0:0:0:0:
256,192,309328,1,8,0:0:0:0:
256,192,309414,1,8,0:0:0:0:
256,192,309500,1,8,0:0:0:0:
256,192,309671,1,4,0:0:0:0:
256,192,310014,1,8,0:0:0:0:
256,192,310357,1,0,0:0:0:0:
256,192,310528,1,0,0:0:0:0:
256,192,310700,1,8,0:0:0:0:
256,192,311042,1,0,0:0:0:0:
256,192,311214,1,0,0:0:0:0:
256,192,311385,1,8,0:0:0:0:
256,192,311557,1,0,0:0:0:0:
256,192,311728,1,0,0:0:0:0:
256,192,311900,1,0,0:0:0:0:
256,192,312071,1,8,0:0:0:0:
256,192,312414,1,0,0:0:0:0:
256,192,312757,1,8,0:0:0:0:
256,192,313100,1,0,0:0:0:0:
256,192,313271,1,0,0:0:0:0:
256,192,313442,1,8,0:0:0:0:
256,192,313785,1,0,0:0:0:0:
256,192,313957,1,0,0:0:0:0:
256,192,314128,1,8,0:0:0:0:
256,192,314300,1,8,0:0:0:0:
256,192,314471,1,0,0:0:0:0:
256,192,314642,1,8,0:0:0:0:
256,192,314814,1,8,0:0:0:0:
256,192,314985,1,8,0:0:0:0:
256,192,315157,1,0,0:0:0:0:
256,192,315500,1,8,0:0:0:0:
256,192,315842,1,0,0:0:0:0:
256,192,316014,1,0,0:0:0:0:
256,192,316185,1,8,0:0:0:0:
256,192,316528,1,0,0:0:0:0:
256,192,316700,1,0,0:0:0:0:
256,192,316871,1,8,0:0:0:0:
256,192,317042,1,0,0:0:0:0:
256,192,317214,1,0,0:0:0:0:
256,192,317385,1,0,0:0:0:0:
256,192,317557,1,8,0:0:0:0:
256,192,317900,1,0,0:0:0:0:
256,192,318242,1,8,0:0:0:0:
256,192,318585,1,0,0:0:0:0:
256,192,318757,1,0,0:0:0:0:
256,192,318928,1,8,0:0:0:0:
256,192,319271,1,0,0:0:0:0:
256,192,319442,1,0,0:0:0:0:
256,192,319614,1,8,0:0:0:0:
256,192,319785,1,0,0:0:0:0:
256,192,320128,1,8,0:0:0:0:
256,192,320300,1,8,0:0:0:0:
256,192,320471,1,8,0:0:0:0:
256,192,320642,1,4,0:0:0:0:
256,192,320985,1,8,0:0:0:0:
256,192,321157,1,8,0:0:0:0:
256,192,321328,1,0,0:0:0:0:
256,192,321671,1,8,0:0:0:0:
256,192,322014,1,0,0:0:0:0:
256,192,322185,1,0,0:0:0:0:
256,192,322357,1,8,0:0:0:0:
256,192,322700,1,0,0:0:0:0:
256,192,322871,1,0,0:0:0:0:
256,192,323042,1,8,0:0:0:0:
256,192,323214,1,8,0:0:0:0:
256,192,323385,1,0,0:0:0:0:
256,192,323728,1,8,0:0:0:0:
256,192,323900,1,8,0:0:0:0:
256,192,324071,1,0,0:0:0:0:
256,192,324414,1,8,0:0:0:0:
256,192,324757,1,0,0:0:0:0:
256,192,324928,1,0,0:0:0:0:
256,192,325100,1,8,0:0:0:0:
256,192,325442,1,0,0:0:0:0:
256,192,325614,1,8,0:0:0:0:
256,192,325785,1,8,0:0:0:0:
256,192,325957,1,8,0:0:0:0:
256,192,326128,1,0,0:0:0:0:
256,192,326471,1,8,0:0:0:0:
256,192,326642,1,8,0:0:0:0:
256,192,326814,1,0,0:0:0:0:
256,192,327157,1,8,0:0:0:0:
256,192,327500,1,0,0:0:0:0:
256,192,327671,1,0,0:0:0:0:
256,192,327842,1,8,0:0:0:0:
256,192,328185,1,0,0:0:0:0:
256,192,328357,1,0,0:0:0:0:
256,192,328528,1,8,0:0:0:0:
256,192,328700,1,0,0:0:0:0:
256,192,328871,1,8,0:0:0:0:
256,192,329042,1,8,0:0:0:0:
256,192,329128,1,8,0:0:0:0:
256,192,329214,1,0,0:0:0:0:
256,192,329385,1,8,0:0:0:0:
256,192,329557,1,8,0:0:0:0:
256,192,329728,1,8,0:0:0:0:
256,192,329814,1,8,0:0:0:0:
256,192,329900,1,0,0:0:0:0:
256,192,330071,1,8,0:0:0:0:
256,192,330242,1,12,0:0:0:0:
256,192,330585,1,8,0:0:0:0:
256,192,330928,1,8,0:0:0:0:
256,192,331271,1,8,0:0:0:0:
256,192,331442,1,0,0:0:0:0:
256,192,331614,1,12,0:0:0:0:
256,192,331785,12,0,334357,0:0:0:0:
