osu file format v12

[General]
AudioFilename: Tinh Ve Noi Dau.mp3
AudioLeadIn: 0
PreviewTime: -1
Countdown: 0
SampleSet: Soft
StackLeniency: 0.7
Mode: 0
LetterboxInBreaks: 1

[Editor]
DistanceSpacing: 1.5
BeatDivisor: 4
GridSize: 8

[Metadata]
Title:Tinh Ve Noi Dau (Where Do We Go)
TitleUnicode:Tinh Ve Noi Dau (Where Do We Go)
Artist:Thanh Bui,Tata Young
ArtistUnicode:Thanh Bui,Tata Young
Creator:Tai_Hua
Version:Normal
Source:Viet song
Tags:
BeatmapID:234669
BeatmapSetID:85387

[Difficulty]
HPDrainRate:5
CircleSize:5
OverallDifficulty:5
ApproachRate:5
SliderMultiplier:1.40000000596046
SliderTickRate:1

[Events]
//Background and Video events
0,0,"images.jpg",0,0
//Break Periods
//Storyboard Layer 0 (Background)
//Storyboard Layer 1 (Fail)
//Storyboard Layer 2 (Pass)
//Storyboard Layer 3 (Foreground)
//Storyboard Sound Samples
//Background Colour Transformations
3,100,163,162,255

[TimingPoints]
33885.6580815117,1016.94915254237,4,2,1,100,1,0

[Colours]
Combo1 : 255,128,0
Combo2 : 0,200,0
Combo3 : 170,170,255
Combo4 : 200,0,200
Combo5 : 255,255,0
Combo6 : 200,0,0

[HitObjects]
40,128,12861,1,2,0:0:0:0:
56,184,14055,2,0,B|100:242|229:214|295:322,1,280
320,264,17360,2,0,B|291:198|187:247|67:104,1,280.000001192092
144,88,20665,2,0,P|285:113|284:72,1,245.00000104308
288,32,23461,2,0,P|372:148|289:169,1,280.000001192092
304,216,26767,2,0,P|249:307|128:224,1,280.000001192092
160,184,29817,2,0,B|39:182|39:174|12:119|41:62|154:80|170:79,1,280.000001192092
216,72,33122,2,0,B|359:77|355:204|203:207,1,280.000001192092
176,160,36173,2,0,B|96:240|96:240|192:240|200:296,1,210.000000894069
240,272,37953,2,0,L|240:344|240:344,2,70.000000298023
296,240,39478,2,0,L|296:352|296:352,2,105.000000447034
256,192,41662,1,2,0:0:0:0:
128,88,44055,6,0,B|152:184|208:184|224:72,1,175.000000745057
272,64,45580,5,0,0:0:0:0:
320,96,45834,2,0,B|320:208|248:256|112:256,1,280.000001192092
160,128,50411,5,0,0:0:0:0:
256,192,51428,1,10,0:0:0:0:
256,192,51682,1,10,0:0:0:0:
256,192,51936,1,10,0:0:0:0:
208,136,52190,2,0,B|264:120|264:120|320:144,2,105.000000447034
120,168,54987,2,0,L|120:328,1,140.000000596046
176,304,56258,2,0,B|176:313|176:201|176:129,1,175.000000745057
184,72,58292,2,0,B|432:48|408:160|408:280,1,350.000001490115
352,256,61343,1,2,0:0:0:0:
344,200,61597,2,0,B|328:112|264:96|184:120|184:192,1,245.00000104308
136,168,64394,2,0,L|264:72,2,140.000000596046
88,136,67699,2,0,L|256:248,2,175.000000745057
144,120,71512,2,0,L|256:120,2,105.000000447034
144,120,73292,1,0,0:0:0:0:
144,176,74055,2,0,L|288:176,2,140.000000596046
144,104,76597,1,0,0:0:0:0:
208,104,76851,1,0,0:0:0:0:
272,104,77105,1,0,0:0:0:0:
240,40,78122,2,0,L|152:40,1,70.000000298023
144,104,79648,1,0,0:0:0:0:
200,104,79902,1,0,0:0:0:0:
256,104,80156,1,0,0:0:0:0:
272,160,81173,2,0,L|120:160|120:160,1,140.000000596046
72,160,82953,1,0,0:0:0:0:
72,216,83207,1,0,0:0:0:0:
72,272,83461,1,0,0:0:0:0:
128,272,84478,2,0,L|208:192,1,105.000000447034
208,144,86767,2,0,B|288:144|312:224|288:272|216:240|192:208|352:136,1,280.000001192092
328,96,89309,6,0,B|256:72|256:72|192:96,2,140.000000596046
256,128,92868,2,0,L|256:288,2,140.000000596046
200,128,96173,2,0,B|200:208|200:208|320:208|320:208|320:112,1,280.000001192092
256,128,99478,2,0,L|256:240,2,105.000000447034
200,128,102275,2,0,B|192:48|192:48|312:48|312:48|312:136,1,280.000001192092
256,104,105326,2,0,B|224:160|224:160|256:192|256:192|256:240|256:240|312:240|312:240|344:200|344:200|344:144,1,315.000001341103
344,96,108885,2,0,P|256:40|176:160,1,245.00000104308
160,184,111682,2,0,P|70:137|151:36,1,245.00000104308
192,56,113716,6,0,B|135:116|212:225|231:177|289:197|247:96|386:110|171:96|235:33|334:-23|442:50|355:171,1,490.000002086161
304,192,119817,2,0,B|168:176|264:248|232:264|192:208|200:328|280:280|320:344|336:304|360:232|368:256|384:280|464:280,1,350.000001490115
472,248,122868,2,0,L|472:16,1,210.000000894069
416,48,124902,2,0,L|336:48,3,70.000000298023
304,80,127190,1,0,0:0:0:0:
272,120,127444,1,0,0:0:0:0:
240,160,127699,2,0,B|64:160|64:160|64:240,1,245.00000104308
112,232,130750,2,0,L|256:232,1,140.000000596046
256,280,132021,2,0,L|32:280,1,210.000000894069
40,232,134309,2,0,B|80:72|120:48|296:56,1,350.000001490115
304,104,137360,1,2,0:0:0:0:
256,104,137614,2,0,B|136:104|96:152|88:272,1,245.00000104308
88,296,140156,2,0,L|248:296,2,140.000000596046
88,352,143461,2,0,L|264:352,2,175.000000745057
40,352,147275,2,0,L|40:216,2,105.000000447034
96,352,149055,1,0,0:0:0:0:
149,350,149817,2,0,B|218:350|218:350|216:280,2,140.000000596046
152,288,152360,1,0,0:0:0:0:
152,232,152614,1,0,0:0:0:0:
152,176,152868,1,0,0:0:0:0:
154,120,153885,2,0,L|224:120,1,70.000000298023
224,176,155411,1,0,0:0:0:0:
280,176,155665,1,0,0:0:0:0:
336,176,155919,1,0,0:0:0:0:
392,176,156936,2,0,L|392:336,1,140.000000596046
336,312,158716,1,0,0:0:0:0:
280,312,158970,1,0,0:0:0:0:
224,312,159224,1,0,0:0:0:0:
168,312,160241,2,0,L|40:312,1,105.000000447034
64,256,162529,2,0,B|152:160|136:128|80:112|56:168|176:264,1,280.000001192092
208,224,165072,5,0,0:0:0:0:
248,184,165326,5,0,0:0:0:0:
288,144,165580,5,0,0:0:0:0:
320,96,166597,2,0,B|352:80|352:56|288:32,1,70.000000298023
264,48,168122,5,0,0:0:0:0:
208,48,168377,5,0,0:0:0:0:
152,48,168631,5,0,0:0:0:0:
96,48,169648,2,0,B|56:56|32:96|56:136|104:144,1,140.000000596046
144,168,171428,5,0,0:0:0:0:
176,208,171682,1,0,0:0:0:0:
208,248,171936,1,0,0:0:0:0:
240,288,172953,6,0,B|256:320|280:320|304:320|328:320|336:272,1,105.000000447034
328,248,174987,2,0,B|432:136|432:136|328:72,1,245.00000104308
304,88,177021,6,0,L|232:88|232:88,2,70.000000298023
304,136,178800,2,0,L|304:256,2,105.000000447034
256,192,180834,1,2,0:0:0:0:
256,240,183122,2,0,B|256:352|256:352|0:352,2,350.000001490115
184,112,189478,1,8,0:0:0:0:
184,160,190241,1,8,0:0:0:0:
224,136,191004,2,8,L|264:136,2,35.0000001490115
224,192,191767,1,8,0:0:0:0:
224,240,192021,1,8,0:0:0:0:
264,216,192275,2,8,B|376:216|376:216|376:280,1,175.000000745057
328,272,194055,2,0,B|64:272|64:272|64:216|64:216|104:216,1,350.000001490115
144,216,197105,2,0,B|144:160|144:160|80:160|80:160|80:120,1,140.000000596046
80,88,198377,2,0,B|120:88|120:88|144:112|144:112|192:112|192:112|192:184,1,175.000000745057
192,208,200411,2,0,B|256:208|256:208|256:64|256:64|152:64|152:64|152:16,1,350.000001490115
104,24,203461,1,0,0:0:0:0:
104,72,203716,2,0,B|104:112|104:112|208:112|208:112|208:168|208:168|128:168,1,280.000001192092
80,168,206512,2,0,B|80:232|80:232|152:232|152:232|184:232,2,140.000000596046
80,120,209817,2,0,B|152:120|152:192|152:192|224:192,2,175.000000745057
80,168,213377,2,0,L|80:280,2,105.000000447034
80,120,215156,1,0,0:0:0:0:
80,72,216173,2,0,B|136:72|136:72|136:168,2,140.000000596046
80,24,218716,1,0,0:0:0:0:
128,24,218970,5,0,0:0:0:0:
176,24,219224,5,0,0:0:0:0:
208,56,219733,2,0,L|304:160,1,140.000000596046
304,208,221767,1,0,0:0:0:0:
352,208,222021,5,0,0:0:0:0:
400,208,222275,5,0,0:0:0:0:
448,208,223038,2,0,L|448:352,1,140.000000596046
400,344,225072,1,0,0:0:0:0:
352,344,225326,1,0,0:0:0:0:
304,344,225580,1,0,0:0:0:0:
256,344,226597,2,0,L|256:208,1,105.000000447034
256,192,228885,2,0,L|96:192,2,140.000000596046
304,192,231173,6,0,L|360:192,3,35.0000001490115
384,192,232953,2,0,B|384:120|384:120|304:120,1,140.000000596046
320,168,234478,2,0,L|272:168,3,35.0000001490115
240,168,236004,2,0,B|240:240|240:240|168:240,1,140.000000596046
168,192,237529,2,0,L|168:144,3,35.0000001490115
168,112,238546,2,0,L|448:112,1,280.000001192092
448,160,241343,2,0,L|168:160,1,280.000001192092
256,192,243631,12,0,251511,0:0:0:0:
