osu file format v14

[General]
AudioFilename: Thaehan - Power Up - 04 Higitus Figitus.mp3
AudioLeadIn: 0
PreviewTime: 54096
Countdown: 0
SampleSet: Soft
StackLeniency: 0.3
Mode: 0
LetterboxInBreaks: 0
WidescreenStoryboard: 0

[Editor]
Bookmarks: 54096,68302
DistanceSpacing: 1.6
BeatDivisor: 6
GridSize: 4
TimelineZoom: 4.9

[Metadata]
Title:Higitus Figitus
TitleUnicode:Higitus Figitus
Artist:Thaehan
ArtistUnicode:Thaehan
Creator:DeRandom Otaku
Version:Advanced
Source:
Tags:loki power up ep Walt Disney Alfred Pasquali French Merlin l'Enchanteur The Sword in the Stone featured artist
BeatmapID:1483779
BeatmapSetID:700977

[Difficulty]
HPDrainRate:4.3
CircleSize:3.4
OverallDifficulty:4.8
ApproachRate:6
SliderMultiplier:1.5
SliderTickRate:1

[Events]
//Background and Video events
0,0,"BG.jpg",0,0
//Break Periods
2,69911,85421
//Storyboard Layer 0 (Background)
//Storyboard Layer 1 (Fail)
//Storyboard Layer 2 (Pass)
//Storyboard Layer 3 (Foreground)
//Storyboard Sound Samples

[TimingPoints]
15782,445.500445500445,4,2,0,10,1,0
16227,-100,4,2,0,20,0,0
16673,-100,4,2,0,25,0,0
17118,-100,4,2,0,30,0,0
17564,-100,4,2,0,40,0,0
18009,-100,4,2,0,48,0,0
18456,445.500445500445,4,2,0,65,1,0
25584,-100,4,2,0,65,0,0
29148,-100,4,2,0,65,0,0
32712,-100,4,2,0,65,0,0
39394,-100,4,2,0,65,0,0
39840,-100,4,2,0,65,0,0
45186,-100,4,2,0,45,0,0
46522,-100,4,2,0,65,0,0
46968,-100,4,2,0,60,0,0
50829,-100,4,2,0,55,0,0
52759,-100,4,2,0,40,0,0
53650,-100,4,2,0,40,0,0
54096,-100,4,2,0,65,0,0
61224,-100,4,2,0,65,0,0
64788,-100,4,2,0,65,0,0
67461,-100,4,2,0,65,0,0
86471,445.500445500445,4,2,0,50,1,0
86693,-100,4,2,0,5,0,0
86768,445.500445500445,4,2,0,50,1,0
93450,-100,4,2,0,50,0,0
93896,-100,4,2,0,50,0,0
99242,-100,4,2,0,50,0,0
100578,-100,4,2,0,50,0,0
101024,-100,4,2,0,50,0,0
104885,-100,4,2,0,45,0,0
106815,-100,4,2,0,35,0,0
107706,-100,4,2,0,55,0,0

[Colours]
Combo1 : 255,0,0
Combo2 : 0,128,192
Combo3 : 0,234,234
Combo4 : 128,64,64

[HitObjects]
256,192,15781,12,12,18009,0:0:0:0:
66,261,18456,6,0,L|185:253,1,100,6|0,1:3|0:0,0:0:0:0:
245,251,18901,2,0,P|254:203|233:143,1,100,8|0,0:0|0:0,0:0:0:0:
188,93,19347,2,0,L|304:95,1,100,0|0,1:0|0:0,0:0:0:0:
355,51,19792,1,8,0:0:0:0:
115,36,20238,6,0,P|97:90|111:147,1,100,0|0,1:0|0:0,0:0:0:0:
154,193,20683,2,0,P|171:239|161:288,1,100,8|0,0:0|0:0,0:0:0:0:
132,362,21129,2,0,L|254:360,1,100,0|0,1:0|0:0,0:0:0:0:
310,376,21574,1,8,0:0:0:0:
483,209,22020,6,0,B|483:159|483:159|461:105,1,100,0|0,1:0|0:0,0:0:0:0:
389,85,22465,2,0,P|362:124|310:141,1,100,8|0,0:0|0:0,0:0:0:0:
246,97,22911,2,0,L|131:103,1,100,0|0,1:0|0:0,0:0:0:0:
83,52,23356,1,8,0:0:0:0:
53,291,23802,6,0,P|90:326|149:325,1,100,0|0,1:0|0:0,0:0:0:0:
171,257,24247,2,0,P|219:261|255:295,1,100,8|0,0:0|0:0,0:0:0:0:
290,367,24693,2,0,B|341:371|341:371|403:352,1,100,0|0,1:0|0:0,0:0:0:0:
464,339,25138,2,0,P|455:316|440:297,1,50,10|2,0:0|0:0,0:0:0:0:
363,272,25435,1,2,0:0:0:0:
363,272,25584,6,0,L|371:154,1,100,0|0,1:0|0:0,0:0:0:0:
449,172,26029,2,0,L|441:54,1,100,8|0,0:0|0:0,0:0:0:0:
373,30,26475,2,0,P|324:41|266:29,1,100,0|0,1:0|0:0,0:0:0:0:
198,12,26920,1,8,1:2:0:0:
242,171,27217,1,0,1:0:0:0:
242,171,27366,6,0,L|234:291,1,100,0|0,1:0|0:0,0:0:0:0:
270,342,27811,2,0,P|225:321|161:321,1,100,8|0,0:0|0:0,0:0:0:0:
104,357,28257,2,0,P|95:318|119:258,1,100,0|0,1:0|0:0,0:0:0:0:
134,185,28702,2,0,L|80:187,1,50,10|2,0:0|0:0,0:0:0:0:
11,151,28999,1,2,0:0:0:0:
11,151,29148,6,0,P|11:101|37:48,1,100,0|0,1:0|0:0,0:0:0:0:
104,25,29593,2,0,P|154:25|207:51,1,100,8|0,0:0|0:0,0:0:0:0:
247,109,30039,2,0,P|292:128|342:128,1,100,0|0,1:0|0:0,0:0:0:0:
415,96,30484,1,8,0:0:0:0:
414,255,30781,1,0,1:0:0:0:
414,255,30930,5,0,1:0:0:0:
299,366,31227,1,0,1:0:0:0:
299,366,31375,2,0,B|289:320|289:320|295:263,1,100,8|0,0:0|0:0,0:0:0:0:
320,191,31821,2,0,P|268:197|209:188,1,100,2|0,0:0|0:0,0:0:0:0:
147,160,32266,2,0,P|125:168|97:184,1,50,2|2,1:2|1:2,0:0:0:0:
55,246,32563,1,2,1:2:0:0:
55,246,32712,6,0,P|17:306|48:378,2,150,4|0|0,1:2|1:0|1:0,0:0:0:0:
107,93,33900,1,0,0:0:0:0:
107,93,34048,2,0,B|155:79|155:79|215:90,1,100,2|2,1:2|0:0,0:0:0:0:
253,151,34494,6,0,L|412:141,2,150,0|0|0,1:0|1:0|1:0,0:0:0:0:
98,191,35682,1,0,0:0:0:0:
98,191,35830,2,0,P|113:236|94:297,1,100,0|2,1:0|0:0,0:0:0:0:
83,364,36276,5,2,1:2:0:0:
208,264,36573,2,0,L|202:207,1,50,2|2,0:0|1:2,0:0:0:0:
333,306,37018,2,0,L|327:249,1,50,2|2,0:0|1:2,0:0:0:0:
458,348,37464,2,0,L|452:291,1,50,2|2,0:0|1:2,0:0:0:0:
351,174,37909,1,2,0:0:0:0:
351,174,38058,6,0,P|351:129|379:76,1,100,2|2,1:2|1:2,0:0:0:0:
425,18,38503,2,0,L|313:24,1,100,2|2,1:2|0:2,0:0:0:0:
245,35,38949,1,2,1:2:0:0:
112,125,39246,1,0,0:0:0:0:
112,125,39394,2,0,B|117:153|117:153|111:173|111:173|119:191|107:235,1,100,8|0,1:1|0:0,0:0:0:0:
155,289,39840,6,0,B|209:291|243:264|243:264|311:293,1,150,6|8,1:2|0:0,0:0:0:0:
61,343,40731,1,0,1:0:0:0:
31,192,41028,1,0,0:0:0:0:
31,192,41176,2,0,P|39:148|39:84,1,100,10|2,0:0|0:0,0:0:0:0:
99,39,41622,6,0,B|167:73|167:73|194:146,1,150,0|8,1:0|0:0,0:0:0:0:
59,342,42513,1,0,1:0:0:0:
31,192,42810,1,0,0:0:0:0:
31,192,42958,2,0,P|77:213|137:213,1,100,8|2,0:0|0:0,0:0:0:0:
206,212,43404,5,2,1:2:0:0:
311,332,43701,2,0,L|241:329,1,50,2|10,0:0|0:0,0:0:0:0:
382,225,44146,2,0,L|312:222,1,50,2|2,0:0|1:2,0:0:0:0:
453,118,44592,2,0,L|383:115,1,50,2|10,0:0|0:2,0:0:0:0:
243,132,45037,1,2,0:0:0:0:
243,132,45186,6,0,B|173:96|153:18|153:18|173:97|116:167,1,300,2|2,0:1|0:0,0:0:0:0:
192,305,46374,1,0,0:0:0:0:
192,305,46522,2,0,B|214:301|238:285|238:285|255:295|298:298,1,100,8|0,0:1|1:0,0:0:0:0:
366,292,46968,5,0,1:0:0:0:
366,52,47413,1,0,1:0:0:0:
125,52,47859,1,0,1:0:0:0:
125,291,48304,1,2,1:2:0:0:
125,291,48453,2,0,P|89:292|62:285,1,50,2|2,0:0|0:0,0:0:0:0:
18,232,48750,5,0,1:0:0:0:
256,185,49195,1,0,1:0:0:0:
494,232,49641,2,0,L|487:167,2,50,2|2|2,1:2|0:0|0:0,0:0:0:0:
423,269,50086,1,0,1:0:0:0:
423,269,50235,2,0,L|417:318,1,50,0|0,1:0|1:0,0:0:0:0:
360,375,50532,5,2,1:2:0:0:
269,242,50829,2,0,P|275:271|277:303,1,50,2|2,0:0|0:0,0:0:0:0:
176,166,51274,2,0,P|182:195|184:227,1,50,2|2,1:2|1:2,0:0:0:0:
83,90,51720,2,0,P|89:119|91:151,1,50,2|2,0:0|0:0,0:0:0:0:
46,293,52165,1,2,1:2:0:0:
46,293,52314,6,0,B|85:276|118:291|118:291|148:307|198:292,2,150,2|0|0,1:2|0:0|0:0,0:0:0:0:
283,328,53650,2,0,B|286:282|286:282|280:276|280:276|285:214,1,100,8|0,0:1|1:0,0:0:0:0:
268,151,54096,6,0,L|381:164,1,100,6|0,1:3|0:0,0:0:0:0:
433,207,54541,2,0,P|417:159|427:98,1,100,8|0,0:0|0:0,0:0:0:0:
429,30,54987,2,0,L|319:29,1,100,0|0,1:0|0:0,0:0:0:0:
249,30,55432,1,8,0:0:0:0:
94,87,55878,6,0,B|109:138|109:138|92:198,1,100,0|0,1:0|0:0,0:0:0:0:
19,203,56323,2,0,B|4:254|4:254|21:314,1,100,8|0,0:0|0:0,0:0:0:0:
73,355,56769,2,0,P|123:335|174:338,1,100,0|0,1:0|0:0,0:0:0:0:
245,355,57214,1,8,0:0:0:0:
460,334,57660,6,0,B|454:277|469:292|457:232,1,100,0|0,1:0|0:0,0:0:0:0:
457,154,58105,2,0,P|419:135|347:139,1,100,8|0,0:0|0:0,0:0:0:0:
306,192,58551,2,0,P|285:148|296:90,1,100,0|0,1:0|0:0,0:0:0:0:
285,19,58996,1,8,0:0:0:0:
47,52,59442,6,0,L|51:162,1,100,0|0,1:0|0:0,0:0:0:0:
10,221,59887,2,0,P|52:233|103:212,1,100,8|0,0:0|0:0,0:0:0:0:
173,175,60333,2,0,P|152:219|161:272,1,100,0|0,1:0|0:0,0:0:0:0:
226,311,60778,2,0,P|249:299|265:278,1,50,10|2,0:0|0:0,0:0:0:0:
280,205,61075,1,2,0:0:0:0:
280,205,61224,6,0,P|283:152|288:87,1,100,0|0,1:0|0:0,0:0:0:0:
248,29,61669,2,0,P|198:25|147:27,1,100,8|0,0:0|0:0,0:0:0:0:
70,45,62115,2,0,P|80:96|80:143,1,100,0|0,1:0|0:0,0:0:0:0:
23,200,62560,2,0,P|23:249|32:298,1,100,8|0,0:0|1:0,0:0:0:0:
89,355,63006,6,0,B|120:344|120:344|198:352,1,100,0|0,1:0|0:0,0:0:0:0:
261,377,63451,2,0,B|267:310|267:310|256:279,1,100,8|0,0:0|0:0,0:0:0:0:
223,205,63897,2,0,B|212:174|212:174|218:107,1,100,0|0,1:0|0:0,0:0:0:0:
263,41,64342,2,0,P|239:31|211:29,1,50,10|2,0:0|0:0,0:0:0:0:
135,35,64639,1,2,0:0:0:0:
135,35,64788,6,0,P|83:18|36:34,1,100,0|0,1:0|0:0,0:0:0:0:
84,98,65233,2,0,B|92:138|92:138|84:213,1,100,8|0,0:0|0:0,0:0:0:0:
29,253,65679,2,0,L|38:371,1,100,0|0,1:0|0:0,0:0:0:0:
115,366,66124,1,8,0:0:0:0:
274,352,66421,1,0,1:0:0:0:
274,352,66570,5,0,1:0:0:0:
425,300,66867,1,0,1:0:0:0:
425,300,67015,2,0,P|426:250|404:203,1,100,8|0,0:0|0:0,0:0:0:0:
351,147,67461,2,0,P|301:158|243:148,1,100,2|0,0:0|0:0,0:0:0:0:
182,114,67906,2,0,P|173:145|177:176,1,50,2|2,1:2|1:2,0:0:0:0:
221,227,68203,1,2,1:2:0:0:
223,228,86471,5,2,0:0:0:0:
329,347,86768,6,0,P|403:348|466:302,2,150,4|0|0,1:2|1:0|1:0,0:0:0:0:
223,228,87956,1,0,0:0:0:0:
223,228,88104,2,0,P|208:181|229:122,1,100,2|2,1:2|0:0,0:0:0:0:
288,180,88550,6,0,L|448:185,2,150,0|0|0,1:0|1:0|1:0,0:0:0:0:
139,239,89738,1,0,0:0:0:0:
139,239,89886,2,0,P|154:284|135:345,1,100,0|2,1:0|0:0,0:0:0:0:
75,289,90332,5,2,1:2:0:0:
121,136,90629,2,0,L|115:86,1,50,2|2,0:0|1:2,0:0:0:0:
228,199,91074,2,0,L|222:142,1,50,2|2,0:0|1:2,0:0:0:0:
335,262,91520,2,0,L|329:205,1,50,2|2,0:2|1:2,0:0:0:0:
385,362,91965,1,2,0:0:0:0:
385,362,92114,6,0,P|338:372|280:358,1,100,2|2,1:2|1:2,0:0:0:0:
210,382,92559,2,0,B|215:337|215:337|210:329|210:329|215:268,1,100,2|2,1:2|0:2,0:0:0:0:
218,203,93005,1,2,1:2:0:0:
218,45,93302,1,0,0:0:0:0:
218,45,93450,2,0,B|244:39|244:39|260:47|260:47|285:37|328:48,1,100,8|0,0:1|1:0,0:0:0:0:
394,37,93896,6,0,B|418:112|418:112|389:195,1,150,4|8,1:2|0:0,0:0:0:0:
223,10,94787,1,0,1:0:0:0:
288,157,95084,1,0,0:0:0:0:
288,157,95232,2,0,P|244:165|180:165,1,100,10|2,0:0|0:0,0:0:0:0:
142,100,95678,6,0,P|108:163|157:240,1,150,0|8,1:0|0:0,0:0:0:0:
372,284,96569,1,0,1:0:0:0:
288,157,96866,1,0,0:0:0:0:
288,157,97014,2,0,P|244:165|180:165,1,100,8|2,0:0|0:0,0:0:0:0:
142,100,97460,5,2,1:2:0:0:
30,209,97757,2,0,L|33:139,1,50,2|10,0:0|0:2,0:0:0:0:
137,280,98202,2,0,L|140:210,1,50,2|2,0:0|1:2,0:0:0:0:
244,351,98648,2,0,L|247:281,1,50,2|10,0:0|0:0,0:0:0:0:
252,141,99093,1,2,0:0:0:0:
252,141,99242,6,0,P|348:162|287:41,1,300,2|2,0:1|0:0,0:0:0:0:
134,26,100430,1,0,0:0:0:0:
134,26,100578,2,0,B|121:53|130:76|130:76|120:89|126:128,1,100,8|0,0:1|1:0,0:0:0:0:
134,202,101024,5,0,1:0:0:0:
373,202,101469,1,0,1:0:0:0:
161,315,101915,1,0,1:0:0:0:
400,315,102360,1,2,1:2:0:0:
400,315,102509,2,0,P|424:318|449:316,1,50,2|2,0:0|0:0,0:0:0:0:
490,247,102806,5,0,1:0:0:0:
256,185,103251,1,0,1:0:0:0:
22,247,103697,2,0,P|26:217|27:192,2,50,2|2|2,1:2|0:0|0:0,0:0:0:0:
23,326,104142,1,0,1:0:0:0:
23,326,104291,2,0,P|53:330|78:331,1,50,0|0,1:0|1:0,0:0:0:0:
152,331,104588,5,2,1:2:0:0:
230,191,104885,2,0,L|170:194,1,50,2|2,0:0|0:0,0:0:0:0:
326,259,105330,2,0,L|266:262,1,50,2|2,1:2|1:2,0:0:0:0:
422,327,105776,2,0,L|362:330,1,50,2|2,0:0|0:0,0:0:0:0:
386,170,106221,1,2,1:2:0:0:
386,170,106370,6,0,B|367:117|383:63|383:63|406:73|425:96,2,150,2|0|0,1:2|0:0|0:0,0:0:0:0:
146,170,107706,5,4,1:0:0:0:
