osu file format v14

[General]
AudioFilename: Thaehan - Power Up - 04 Higitus Figitus.mp3
AudioLeadIn: 0
PreviewTime: 54096
Countdown: 0
SampleSet: Soft
StackLeniency: 0.3
Mode: 0
LetterboxInBreaks: 0
WidescreenStoryboard: 0

[Editor]
Bookmarks: 54096,68302
DistanceSpacing: 1.6
BeatDivisor: 6
GridSize: 4
TimelineZoom: 4.9

[Metadata]
Title:Higitus Figitus
TitleUnicode:Higitus Figitus
Artist:Thaehan
ArtistUnicode:Thaehan
Creator:DeRandom Otaku
Version:Normal
Source:
Tags:loki power up ep Walt Disney Alfred Pasquali French Merlin l'Enchanteur The Sword in the Stone featured artist
BeatmapID:1483782
BeatmapSetID:700977

[Difficulty]
HPDrainRate:3.5
CircleSize:3
OverallDifficulty:3.5
ApproachRate:4
SliderMultiplier:1.1
SliderTickRate:1

[Events]
//Background and Video events
0,0,"BG.jpg",0,0
//Break Periods
2,69911,85151
//Storyboard Layer 0 (Background)
//Storyboard Layer 1 (Fail)
//Storyboard Layer 2 (Pass)
//Storyboard Layer 3 (Foreground)
//Storyboard Sound Samples

[TimingPoints]
15782,445.500445500445,4,2,0,10,1,0
16227,-100,4,2,0,20,0,0
16673,-100,4,2,0,25,0,0
17118,-100,4,2,0,30,0,0
17564,-100,4,2,0,40,0,0
18009,-100,4,2,0,48,0,0
18456,445.500445500445,4,2,0,65,1,0
25584,-100,4,2,0,65,0,0
29148,-100,4,2,0,65,0,0
32712,-100,4,2,0,65,0,0
39394,-100,4,2,0,65,0,0
39840,-100,4,2,0,65,0,0
45186,-100,4,2,0,45,0,0
46522,-100,4,2,0,65,0,0
46968,-100,4,2,0,60,0,0
50829,-100,4,2,0,55,0,0
52759,-100,4,2,0,40,0,0
53650,-100,4,2,0,40,0,0
54096,-100,4,2,0,65,0,0
61224,-100,4,2,0,65,0,0
64788,-100,4,2,0,65,0,0
67461,-100,4,2,0,65,0,0
86471,445.500445500445,4,2,0,50,1,0
86693,-100,4,2,0,5,0,0
86768,445.500445500445,4,2,0,50,1,0
93450,-100,4,2,0,50,0,0
93896,-100,4,2,0,50,0,0
99242,-100,4,2,0,50,0,0
100578,-100,4,2,0,50,0,0
101024,-100,4,2,0,50,0,0
104885,-100,4,2,0,45,0,0
106815,-100,4,2,0,35,0,0
107706,-100,4,2,0,55,0,0

[Colours]
Combo1 : 255,0,0
Combo2 : 0,128,192
Combo3 : 0,234,234
Combo4 : 128,64,64

[HitObjects]
256,192,15781,12,12,18009,0:0:0:0:
200,187,18455,6,0,L|208:60,2,110,6|8|0,1:3|0:0|1:0,0:0:0:0:
268,300,19792,1,8,0:0:0:0:
336,187,20238,2,0,L|328:60,2,110,0|8|0,1:0|0:0|0:0,0:0:0:0:
268,300,21574,2,0,P|238:290|201:290,1,55,10|0,0:0|0:0,0:0:0:0:
148,292,22020,6,0,P|156:240|147:178,1,110,0|8,1:0|0:0,0:0:0:0:
102,59,22911,1,0,1:0:0:0:
21,163,23356,1,8,0:0:0:0:
149,183,23802,2,0,B|214:183|214:183|273:152,1,110,0|8,1:0|0:0,0:0:0:0:
345,66,24693,1,0,1:0:0:0:
451,143,25138,1,10,0:0:0:0:
451,143,25361,1,0,0:0:0:0:
451,143,25584,6,0,B|438:180|438:180|446:264,1,110,0|8,1:0|0:0,0:0:0:0:
361,353,26475,2,0,B|319:341|319:341|244:353,1,110,0|8,1:0|0:0,0:0:0:0:
188,362,27143,1,0,0:0:0:0:
188,362,27366,2,0,P|176:311|189:255,1,110,0|8,1:0|0:0,0:0:0:0:
245,136,28257,1,0,1:0:0:0:
123,187,28702,1,10,0:0:0:0:
123,187,28925,1,0,0:0:0:0:
123,187,29148,6,0,P|135:142|121:72,1,110,0|8,1:0|0:0,0:0:0:0:
28,170,30039,2,0,P|36:225|72:269,1,110,0|8,1:0|0:0,0:0:0:0:
130,290,30707,1,0,0:0:0:0:
130,290,30930,2,0,P|182:274|243:288,1,110,0|8,1:0|0:0,0:0:0:0:
357,334,31821,1,2,0:0:0:0:
333,204,32266,1,2,1:2:0:0:
333,204,32489,1,0,0:0:0:0:
333,204,32712,6,0,B|333:150|333:150|361:92,2,110,4|0|0,1:2|1:0|1:0,0:0:0:0:
268,318,34048,1,2,1:2:0:0:
203,204,34494,2,0,B|203:150|203:150|175:92,2,110,0|0|0,1:0|1:0|1:0,0:0:0:0:
268,318,35830,1,0,1:0:0:0:
333,204,36276,5,2,1:2:0:0:
268,89,36721,1,2,1:2:0:0:
203,204,37167,1,2,1:2:0:0:
268,318,37612,1,2,1:2:0:0:
333,204,38058,2,0,L|455:209,1,110,2|2,1:2|1:2,0:0:0:0:
442,76,38949,2,0,L|332:80,1,110,2|8,1:2|1:1,0:0:0:0:
268,84,39617,1,0,0:0:0:0:
268,84,39840,6,0,P|281:138|269:197,2,110,6|8|0,1:2|0:0|1:0,0:0:0:0:
149,141,41176,1,10,0:0:0:0:
30,84,41622,2,0,P|17:138|29:197,2,110,0|8|0,1:0|0:0|1:0,0:0:0:0:
149,141,42958,1,8,0:0:0:0:
149,273,43404,1,2,1:2:0:0:
280,273,43849,1,10,0:0:0:0:
373,179,44295,1,2,1:2:0:0:
373,47,44740,1,10,0:2:0:0:
485,116,45186,5,2,0:1:0:0:
485,116,46522,2,0,B|491:147|491:147|491:181,1,55,8|0,0:1|0:0,0:0:0:0:
493,236,46968,6,0,B|373:194|398:279|267:229,1,220,0|0,1:1|1:0,0:0:0:0:
336,114,48304,1,2,1:2:0:0:
219,46,48750,2,0,P|208:153|279:233,1,220,0|2,1:0|1:2,0:0:0:0:
336,114,50086,2,0,P|366:111|397:115,1,55,0|0,1:0|0:0,0:0:0:0:
456,119,50532,5,2,1:2:0:0:
456,250,50977,1,2,0:0:0:0:
362,343,51423,1,2,1:2:0:0:
269,249,51868,1,2,0:0:0:0:
269,116,52314,1,2,1:2:0:0:
269,116,53650,2,0,P|235:122|209:122,1,55,8|0,0:1|0:0,0:0:0:0:
158,86,54096,6,0,L|169:221,2,110,6|8|0,1:3|0:0|1:0,0:0:0:0:
42,21,55432,1,8,0:0:0:0:
158,86,55878,2,0,B|213:66|215:97|273:77,2,110,0|8|0,1:0|0:0|1:0,0:0:0:0:
48,159,57214,2,0,P|42:191|45:231,1,55,10|0,0:0|0:0,0:0:0:0:
46,279,57660,6,0,P|98:287|160:278,1,110,0|8,1:0|0:0,0:0:0:0:
282,245,58551,1,0,1:0:0:0:
199,142,58996,1,8,0:0:0:0:
327,161,59442,2,0,P|362:196|375:263,1,110,0|8,1:0|0:0,0:0:0:0:
320,373,60333,1,0,1:0:0:0:
282,245,60778,1,10,0:0:0:0:
282,245,61001,1,0,0:0:0:0:
282,245,61224,6,0,B|240:242|240:242|214:253|214:253|168:252,1,110,0|8,1:0|0:0,0:0:0:0:
42,250,62115,2,0,B|39:208|39:208|50:182|50:182|49:136,1,110,0|8,1:0|0:0,0:0:0:0:
43,76,62783,1,0,0:0:0:0:
43,76,63006,2,0,P|94:64|150:77,1,110,0|8,1:0|0:0,0:0:0:0:
276,112,63897,1,0,1:0:0:0:
167,187,64342,1,10,0:0:0:0:
167,187,64565,1,0,0:0:0:0:
167,187,64788,6,0,P|155:232|169:302,1,110,0|8,1:0|0:0,0:0:0:0:
297,293,65679,2,0,P|309:248|295:178,1,110,0|8,1:0|0:0,0:0:0:0:
284,121,66347,1,0,0:0:0:0:
284,121,66570,2,0,P|340:131|397:119,1,110,0|8,1:0|0:0,0:0:0:0:
501,47,67461,1,2,0:0:0:0:
472,175,67906,2,0,L|481:225,2,36.6666666666667,2|2|2,1:2|1:2|1:2,0:0:0:0:
472,175,86471,5,2,0:0:0:0:
384,174,86768,6,0,B|384:120|384:120|362:56,2,110,4|0|0,1:2|1:0|1:0,0:0:0:0:
290,268,88104,1,2,1:2:0:0:
196,174,88550,2,0,B|196:120|196:120|218:56,2,110,0|0|0,1:0|1:0|1:0,0:0:0:0:
290,268,89886,1,0,1:0:0:0:
196,361,90332,5,2,1:2:0:0:
102,267,90777,1,2,1:2:0:0:
196,174,91223,1,2,1:2:0:0:
102,80,91668,1,2,1:2:0:0:
227,37,92114,2,0,L|349:42,1,110,2|2,1:2|1:2,0:0:0:0:
423,141,93005,2,0,L|313:145,1,110,2|8,1:2|0:1,0:0:0:0:
250,164,93673,1,0,0:0:0:0:
250,164,93896,6,0,B|241:225|262:215|251:277,2,110,4|8|0,1:2|0:0|1:0,0:0:0:0:
227,37,95232,1,10,0:0:0:0:
153,146,95678,2,0,P|99:159|40:147,2,110,0|8|0,1:0|0:0|1:0,0:0:0:0:
96,26,97014,1,8,0:0:0:0:
46,149,97460,5,2,1:2:0:0:
102,268,97905,1,10,0:2:0:0:
153,146,98351,1,2,1:2:0:0:
209,265,98796,1,10,0:0:0:0:
260,143,99242,1,2,0:1:0:0:
260,143,100578,2,0,B|263:173|266:208,1,55,8|0,0:1|0:0,0:0:0:0:
306,249,101024,6,0,B|235:239|235:239|171:254|171:254|80:242,1,220,0|0,1:0|1:0,0:0:0:0:
0,149,102360,1,2,1:2:0:0:
93,55,102806,2,0,B|174:44|174:44|238:59|238:59|309:49,1,220,0|2,1:0|1:2,0:0:0:0:
439,26,104142,2,0,P|446:58|444:87,1,55,0|0,1:0|0:0,0:0:0:0:
441,146,104588,5,2,1:2:0:0:
323,205,105033,1,2,0:0:0:0:
441,262,105479,1,2,1:2:0:0:
321,319,105924,1,2,0:0:0:0:
441,371,106370,1,2,1:2:0:0:
71,371,107706,5,4,1:0:0:0:
