osu file format v14

[General]
AudioFilename: Thaehan - Power Up - 04 Higitus Figitus.mp3
AudioLeadIn: 0
PreviewTime: 54096
Countdown: 0
SampleSet: Soft
StackLeniency: 0.3
Mode: 0
LetterboxInBreaks: 0
WidescreenStoryboard: 0

[Editor]
Bookmarks: 54096,68302
DistanceSpacing: 1.5
BeatDivisor: 6
GridSize: 4
TimelineZoom: 4.9

[Metadata]
Title:Higitus Figitus
TitleUnicode:Higitus Figitus
Artist:Thaehan
ArtistUnicode:Thaehan
Creator:DeRandom Otaku
Version:Insane
Source:
Tags:loki power up ep Walt Disney Alfred Pasquali French Merlin l'Enchanteur The Sword in the Stone featured artist
BeatmapID:1483781
BeatmapSetID:700977

[Difficulty]
HPDrainRate:6
CircleSize:4
OverallDifficulty:7.5
ApproachRate:9
SliderMultiplier:2.1
SliderTickRate:1

[Events]
//Background and Video events
0,0,"BG.jpg",0,0
//Break Periods
2,69911,85871
//Storyboard Layer 0 (Background)
//Storyboard Layer 1 (Fail)
//Storyboard Layer 2 (Pass)
//Storyboard Layer 3 (Foreground)
//Storyboard Sound Samples

[TimingPoints]
15782,445.500445500445,4,2,0,10,1,0
16227,-100,4,2,0,20,0,0
16673,-100,4,2,0,25,0,0
17118,-100,4,2,0,30,0,0
17564,-100,4,2,0,40,0,0
18009,-100,4,2,0,48,0,0
18456,445.500445500445,4,2,0,65,1,0
25138,-76.9230769230769,4,2,0,65,0,0
25584,-90.9090909090909,4,2,0,65,0,0
28702,-76.9230769230769,4,2,0,65,0,0
29148,-89.2857142857143,4,2,0,65,0,0
31821,-100,4,2,0,65,0,0
32266,-76.9230769230769,4,2,0,65,0,0
32712,-100,4,2,0,65,0,0
39394,-71.4285714285714,4,2,0,65,0,0
39840,-90.9090909090909,4,2,0,65,0,0
45186,-90.9090909090909,4,2,0,45,0,0
46522,-71.4285714285714,4,2,0,65,0,0
46968,-100,4,2,0,60,0,0
50829,-100,4,2,0,55,0,0
52759,-100,4,2,0,40,0,0
53650,-71.4285714285714,4,2,0,60,0,0
54096,-90.9090909090909,4,2,0,65,0,0
60778,-76.9230769230769,4,2,0,65,0,0
61224,-86.9565217391304,4,2,0,65,0,0
64342,-76.9230769230769,4,2,0,65,0,0
64788,-86.9565217391304,4,2,0,65,0,0
67461,-100,4,2,0,65,0,0
86471,445.500445500445,4,2,0,50,1,0
86471,-86.9565217391304,4,2,0,50,0,0
86693,-100,4,2,0,5,0,0
86768,445.500445500445,4,2,0,50,1,0
93450,-71.4285714285714,4,2,0,50,0,0
93896,-90.9090909090909,4,2,0,50,0,0
99242,-100,4,2,0,50,0,0
100578,-71.4285714285714,4,2,0,50,0,0
101024,-100,4,2,0,50,0,0
104885,-100,4,2,0,45,0,0
106815,-100,4,2,0,35,0,0
107706,-100,4,2,0,55,0,0

[Colours]
Combo1 : 255,0,0
Combo2 : 0,128,192
Combo3 : 0,234,234
Combo4 : 128,64,64

[HitObjects]
256,192,15781,12,12,18008,0:0:0:0:
138,159,18456,6,0,L|144:241,1,70,6|0,1:3|0:0,0:0:0:0:
196,299,18753,1,0,0:0:0:0:
332,247,18901,2,0,L|250:253,1,70,8|0,0:0|0:0,0:0:0:0:
190,308,19198,1,0,0:0:0:0:
397,291,19347,6,0,P|408:256|406:219,1,70,0|0,1:0|0:0,0:0:0:0:
344,165,19644,1,0,0:0:0:0:
460,97,19792,2,0,P|471:132|469:169,1,70,8|0,0:0|0:0,0:0:0:0:
407,223,20089,1,0,0:0:0:0:
368,63,20238,6,0,L|455:65,1,70,0|0,1:0|0:0,0:0:0:0:
293,100,20535,1,0,0:0:0:0:
407,223,20683,2,0,L|402:292,1,70,8|0,0:0|0:0,0:0:0:0:
349,161,20980,1,0,0:0:0:0:
296,353,21129,6,0,P|228:344|194:285,1,140,0|0,1:0|0:0,0:0:0:0:
186,250,21500,1,2,0:0:0:0:
186,250,21574,1,10,0:0:0:0:
273,276,21723,1,2,0:0:0:0:
254,189,21871,1,2,0:0:0:0:
218,369,22020,6,0,L|136:364,1,70,0|0,1:0|0:0,0:0:0:0:
67,331,22317,1,0,0:0:0:0:
273,276,22465,2,0,L|342:280,1,70,8|0,0:0|0:0,0:0:0:0:
424,314,22762,1,0,0:0:0:0:
285,209,22911,6,0,B|271:239|271:239|273:276,1,70,0|0,1:0|0:0,0:0:0:0:
306,360,23208,1,0,0:0:0:0:
361,163,23356,2,0,B|336:135|336:135|305:124,1,70,8|0,0:0|0:0,0:0:0:0:
285,209,23653,1,0,0:0:0:0:
461,204,23802,6,0,L|458:124,1,70,0|0,1:0|0:0,0:0:0:0:
399,67,24099,1,0,0:0:0:0:
285,209,24247,2,0,P|302:235|343:261,1,70,8|0,0:0|0:0,0:0:0:0:
419,276,24544,1,0,0:0:0:0:
199,136,24693,6,0,L|203:294,1,140,0|0,1:0|0:0,0:0:0:0:
216,359,25064,1,2,0:0:0:0:
216,359,25138,2,0,L|163:352,1,45.4999979171754,10|0,0:0|0:0,0:0:0:0:
93,323,25287,2,0,L|125:280,1,45.4999979171754,2|0,0:0|0:0,0:0:0:0:
185,234,25435,2,0,L|205:283,1,45.4999979171754,2|0,0:0|0:0,0:0:0:0:
39,252,25584,6,0,L|44:146,1,77.0000023498536,0|0,1:0|0:0,0:0:0:0:
40,62,25881,1,0,0:0:0:0:
198,136,26029,2,0,P|162:136|120:118,1,77.0000023498536,8|0,0:0|0:0,0:0:0:0:
32,55,26326,1,0,0:0:0:0:
183,30,26475,6,0,L|268:37,1,77.0000023498536,0|0,1:0|0:0,0:0:0:0:
321,122,26772,1,0,0:0:0:0:
124,121,26920,1,8,0:0:0:0:
183,30,27069,1,0,1:0:0:0:
191,199,27217,1,0,1:0:0:0:
66,63,27366,6,0,P|47:98|46:143,1,77.0000023498536,0|0,1:0|0:0,0:0:0:0:
55,228,27663,1,0,0:0:0:0:
201,123,27811,2,0,L|125:121,1,77.0000023498536,8|0,0:0|0:0,0:0:0:0:
170,28,28108,1,0,0:0:0:0:
297,208,28257,6,0,L|109:201,1,154.000004699707,0|0,1:0|0:0,0:0:0:0:
59,232,28628,1,2,0:0:0:0:
59,232,28702,2,0,P|68:260|71:292,1,45.4999979171754,10|0,0:0|0:0,0:0:0:0:
143,203,28851,2,0,L|144:133,1,45.4999979171754,2|0,0:0|0:0,0:0:0:0:
228,232,28999,2,0,P|219:258|216:292,1,45.4999979171754,2|0,0:0|0:0,0:0:0:0:
143,364,29148,6,0,L|143:277,1,78.4000009570313,0|0,1:0|0:0,0:0:0:0:
59,232,29445,1,0,0:0:0:0:
218,129,29593,2,0,B|255:120|255:120|300:133,1,78.4000009570313,8|0,0:0|0:0,0:0:0:0:
382,170,29890,1,0,0:0:0:0:
256,304,30039,6,0,P|250:264|260:217,1,78.4000009570313,0|0,1:0|0:0,0:0:0:0:
294,131,30336,1,0,0:0:0:0:
338,264,30484,1,8,0:0:0:0:
301,149,30633,1,0,1:0:0:0:
256,304,30781,1,0,1:0:0:0:
382,170,30930,6,0,P|423:170|461:186,1,78.4000009570313,0|0,1:0|0:0,0:0:0:0:
512,251,31227,1,0,1:0:0:0:
399,341,31375,2,0,L|406:263,2,78.4000009570313,8|0|0,0:0|0:0|0:0,0:0:0:0:
276,365,31821,6,0,L|288:216,1,140,2|0,0:0|0:0,0:0:0:0:
294,191,32192,1,2,0:0:0:0:
294,191,32266,2,0,P|272:183|252:172,1,45.4999979171754,2|0,1:2|0:0,0:0:0:0:
185,220,32415,2,0,P|175:199|168:177,1,45.4999979171754,2|0,1:2|0:0,0:0:0:0:
87,163,32563,2,0,P|94:141|105:121,1,45.4999979171754,2|0,1:2|0:0,0:0:0:0:
209,14,32712,6,0,L|200:94,2,70,4|0|0,1:2|0:0|0:0,0:0:0:0:
302,120,33157,2,0,L|295:190,2,70,0|0|0,1:0|0:0|0:0,0:0:0:0:
395,226,33603,2,0,L|387:295,2,70,0|0|0,1:0|0:0|0:0,0:0:0:0:
425,58,34048,1,2,1:2:0:0:
437,151,34197,2,0,P|469:140|497:117,1,70,2|2,0:0|0:0,0:0:0:0:
303,120,34494,6,0,P|266:112|232:119,2,70,0|0|0,1:0|0:0|0:0,0:0:0:0:
263,262,34939,2,0,P|258:227|266:194,2,70,0|0|0,1:0|0:0|0:0,0:0:0:0:
403,251,35385,2,0,L|264:262,1,140,0|0,1:0|0:0,0:0:0:0:
215,346,35830,1,0,1:0:0:0:
157,38,36127,5,2,0:0:0:0:
125,142,36276,1,2,1:2:0:0:
386,142,36573,5,2,0:0:0:0:
354,38,36721,1,2,1:2:0:0:
157,38,37018,5,2,0:0:0:0:
125,142,37167,2,0,L|49:136,1,70,2|2,1:2|0:0,0:0:0:0:
203,108,37464,5,2,0:0:0:0:
171,212,37612,1,2,1:2:0:0:
341,212,37909,5,2,0:0:0:0:
309,108,38058,2,0,L|379:115,1,70,2|2,1:2|0:0,0:0:0:0:
489,132,38355,1,2,1:2:0:0:
489,132,38429,1,2,0:0:0:0:
489,132,38503,1,2,1:2:0:0:
422,198,38652,1,2,0:0:0:0:
445,48,38800,1,2,0:0:0:0:
463,281,38949,2,0,P|435:246|339:246,1,140,2|0,1:2|0:0,0:0:0:0:
166,249,39394,6,0,B|209:236|236:258|236:258|239:249|239:249|291:277|346:242,1,195.999994018555,8|0,1:1|0:0,0:0:0:0:
281,104,39840,6,0,L|287:181,2,77.0000023498536,6|0|0,1:2|0:0|0:0,0:0:0:0:
424,93,40285,2,0,L|429:16,2,77.0000023498536,8|0|0,0:0|0:0|0:0,0:0:0:0:
256,104,40731,2,0,L|261:180,2,77.0000023498536,0|0|0,1:0|0:0|0:0,0:0:0:0:
474,195,41176,1,10,0:0:0:0:
393,242,41325,2,0,P|381:208|389:154,1,77.0000023498536,2|2,0:0|0:0,0:0:0:0:
439,348,41622,5,0,1:0:0:0:
439,348,41770,2,0,L|353:343,1,77.0000023498536
221,281,42067,1,8,0:0:0:0:
221,281,42216,2,0,L|307:276,1,77.0000023498536
150,359,42513,2,0,P|117:311|145:206,1,154.000004699707,0|0,1:0|0:0,0:0:0:0:
221,281,42958,1,8,0:0:0:0:
178,63,43255,5,2,0:0:0:0:
132,221,43404,1,2,1:2:0:0:
380,221,43701,5,2,0:0:0:0:
334,63,43849,2,0,L|415:73,1,77.0000023498536,10|2,0:0|0:0,0:0:0:0:
256,173,44146,5,2,0:0:0:0:
260,10,44295,2,0,L|260:92,1,77.0000023498536,2|2,1:2|0:0,0:0:0:0:
165,192,44592,5,2,0:0:0:0:
347,192,44740,1,10,0:2:0:0:
62,70,45037,5,2,0:0:0:0:
58,146,45186,2,0,L|62:70,1,77.0000023498536,2|0,0:1|0:0,0:0:0:0:
146,30,45483,1,0,0:0:0:0:
146,30,45557,1,0,0:0:0:0:
146,30,45631,1,2,0:0:0:0:
206,90,45780,1,2,0:0:0:0:
290,90,45928,1,2,0:0:0:0:
350,29,46077,2,0,P|406:69|452:143,1,154.000004699707,2|0,0:0|0:0,0:0:0:0:
399,227,46522,6,0,P|365:152|463:161,1,195.999994018555,8|0,0:3|1:0,0:0:0:0:
342,288,46968,6,0,P|309:258|294:232,2,70,0|0|0,1:0|0:0|0:0,0:0:0:0:
213,267,47413,2,0,P|210:222|218:193,2,70,0|0|0,1:0|0:0|0:0,0:0:0:0:
136,160,47859,2,0,P|166:127|192:112,2,70,0|0|0,1:0|0:0|0:0,0:0:0:0:
216,198,48304,1,2,1:2:0:0:
270,126,48453,1,2,0:0:0:0:
233,45,48601,1,2,0:0:0:0:
143,39,48750,6,0,P|85:79|45:141,1,140,0|0,1:0|0:0,0:0:0:0:
47,247,49195,2,0,P|86:304|143:345,1,140,0|0,1:0|0:0,0:0:0:0:
174,192,49641,2,0,L|85:192,2,70,2|2|2,1:2|0:0|0:0,0:0:0:0:
256,269,50086,1,0,1:0:0:0:
338,192,50235,1,0,1:0:0:0:
256,115,50383,1,0,1:0:0:0:
355,298,50532,5,2,1:2:0:0:
402,110,50829,1,2,0:0:0:0:
402,110,50977,1,2,0:0:0:0:
153,124,51274,5,2,1:2:0:0:
256,115,51423,1,2,1:2:0:0:
62,246,51720,5,2,0:0:0:0:
62,246,51868,1,2,0:0:0:0:
144,21,52165,5,2,1:2:0:0:
153,124,52314,1,2,1:2:0:0:
167,137,52759,1,0,0:0:0:0:
181,150,53205,1,0,0:0:0:0:
195,163,53650,6,0,B|245:157|245:157|276:167|276:167|305:157|305:157|342:166|342:166|388:156,1,195.999994018555,8|0,0:1|1:0,0:0:0:0:
362,3,54096,6,0,B|345:35|345:35|345:85,1,77.0000023498536,6|0,1:3|0:0,0:0:0:0:
386,157,54393,1,0,0:0:0:0:
314,347,54541,2,0,P|275:347|238:332,1,77.0000023498536,8|0,0:0|0:0,0:0:0:0:
293,254,54838,1,0,0:0:0:0:
485,367,54987,6,0,L|481:289,1,77.0000023498536,0|0,1:0|0:0,0:0:0:0:
470,194,55284,1,0,0:0:0:0:
401,330,55432,2,0,L|397:252,1,77.0000023498536,8|0,0:0|0:0,0:0:0:0:
386,157,55729,1,0,0:0:0:0:
218,251,55878,6,0,P|255:261|293:254,1,77.0000023498536,0|0,1:0|0:0,0:0:0:0:
149,204,56175,1,0,0:0:0:0:
262,89,56323,2,0,L|259:166,1,77.0000023498536,8|0,0:0|0:0,0:0:0:0:
205,30,56620,1,0,0:0:0:0:
338,218,56769,6,0,L|345:64,1,154.000004699707,0|0,1:0|0:0,0:0:0:0:
348,29,57140,1,2,0:0:0:0:
348,29,57214,1,10,0:0:0:0:
432,93,57363,1,2,0:0:0:0:
342,147,57511,1,2,0:0:0:0:
181,77,57660,6,0,P|219:78|258:83,1,77.0000023498536,0|0,1:0|0:0,0:0:0:0:
353,155,57957,1,0,0:0:0:0:
210,256,58105,2,0,L|214:174,1,77.0000023498536,8|0,0:0|0:0,0:0:0:0:
258,83,58402,1,0,0:0:0:0:
282,293,58551,6,0,P|254:322|218:338,1,77.0000023498536,0|0,1:0|0:0,0:0:0:0:
128,302,58848,1,0,0:0:0:0:
316,205,58996,2,0,P|349:227|371:260,1,77.0000023498536,8|0,0:0|0:0,0:0:0:0:
351,355,59293,1,0,0:0:0:0:
210,256,59442,6,0,L|214:174,1,77.0000023498536,0|0,1:0|0:0,0:0:0:0:
163,92,59739,1,0,0:0:0:0:
316,205,59887,2,0,B|355:212|355:212|394:197,1,77.0000023498536,8|0,0:0|0:0,0:0:0:0:
344,112,60184,1,0,0:0:0:0:
263,341,60333,6,0,B|201:341|201:341|170:350|170:350|102:350,1,154.000004699707,0|0,1:0|0:0,0:0:0:0:
39,324,60704,1,2,0:0:0:0:
39,324,60778,2,0,L|46:275,1,45.4999979171754,10|0,0:0|0:0,0:0:0:0:
108,211,60927,2,0,L|101:162,1,45.4999979171754,2|0,0:0|0:0,0:0:0:0:
39,100,61075,2,0,L|46:51,1,45.4999979171754,2|0,0:0|0:0,0:0:0:0:
182,171,61224,6,0,L|92:166,1,80.5000015354157,0|0,1:0|0:0,0:0:0:0:
13,211,61521,1,0,0:0:0:0:
252,212,61669,2,0,P|261:176|253:131,1,80.5000015354157,8|0,0:0|0:0,0:0:0:0:
229,44,61966,1,0,0:0:0:0:
102,167,62115,6,0,L|108:257,1,80.5000015354157,0|0,1:0|0:0,0:0:0:0:
115,345,62412,1,0,0:0:0:0:
26,233,62560,1,8,0:0:0:0:
179,289,62709,1,0,1:0:0:0:
33,335,62857,1,0,1:0:0:0:
252,212,63006,6,0,L|349:219,1,80.5000015354157,0|0,1:0|0:0,0:0:0:0:
298,118,63303,1,0,0:0:0:0:
385,289,63451,2,0,P|408:263|421:214,1,80.5000015354157,8|0,0:0|0:0,0:0:0:0:
289,316,63748,1,0,0:0:0:0:
298,118,63897,6,0,L|133:129,1,161.000003070831,0|0,1:0|0:0,0:0:0:0:
71,170,64268,1,2,0:0:0:0:
71,170,64342,2,0,P|75:192|78:227,1,45.4999979171754,10|0,0:0|0:0,0:0:0:0:
181,266,64491,2,0,P|184:247|189:222,1,45.4999979171754,2|0,0:0|0:0,0:0:0:0:
84,316,64639,2,0,P|88:335|91:361,1,45.4999979171754,2|0,0:0|0:0,0:0:0:0:
265,261,64788,6,0,L|354:265,1,80.5000015354157,0|0,1:0|0:0,0:0:0:0:
436,309,65085,1,0,0:0:0:0:
265,261,65233,2,0,P|268:218|282:176,1,80.5000015354157,8|0,0:0|0:0,0:0:0:0:
311,90,65530,1,0,0:0:0:0:
309,329,65679,6,0,P|266:341|223:330,1,80.5000015354157,0|0,1:0|0:0,0:0:0:0:
145,285,65976,1,0,0:0:0:0:
265,261,66124,1,8,0:0:0:0:
130,291,66273,1,0,1:0:0:0:
174,161,66421,1,0,1:0:0:0:
55,348,66570,6,0,P|40:311|44:251,1,80.5000015354157,0|0,1:0|0:0,0:0:0:0:
65,171,66867,1,0,1:0:0:0:
211,293,67015,2,0,L|128:291,2,80.5000015354157,8|0|0,0:0|0:0|0:0,0:0:0:0:
65,171,67461,6,0,L|229:174,1,140,2|0,0:0|0:0,0:0:0:0:
274,190,67832,1,2,0:0:0:0:
274,190,67906,2,0,L|239:189,1,35,2|0,1:2|0:0,0:0:0:0:
300,114,68055,2,0,L|276:89,1,35,2|0,1:2|0:0,0:0:0:0:
370,77,68203,2,0,L|372:43,1,35,2|0,1:2|0:0,0:0:0:0:
144,303,86471,6,0,B|132:257|132:257|143:174,1,120.750002303124,2|0,0:0|0:0,0:0:0:0:
162,158,86768,6,0,L|241:161,2,70,4|0|0,1:2|0:0|0:0,0:0:0:0:
247,242,87213,2,0,L|326:239,2,70,0|0|0,1:0|0:0|0:0,0:0:0:0:
332,158,87659,2,0,L|411:161,2,70,0|0|0,1:0|0:0|0:0,0:0:0:0:
146,138,88104,1,2,1:2:0:0:
227,91,88253,2,0,P|231:126|232:161,1,70,2|2,0:0|0:0,0:0:0:0:
200,349,88550,6,0,P|167:343|131:323,2,70,0|0|0,1:0|0:0|0:0,0:0:0:0:
312,349,88995,2,0,P|345:343|381:323,2,70,0|0|0,1:0|0:0|0:0,0:0:0:0:
256,282,89441,2,0,L|256:138,1,140,0|0,1:0|0:0,0:0:0:0:
256,26,89886,1,0,1:0:0:0:
377,326,90183,5,2,0:0:0:0:
404,207,90332,1,2,1:2:0:0:
108,207,90629,5,2,0:0:0:0:
135,326,90777,1,2,1:2:0:0:
377,326,91074,5,2,0:0:0:0:
404,207,91223,2,0,L|394:131,1,70,2|2,1:2|0:0,0:0:0:0:
324,250,91520,5,2,0:2:0:0:
457,284,91668,1,2,1:2:0:0:
188,250,91965,5,2,0:0:0:0:
55,284,92114,2,0,P|60:254|62:211,1,70,2|2,1:2|0:0,0:0:0:0:
53,111,92411,1,2,1:2:0:0:
53,111,92485,1,2,0:0:0:0:
53,111,92559,1,2,1:2:0:0:
152,149,92708,1,2,0:0:0:0:
62,214,92856,1,2,0:0:0:0:
188,250,93005,2,0,B|265:227|244:272|326:250,1,140,2|0,1:2|0:0,0:0:0:0:
299,48,93450,6,0,B|290:178|290:178|296:149|325:122,1,195.999994018555,8|0,0:1|1:0,0:0:0:0:
457,206,93896,6,0,L|381:198,2,77.0000023498536,4|0|0,1:2|0:0|0:0,0:0:0:0:
365,324,94341,2,0,L|288:332,2,77.0000023498536,8|0|0,0:0|0:0|0:0,0:0:0:0:
272,206,94787,2,0,L|195:197,2,77.0000023498536,0|0|0,1:0|0:0|0:0,0:0:0:0:
457,206,95232,1,10,0:0:0:0:
369,239,95381,2,0,P|365:201|380:147,1,77.0000023498536,2|2,0:0|0:0,0:0:0:0:
444,39,95678,5,0,1:0:0:0:
444,39,95826,2,0,B|413:65|413:65|375:71,1,77.0000023498536
219,68,96123,1,8,0:0:0:0:
219,68,96272,2,0,B|250:42|250:42|288:36,1,77.0000023498536
289,266,96569,2,0,B|273:222|273:222|286:115,1,154.000004699707,0|0,1:0|0:0,0:0:0:0:
369,211,97014,1,8,0:0:0:0:
120,336,97311,5,2,0:0:0:0:
145,172,97460,1,2,1:2:0:0:
367,172,97757,5,2,0:0:0:0:
392,336,97905,2,0,L|303:348,1,77.0000023498536,10|2,0:2|0:0,0:0:0:0:
475,247,98202,5,2,0:0:0:0:
296,208,98351,2,0,P|287:167|302:123,1,77.0000023498536,2|2,1:2|0:0,0:0:0:0:
441,175,98648,5,2,0:0:0:0:
392,336,98796,1,10,0:0:0:0:
71,175,99093,5,2,0:0:0:0:
68,243,99242,2,0,P|64:209|71:175,1,70,2|0,0:1|0:0,0:0:0:0:
98,87,99539,1,0,0:0:0:0:
98,87,99613,1,0,0:0:0:0:
98,87,99687,1,2,0:0:0:0:
178,141,99836,1,2,0:0:0:0:
259,196,99984,1,2,0:0:0:0:
178,141,100133,2,0,P|172:217|173:299,1,140,2|0,0:0|0:0,0:0:0:0:
316,333,100578,6,0,B|274:348|274:348|244:339|244:339|186:394|124:358,1,195.999994018555,8|0,0:1|1:0,0:0:0:0:
54,233,101024,6,0,L|60:323,2,70,0|0|0,1:0|0:0|0:0,0:0:0:0:
133,159,101469,2,0,L|52:119,2,70,0|0|0,1:0|0:0|0:0,0:0:0:0:
157,264,101915,2,0,L|231:213,2,70,0|0|0,1:0|0:0|0:0,0:0:0:0:
133,159,102360,1,2,1:2:0:0:
202,116,102509,1,2,0:0:0:0:
272,74,102657,1,2,0:0:0:0:
342,32,102806,6,0,B|372:96|372:96|352:168,1,140,0|0,1:0|0:0,0:0:0:0:
365,294,103251,2,0,B|335:230|335:230|355:158,1,140,0|0,1:0|0:0,0:0:0:0:
444,294,103697,2,0,P|435:330|414:361,2,70,2|2|2,1:2|0:0|0:0,0:0:0:0:
353,164,104142,1,0,1:0:0:0:
365,294,104291,1,0,1:0:0:0:
427,128,104439,1,0,1:0:0:0:
289,331,104588,5,2,1:2:0:0:
289,53,104885,1,2,0:0:0:0:
289,53,105033,1,2,0:0:0:0:
198,192,105330,5,2,1:2:0:0:
314,192,105479,1,2,1:2:0:0:
82,192,105776,5,2,0:0:0:0:
82,192,105924,1,2,0:0:0:0:
314,308,106221,5,2,1:2:0:0:
314,192,106370,1,2,1:2:0:0:
321,181,106815,1,0,0:0:0:0:
328,170,107261,1,0,0:0:0:0:
32,352,107706,5,4,1:0:0:0:
