osu file format v14

[General]
AudioFilename: Thaehan - Power Up - 04 Higitus Figitus.mp3
AudioLeadIn: 0
PreviewTime: 54096
Countdown: 0
SampleSet: Soft
StackLeniency: 0.3
Mode: 0
LetterboxInBreaks: 0
WidescreenStoryboard: 0

[Editor]
Bookmarks: 54096,68302
DistanceSpacing: 1.4
BeatDivisor: 6
GridSize: 4
TimelineZoom: 4.9

[Metadata]
Title:Higitus Figitus
TitleUnicode:Higitus Figitus
Artist:Thaehan
ArtistUnicode:Thaehan
Creator:DeRandom Otaku
Version:Hard
Source:
Tags:loki power up ep Walt Disney Alfred Pasquali French Merlin l'Enchanteur The Sword in the Stone featured artist
BeatmapID:1483780
BeatmapSetID:700977

[Difficulty]
HPDrainRate:5
CircleSize:3.7
OverallDifficulty:6
ApproachRate:7.5
SliderMultiplier:1.75
SliderTickRate:1

[Events]
//Background and Video events
0,0,"BG.jpg",0,0
//Break Periods
2,69911,85646
//Storyboard Layer 0 (Background)
//Storyboard Layer 1 (Fail)
//Storyboard Layer 2 (Pass)
//Storyboard Layer 3 (Foreground)
//Storyboard Sound Samples

[TimingPoints]
15782,445.500445500445,4,2,0,10,1,0
16227,-100,4,2,0,20,0,0
16673,-100,4,2,0,25,0,0
17118,-100,4,2,0,30,0,0
17564,-100,4,2,0,40,0,0
18009,-100,4,2,0,48,0,0
18456,445.500445500445,4,2,0,65,1,0
25584,-90.9090909090909,4,2,0,65,0,0
29148,-89.2857142857143,4,2,0,65,0,0
32712,-100,4,2,0,65,0,0
39394,-83.3333333333333,4,2,0,65,0,0
39840,-90.9090909090909,4,2,0,65,0,0
45186,-100,4,2,0,45,0,0
46522,-83.3333333333333,4,2,0,65,0,0
46968,-100,4,2,0,60,0,0
50829,-100,4,2,0,55,0,0
52759,-100,4,2,0,40,0,0
53650,-83.3333333333333,4,2,0,40,0,0
54096,-90.9090909090909,4,2,0,65,0,0
61224,-86.9565217391304,4,2,0,65,0,0
64788,-86.9565217391304,4,2,0,65,0,0
67461,-100,4,2,0,65,0,0
67906,-86.9565217391304,4,2,0,65,0,0
86471,445.500445500445,4,2,0,50,1,0
86693,-100,4,2,0,5,0,0
86768,445.500445500445,4,2,0,50,1,0
93450,-83.3333333333333,4,2,0,50,0,0
93896,-90.9090909090909,4,2,0,50,0,0
99242,-100,4,2,0,50,0,0
100578,-83.3333333333333,4,2,0,50,0,0
101024,-100,4,2,0,50,0,0
104885,-100,4,2,0,45,0,0
106815,-100,4,2,0,35,0,0
107706,-100,4,2,0,55,0,0

[Colours]
Combo1 : 255,0,0
Combo2 : 0,128,192
Combo3 : 0,234,234
Combo4 : 128,64,64

[HitObjects]
256,192,15781,12,12,18009,0:0:0:0:
119,142,18456,6,0,L|114:213,2,58.3333333333333,6|0|0,1:3|0:0|0:0,0:0:0:0:
133,62,18901,2,0,L|62:57,2,58.3333333333333,8|0|0,0:0|0:0|0:0,0:0:0:0:
194,115,19347,1,0,1:0:0:0:
194,115,19495,2,0,L|252:119,1,58.3333333333333,0|0,0:0|0:0,0:0:0:0:
333,109,19792,1,8,0:0:0:0:
333,109,19941,2,0,L|328:167,1,58.3333333333333,0|0,0:0|0:0,0:0:0:0:
379,230,20238,6,0,P|407:224|435:205,2,58.3333333333333,0|0|0,1:0|0:0|0:0,0:0:0:0:
328,168,20683,2,0,L|265:179,1,58.3333333333333,8|0,0:0|0:0,0:0:0:0:
207,231,20980,1,0,0:0:0:0:
140,183,21129,2,0,P|125:223|158:297,1,116.666666666667,0|0,1:0|0:0,0:0:0:0:
212,341,21574,1,10,0:0:0:0:
212,341,22020,6,0,L|274:335,2,58.3333333333333,0|0|0,1:0|0:0|0:0,0:0:0:0:
150,290,22465,2,0,L|88:284,2,58.3333333333333,8|0|0,0:0|0:0|0:0,0:0:0:0:
207,231,22911,1,0,1:0:0:0:
207,231,23059,2,0,L|201:153,1,58.3333333333333,0|0,0:0|0:0,0:0:0:0:
140,119,23356,1,8,0:0:0:0:
140,119,23504,2,0,L|62:125,1,58.3333333333333,0|0,0:0|0:0,0:0:0:0:
18,176,23802,5,0,1:0:0:0:
18,176,23950,2,0,L|22:234,1,58.3333333333333
91,284,24247,2,0,L|86:342,2,58.3333333333333,8|0|0,0:0|0:0|0:0,0:0:0:0:
142,220,24693,2,0,P|187:252|254:252,1,116.666666666667,0|0,1:0|0:0,0:0:0:0:
287,183,25138,1,10,0:0:0:0:
348,128,25287,1,2,0:0:0:0:
429,128,25435,1,2,0:0:0:0:
287,183,25584,6,0,P|254:177|201:177,2,64.166668624878,0|0|0,1:0|0:0|0:0,0:0:0:0:
375,199,26029,2,0,L|368:265,2,64.166668624878,8|0|0,0:0|0:0|0:0,0:0:0:0:
429,128,26475,1,0,1:0:0:0:
429,128,26623,2,0,P|429:86|415:52,1,64.166668624878,0|0,0:0|0:0,0:0:0:0:
340,27,26920,1,8,0:0:0:0:
271,85,27069,1,0,1:0:0:0:
202,27,27217,1,0,1:0:0:0:
142,94,27366,6,0,L|149:169,2,64.166668624878,0|0|0,1:0|0:0|0:0,0:0:0:0:
240,171,27811,2,0,L|233:246,2,64.166668624878,8|0|0,0:0|0:0|0:0,0:0:0:0:
157,276,28257,2,0,P|198:315|281:308,1,128.333337249756,0|0,1:0|0:0,0:0:0:0:
349,349,28702,1,10,0:0:0:0:
338,259,28851,1,2,0:0:0:0:
327,169,28999,1,2,0:0:0:0:
403,262,29148,6,0,L|338:259,1,65.3333341308594,0|0,1:0|0:0,0:0:0:0:
267,316,29445,1,0,0:0:0:0:
349,349,29593,2,0,L|414:352,2,65.3333341308594,8|0|0,0:0|0:0|0:0,0:0:0:0:
267,316,30039,2,0,L|201:319,2,65.3333341308594,0|0|0,1:0|0:0|0:0,0:0:0:0:
338,259,30484,1,8,0:0:0:0:
258,212,30633,1,0,1:0:0:0:
333,161,30781,1,0,1:0:0:0:
265,98,30930,6,0,L|269:27,1,65.3333341308594,0|0,1:0|0:0,0:0:0:0:
189,146,31227,1,0,1:0:0:0:
189,146,31375,2,0,P|157:155|117:153,2,65.3333341308594,8|0|0,0:0|0:0|0:0,0:0:0:0:
265,98,31821,2,0,L|407:105,1,130.666668261719,2|0,0:0|0:0,0:0:0:0:
478,67,32266,1,2,1:2:0:0:
471,158,32415,1,2,1:2:0:0:
463,248,32563,1,2,1:2:0:0:
391,328,32712,6,0,P|366:295|360:222,1,116.666666666667,4|0,1:2|0:0,0:0:0:0:
417,164,33157,2,0,P|364:178|295:158,1,116.666666666667,0|0,1:0|0:0,0:0:0:0:
247,105,33603,2,0,P|190:90|134:104,1,116.666666666667,0|0,1:0|0:0,0:0:0:0:
64,145,34048,1,2,1:2:0:0:
64,145,34494,6,0,L|57:218,2,58.3333333333333,0|0|0,1:0|0:0|0:0,0:0:0:0:
135,106,34939,2,0,L|129:47,2,58.3333333333333,0|0|0,1:0|0:0|0:0,0:0:0:0:
194,162,35385,2,0,L|186:280,1,116.666666666667,0|0,1:0|0:0,0:0:0:0:
210,355,35830,2,0,B|263:329|263:329|328:343,1,116.666666666667,0|2,1:0|0:0,0:0:0:0:
397,365,36276,5,2,1:2:0:0:
397,201,36573,1,2,0:0:0:0:
397,201,36721,1,2,1:2:0:0:
256,119,37018,1,2,0:0:0:0:
256,119,37167,1,2,1:2:0:0:
115,201,37464,1,2,0:0:0:0:
115,201,37612,1,2,1:2:0:0:
115,365,37909,1,2,0:0:0:0:
115,365,38058,6,0,P|165:346|232:346,1,116.666666666667,2|2,1:2|1:2,0:0:0:0:
306,366,38503,1,2,1:2:0:0:
306,366,38652,2,0,P|317:336|321:294,1,58.3333333333333,2|2,0:0|0:0,0:0:0:0:
261,254,38949,2,0,B|318:267|318:267|379:252,1,116.666666666667,2|0,1:2|0:0,0:0:0:0:
466,287,39394,2,0,B|481:242|459:203|459:203|473:177|473:125,1,139.999995727539,8|0,1:1|0:0,0:0:0:0:
504,68,39840,6,0,P|460:105|389:105,1,128.333337249756,6|0,1:2|0:0,0:0:0:0:
328,42,40285,2,0,P|265:41|215:80,1,128.333337249756,8|0,0:0|0:0,0:0:0:0:
293,125,40731,2,0,L|288:265,1,128.333337249756,0|0,1:0|0:0,0:0:0:0:
343,323,41176,2,0,B|280:342|280:342|216:313,1,128.333337249756,10|2,0:0|0:0,0:0:0:0:
148,261,41622,6,0,P|157:227|157:181,2,64.166668624878,0|0|0,1:0|0:0|0:0,0:0:0:0:
70,305,42067,2,0,P|61:271|61:225,2,64.166668624878,8|0|0,0:0|0:0|0:0,0:0:0:0:
159,198,42513,2,0,L|152:67,1,128.333337249756,0|0,1:0|0:0,0:0:0:0:
229,24,42958,2,0,B|293:12|293:12|368:30,1,128.333337249756,8|2,0:0|0:0,0:0:0:0:
440,53,43404,5,2,1:2:0:0:
417,231,43701,1,2,0:0:0:0:
417,231,43849,1,10,0:0:0:0:
256,153,44146,1,2,0:0:0:0:
256,153,44295,1,2,1:2:0:0:
95,231,44592,1,2,0:0:0:0:
95,231,44740,1,10,0:2:0:0:
72,53,45037,1,2,0:0:0:0:
72,53,45186,6,0,P|131:72|184:55,1,116.666666666667,2|0,0:1|0:0,0:0:0:0:
255,23,45631,2,0,B|305:27|305:27|318:37|318:37|385:45,1,116.666666666667,2|2,0:0|0:0,0:0:0:0:
446,23,46077,2,0,P|449:80|445:139,1,116.666666666667,2|0,0:0|0:0,0:0:0:0:
456,237,46522,2,0,B|406:241|368:202|368:202|358:227|333:247,1,139.999995727539,8|0,0:1|1:0,0:0:0:0:
291,174,46968,6,0,L|300:355,2,175,0|0|0,1:0|1:0|1:0,0:0:0:0:
203,36,48156,1,0,0:0:0:0:
203,36,48304,2,0,P|160:75|88:75,1,116.666666666667,2|2,1:2|0:0,0:0:0:0:
41,26,48750,6,0,B|60:82|60:82|42:155,1,116.666666666667,0|0,1:0|0:0,0:0:0:0:
18,214,49195,2,0,L|142:207,1,116.666666666667,0|0,1:0|0:0,0:0:0:0:
192,149,49641,2,0,L|308:155,1,116.666666666667,2|2,1:2|0:0,0:0:0:0:
374,203,50086,1,0,1:0:0:0:
374,203,50235,2,0,P|385:177|388:142,1,58.3333333333333,0|0,1:0|1:0,0:0:0:0:
335,52,50532,5,2,1:2:0:0:
248,198,50829,1,2,0:0:0:0:
248,198,50977,1,2,0:0:0:0:
365,311,51274,1,2,1:2:0:0:
365,311,51423,1,2,1:2:0:0:
452,165,51720,1,2,0:0:0:0:
452,165,51868,1,2,0:0:0:0:
335,52,52165,1,2,1:2:0:0:
335,52,52314,5,2,1:2:0:0:
308,135,52759,1,0,0:0:0:0:
248,198,53205,1,0,0:0:0:0:
163,222,53650,6,0,P|192:266|274:283,1,139.999995727539,8|0,0:1|1:0,0:0:0:0:
359,256,54096,6,0,L|351:330,2,64.166668624878,6|0|0,1:3|0:0|0:0,0:0:0:0:
359,166,54541,2,0,L|352:102,2,64.166668624878,8|0|0,0:0|0:0|0:0,0:0:0:0:
436,212,54987,2,0,L|505:211,2,64.166668624878,0|0|0,1:0|0:0|0:0,0:0:0:0:
359,256,55432,1,8,0:0:0:0:
359,256,55581,2,0,L|284:251,1,64.166668624878,0|0,0:0|0:0,0:0:0:0:
214,211,55878,6,0,P|216:178|232:141,2,64.166668624878,0|0|0,1:0|0:0|0:0,0:0:0:0:
223,299,56323,2,0,P|234:328|235:360,2,64.166668624878,8|0|0,0:0|0:0|0:0,0:0:0:0:
141,260,56769,2,0,P|84:231|18:251,1,128.333337249756,0|0,1:0|0:0,0:0:0:0:
76,319,57214,1,10,0:0:0:0:
76,319,57660,6,0,L|71:242,2,64.166668624878,0|0|0,1:0|0:0|0:0,0:0:0:0:
164,308,58105,2,0,L|159:231,2,64.166668624878,8|0|0,0:0|0:0|0:0,0:0:0:0:
252,297,58551,2,0,L|247:220,2,64.166668624878,0|0|0,1:0|0:0|0:0,0:0:0:0:
340,286,58996,1,8,0:0:0:0:
340,286,59145,2,0,L|335:209,1,64.166668624878,0|0,0:0|0:0,0:0:0:0:
281,150,59442,6,0,P|278:118|286:82,2,64.166668624878,0|0|0,1:0|0:0|0:0,0:0:0:0:
366,123,59887,2,0,L|443:119,2,64.166668624878,8|0|0,0:0|0:0|0:0,0:0:0:0:
281,150,60333,2,0,L|148:141,1,128.333337249756,0|0,1:0|0:0,0:0:0:0:
63,134,60778,1,10,0:0:0:0:
37,220,60927,1,2,0:0:0:0:
92,290,61075,1,2,0:0:0:0:
153,142,61224,6,0,L|146:58,2,67.0833346128464,0|0|0,1:0|0:0|0:0,0:0:0:0:
212,214,61669,2,0,L|205:298,2,67.0833346128464,8|0|0,0:0|0:0|0:0,0:0:0:0:
281,150,62115,1,0,1:0:0:0:
281,150,62263,2,0,P|314:147|356:156,1,67.0833346128464,0|0,0:0|0:0,0:0:0:0:
439,171,62560,1,8,0:0:0:0:
407,82,62709,1,0,1:0:0:0:
348,153,62857,1,0,1:0:0:0:
380,242,63006,6,0,P|387:283|380:318,2,67.0833346128464,0|0|0,1:0|0:0|0:0,0:0:0:0:
294,279,63451,1,8,0:0:0:0:
294,279,63600,2,0,L|217:269,1,67.0833346128464,0|0,0:0|0:0,0:0:0:0:
160,336,63897,2,0,P|190:281|157:214,1,134.166669225693,0|0,1:0|0:0,0:0:0:0:
78,180,64342,1,10,0:0:0:0:
132,103,64491,1,2,0:0:0:0:
217,140,64639,1,2,0:0:0:0:
78,180,64788,6,0,L|5:168,2,67.0833346128464,0|0|0,1:0|0:0|0:0,0:0:0:0:
132,103,65233,2,0,L|118:28,2,67.0833346128464,8|0|0,0:0|0:0|0:0,0:0:0:0:
217,140,65679,2,0,L|263:75,2,67.0833346128464,0|0|0,1:0|0:0|0:0,0:0:0:0:
164,219,66124,1,8,0:0:0:0:
78,180,66273,1,0,1:0:0:0:
45,267,66421,1,0,1:0:0:0:
131,306,66570,6,0,L|120:381,1,67.0833346128464,0|0,1:0|0:0,0:0:0:0:
213,354,66867,1,0,1:0:0:0:
283,291,67015,2,0,P|249:268|221:260,2,67.0833346128464,8|0|0,0:0|0:0|0:0,0:0:0:0:
335,353,67461,6,0,L|342:219,1,116.666666666667,2|0,0:0|0:0,0:0:0:0:
346,143,67906,1,2,1:2:0:0:
413,77,68055,1,2,1:2:0:0:
500,108,68203,1,2,1:2:0:0:
474,111,86471,6,0,L|377:103,1,87.5,2|0,0:0|0:0,0:0:0:0:
345,99,86768,6,0,B|362:158|362:158|348:222,1,116.666666666667,4|0,1:2|0:0,0:0:0:0:
285,261,87213,2,0,P|329:288|398:276,1,116.666666666667,0|0,1:0|0:0,0:0:0:0:
457,231,87659,2,0,P|413:204|344:216,1,116.666666666667,0|0,1:0|0:0,0:0:0:0:
285,261,88104,1,2,1:2:0:0:
285,261,88550,6,0,L|222:257,2,58.3333333333333,0|0|0,1:0|0:0|0:0,0:0:0:0:
350,213,88995,2,0,L|353:154,1,58.3333333333333,0|0,1:0|0:0,0:0:0:0:
361,73,89292,1,0,0:0:0:0:
290,109,89441,2,0,B|221:123|242:84|164:104,1,116.666666666667,0|0,1:0|0:0,0:0:0:0:
108,61,89886,2,0,P|132:114|110:170,1,116.666666666667,0|2,1:0|0:0,0:0:0:0:
82,242,90332,5,2,1:2:0:0:
195,359,90629,1,2,0:0:0:0:
195,359,90777,1,2,1:2:0:0:
256,207,91074,1,2,0:0:0:0:
256,207,91223,1,2,1:2:0:0:
317,359,91520,1,2,0:2:0:0:
317,359,91668,1,2,1:2:0:0:
430,242,91965,1,2,0:0:0:0:
430,242,92114,6,0,L|422:114,1,116.666666666667,2|2,1:2|1:2,0:0:0:0:
414,44,92559,1,2,1:2:0:0:
350,95,92708,2,0,L|292:86,1,58.3333333333333,2|2,0:0|0:0,0:0:0:0:
224,35,93005,2,0,P|208:88|235:149,1,116.666666666667,2|0,1:2|0:0,0:0:0:0:
319,189,93450,2,0,B|259:228|259:228|185:220,1,139.999995727539,8|0,0:1|1:0,0:0:0:0:
127,156,93896,6,0,P|58:156|10:204,1,128.333337249756,4|0,1:2|0:0,0:0:0:0:
92,239,94341,2,0,L|78:370,1,128.333337249756,8|0,0:0|0:0,0:0:0:0:
177,348,94787,2,0,L|191:217,1,128.333337249756,0|0,1:0|0:0,0:0:0:0:
127,156,95232,2,0,B|187:135|187:135|257:152,1,128.333337249756,10|2,0:0|0:0,0:0:0:0:
302,223,95678,6,0,P|325:199|341:168,2,64.166668624878,0|0|0,1:0|0:0|0:0,0:0:0:0:
250,151,96123,2,0,L|245:78,2,64.166668624878,8|0|0,0:0|0:0|0:0,0:0:0:0:
173,51,96569,2,0,P|204:17|290:20,1,128.333337249756,0|0,1:0|0:0,0:0:0:0:
355,122,97014,2,0,P|292:127|245:86,1,128.333337249756,8|2,0:0|0:0,0:0:0:0:
367,40,97460,5,2,1:2:0:0:
367,219,97757,1,2,0:0:0:0:
367,219,97905,1,10,0:2:0:0:
256,359,98202,1,2,0:0:0:0:
256,359,98351,1,2,1:2:0:0:
145,219,98648,1,2,0:0:0:0:
145,219,98796,1,10,0:0:0:0:
145,40,99093,1,2,0:0:0:0:
145,40,99242,6,0,B|204:55|204:55|268:30,1,116.666666666667,2|0,0:1|0:0,0:0:0:0:
260,115,99687,2,0,B|311:94|311:94|370:109,1,116.666666666667,2|2,0:0|0:0,0:0:0:0:
426,169,100133,2,0,B|374:189|374:189|315:174,1,116.666666666667,2|0,0:0|0:0,0:0:0:0:
260,115,100578,2,0,B|275:177|275:177|271:192|271:192|285:255,1,139.999995727539,8|0,0:1|1:0,0:0:0:0:
344,306,101024,6,0,P|273:289|259:378,2,175,0|0|0,1:0|1:0|1:0,0:0:0:0:
463,192,102212,1,0,0:0:0:0:
463,192,102360,2,0,L|456:55,1,116.666666666667,2|2,1:2|0:0,0:0:0:0:
388,30,102806,6,0,P|328:29|286:63,1,116.666666666667,0|0,1:0|0:0,0:0:0:0:
355,103,103251,2,0,P|309:138|252:136,1,116.666666666667,0|0,1:0|0:0,0:0:0:0:
191,82,103697,2,0,B|176:129|176:129|186:196,1,116.666666666667,2|2,1:2|0:0,0:0:0:0:
225,266,104142,1,0,1:0:0:0:
225,266,104291,2,0,P|195:274|161:272,1,58.3333333333333,0|0,1:0|1:0,0:0:0:0:
104,221,104588,5,2,1:2:0:0:
191,82,104885,1,2,0:0:0:0:
191,82,105033,1,2,0:0:0:0:
256,231,105330,1,2,1:2:0:0:
256,231,105479,1,2,1:2:0:0:
321,82,105776,1,2,0:0:0:0:
321,82,105924,1,2,0:0:0:0:
408,221,106221,1,2,1:2:0:0:
408,221,106370,5,2,1:2:0:0:
383,304,106815,1,0,0:0:0:0:
311,354,107261,1,0,0:0:0:0:
412,131,107706,5,4,1:0:0:0:
