osu file format v14

[General]
AudioFilename: audio.mp3
AudioLeadIn: 0
PreviewTime: 42626
Countdown: 0
SampleSet: Soft
StackLeniency: 0.3
Mode: 0
LetterboxInBreaks: 0
WidescreenStoryboard: 0

[Editor]
Bookmarks: 10668,16001,32001,42668
DistanceSpacing: 1.4
BeatDivisor: 4
GridSize: 8
TimelineZoom: 1.9

[Metadata]
Title:Doki-Doki
TitleUnicode:どきどき
Artist:Thaehan
ArtistUnicode:Thaehan
Creator:Nostalgic
Version:Advanced
Source:
Tags:Loki Electronic TheKoala Doki Einja Faygor Little CloudSplash16 Deppyforce Cosmolade Suzuki_1112 1112deng Power Up
BeatmapID:1434561
BeatmapSetID:637223

[Difficulty]
HPDrainRate:5
CircleSize:4
OverallDifficulty:5
ApproachRate:7
SliderMultiplier:1.2
SliderTickRate:1

[Events]
//Background and Video events
0,0,"bg.jpg",0,0
//Break Periods
2,80034,85101
//Storyboard Layer 0 (Background)
//Storyboard Layer 1 (Fail)
//Storyboard Layer 2 (Pass)
//Storyboard Layer 3 (Foreground)
//Storyboard Sound Samples

[TimingPoints]
2,333.333333333333,4,2,1,60,1,0
5335,-100,4,2,1,70,0,0
10001,-100,4,2,1,70,0,0
10335,-100,4,2,2,70,0,0
10668,-100,4,2,1,80,0,0
16001,-100,4,2,1,85,0,0
21001,-100,4,2,1,70,0,0
30668,-100,4,2,1,55,0,0
32001,-100,4,2,1,80,0,0
34001,-100,4,2,2,80,0,0
34668,-100,4,2,1,80,0,0
36668,-100,4,2,2,80,0,0
37335,-100,4,2,1,80,0,0
39335,-100,4,2,2,80,0,0
40001,-100,4,2,1,80,0,0
41335,-100,4,2,1,55,0,0
42668,-100,4,2,1,70,0,0
47710,-100,4,2,1,5,0,0
47751,-100,4,2,1,70,0,0
47793,-100,4,2,1,5,0,0
47835,-100,4,2,1,70,0,0
47876,-100,4,2,1,5,0,0
48001,-100,4,2,1,70,0,0
52001,-100,4,2,1,60,0,0
52668,-100,4,2,2,65,0,0
53001,-100,4,2,1,80,0,0
53335,-100,4,2,1,80,0,0
54001,-100,4,2,1,83,0,0
54668,-100,4,2,1,86,0,0
55335,-100,4,2,1,89,0,0
56001,-100,4,2,1,92,0,0
56668,-100,4,2,1,95,0,0
57335,-100,4,2,2,70,0,0
58001,-100,4,2,2,75,0,0
58668,-100,4,2,1,80,0,1
64001,-100,4,2,1,80,0,1
69001,-100,4,2,2,80,0,1
69335,-100,4,2,1,70,0,0
70668,-100,4,2,1,80,0,1
74668,-100,4,2,1,80,0,1
79668,-100,4,2,2,80,0,1
80001,-100,4,2,1,75,0,0
90001,-100,4,2,2,80,0,0
90668,-100,4,2,1,85,0,1
100001,-100,4,2,1,60,0,0
101335,-100,4,2,2,65,0,0

[Colours]
Combo1 : 202,124,54
Combo2 : 0,128,255
Combo3 : 255,128,255

[HitObjects]
413,151,2,5,6,0:0:0:0:
413,151,168,2,0,P|431:203|412:290,1,120,0|0,0:0|0:0,0:0:0:0:
357,318,668,2,0,L|279:312,1,60,8|8,0:0|0:0,0:0:0:0:
310,219,1001,2,0,L|232:225,1,60,8|8,0:0|0:0,0:0:0:0:
185,169,1335,6,0,P|208:119|221:108,1,60,10|2,0:0|0:0,0:0:0:0:
291,91,1668,2,0,P|342:71|359:73,1,60,6|10,0:0|0:0,0:0:0:0:
428,89,2001,2,0,P|478:112|489:125,1,60,6|6,0:0|0:0,0:0:0:0:
423,177,2335,5,10,0:0:0:0:
423,177,2501,1,10,0:0:0:0:
374,245,2668,6,0,L|286:242,2,60,6|6|10,0:0|0:0|0:0,0:0:0:0:
423,177,3168,1,10,0:0:0:0:
338,173,3335,6,10,L|250:170,2,60,14|14|10,0:0|0:0|0:0,0:0:0:0:
422,177,3835,1,10,0:0:0:0:
393,93,4001,6,0,P|369:70|352:42,1,60,6|2,0:0|0:0,0:0:0:0:
271,30,4335,2,0,B|178:26|178:26|68:53,1,180,8|4,0:0|0:0,0:0:0:0:
132,121,5001,2,0,L|67:137,1,60,8|0,0:0|0:0,0:0:0:0:
39,212,5335,6,0,L|122:212,1,60,4|0,0:0|0:0,0:0:0:0:
182,217,5668,1,8,0:0:0:0:
182,217,5835,1,2,0:0:0:0:
164,298,6001,6,0,L|78:298,1,60,4|0,0:0|0:0,0:0:0:0:
19,299,6334,1,8,0:0:0:0:
19,299,6501,1,8,0:0:0:0:
2,381,6668,6,0,L|93:381,1,60,6|0,0:0|0:0,0:0:0:0:
149,384,7001,1,8,0:0:0:0:
149,384,7168,1,2,0:0:0:0:
230,363,7335,6,0,L|254:284,1,60,4|2,0:0|0:0,0:0:0:0:
331,298,7668,2,0,L|355:219,1,60,8|8,0:0|0:0,0:0:0:0:
373,160,8001,5,4,0:0:0:0:
226,76,8335,2,0,B|209:44|209:44|180:15,1,60,2|2,0:0|0:0,0:0:0:0:
137,101,8668,1,8,0:0:0:0:
137,101,8835,1,2,0:0:0:0:
100,176,9001,1,8,0:0:0:0:
100,176,9168,1,4,0:0:0:0:
162,233,9335,6,0,L|232:221,1,60,4|2,0:0|0:0,0:0:0:0:
271,155,9668,1,10,0:0:0:0:
271,155,9835,1,2,0:0:0:0:
271,155,10001,2,0,L|341:143,1,60,6|6,0:0|0:0,0:0:0:0:
446,135,10335,5,2,0:0:0:0:
331,46,10668,6,0,L|408:70,3,60,4|2|8|2,0:0|0:3|0:0|0:3,0:0:0:0:
446,135,11335,1,4,0:0:0:0:
446,135,11501,1,2,0:0:0:0:
410,232,11668,2,0,P|388:276|365:292,1,60,8|2,0:0|0:3,0:0:0:0:
316,200,12001,6,0,L|233:177,1,60,4|2,0:0|0:3,0:0:0:0:
167,242,12335,2,0,L|228:181,1,60,8|2,0:0|0:3,0:0:0:0:
206,92,12668,2,0,L|227:175,1,60,4|4,0:0|0:0,0:0:0:0:
136,151,13001,5,8,0:0:0:0:
136,151,13168,1,2,0:3:0:0:
136,151,13335,2,0,P|108:154|46:145,1,60,4|2,0:0|0:3,0:0:0:0:
69,236,13668,2,0,P|66:264|75:326,1,60,8|2,0:3|0:3,0:0:0:0:
147,347,14001,5,4,0:0:0:0:
147,347,14168,1,2,0:3:0:0:
147,347,14335,2,0,P|175:350|237:341,1,60,8|2,0:3|0:3,0:0:0:0:
281,308,14668,6,0,P|279:258|292:231,1,60,4|2,0:0|0:3,0:0:0:0:
361,278,15001,2,0,P|392:285|424:280,1,60,8|2,0:0|0:3,0:0:0:0:
397,199,15335,2,0,L|335:136,1,60,4|2,0:0|0:0,0:0:0:0:
270,157,15668,2,0,L|207:219,1,60,4|0,0:0|0:0,0:0:0:0:
146,227,16001,6,0,P|149:179|144:134,1,60,4|2,0:0|0:3,0:0:0:0:
131,84,16335,1,8,0:0:0:0:
131,84,16501,1,2,0:3:0:0:
50,106,16668,6,0,P|47:154|52:199,1,60,4|2,0:0|0:3,0:0:0:0:
61,249,17002,1,8,0:0:0:0:
61,249,17168,1,4,0:0:0:0:
115,313,17335,6,0,P|163:310|208:315,1,60,4|2,0:0|0:3,0:0:0:0:
258,324,17669,1,8,0:0:0:0:
258,324,17835,1,2,0:3:0:0:
341,321,18001,6,0,P|364:287|367:245,1,60,4|2,0:0|0:3,0:0:0:0:
285,247,18335,2,0,P|262:213|259:171,1,60,8|8,0:0|0:0,0:0:0:0:
341,183,18668,5,4,0:0:0:0:
341,183,18835,2,0,P|369:138|358:49,1,120,2|2,0:3|0:3,0:0:0:0:
293,110,19335,1,4,0:0:0:0:
293,110,19501,1,2,0:3:0:0:
211,155,19668,1,8,0:0:0:0:
211,155,19835,1,4,0:0:0:0:
146,221,20001,6,0,B|228:272|228:272|338:308,1,180,4|8,0:0|0:0,0:0:0:0:
387,327,20668,2,0,L|409:248,1,60
427,164,21001,1,8,0:0:0:0:
308,299,21335,6,0,B|294:169,1,120,4|8,0:0|0:0,0:0:0:0:
265,102,21835,1,2,0:0:0:0:
265,102,22001,2,0,L|175:132,1,60,4|2,0:0|0:0,0:0:0:0:
239,199,22335,2,0,L|329:169,1,60,8|10,0:0|0:0,0:0:0:0:
344,111,22668,2,0,P|384:163|366:231,1,120,4|8,0:0|0:0,0:0:0:0:
349,293,23168,1,0,0:0:0:0:
276,336,23335,2,0,P|237:342|201:329,1,60,4|6,0:0|0:0,0:0:0:0:
197,255,23668,2,0,P|240:251|264:262,1,60,8|0,0:0|0:0,0:0:0:0:
312,188,24001,6,0,P|260:111|276:63,1,120,4|8,0:0|0:0,0:0:0:0:
344,111,24501,1,2,0:0:0:0:
312,188,24668,2,0,L|237:182,1,60,4|2,0:0|0:0,0:0:0:0:
274,264,25001,2,0,L|349:270,1,60,0|10,0:0|0:0,0:0:0:0:
409,307,25335,6,0,P|451:259|466:184,1,120,4|0,0:0|0:0,0:0:0:0:
425,132,25835,1,0,0:0:0:0:
344,111,26001,2,0,P|305:105|269:118,1,60,4|6,0:0|0:0,0:0:0:0:
252,187,26334,2,0,P|291:190|323:184,1,60,8|0,0:0|0:0,0:0:0:0:
274,264,26668,6,0,B|209:281|209:281|117:288,1,120,4|8,0:0|0:0,0:0:0:0:
73,297,27168,1,2,0:0:0:0:
62,213,27335,2,0,B|56:182|56:182|62:126,1,60,4|2,0:0|0:0,0:0:0:0:
141,169,27668,2,0,B|144:136|144:136|138:106,1,60,8|0,0:0|0:0,0:0:0:0:
63,75,28001,6,0,P|104:32|178:35,1,120,4|10,0:0|0:0,0:0:0:0:
245,40,28501,1,0,0:0:0:0:
321,78,28668,2,0,P|358:103|374:144,1,60,4|2,0:0|0:0,0:0:0:0:
288,149,29001,2,0,P|251:174|235:215,1,60,8|10,0:0|0:0,0:0:0:0:
315,229,29335,6,0,P|358:225|398:230,1,60,4|2,0:0|0:0,0:0:0:0:
484,236,29668,1,8,0:0:0:0:
484,236,29835,1,2,0:0:0:0:
489,152,30001,2,0,L|514:62,1,60,4|2,0:0|0:0,0:0:0:0:
421,82,30335,2,0,L|396:-8,1,60,8|10,0:0|0:0,0:0:0:0:
312,40,30668,1,0,0:0:0:0:
209,77,32001,6,0,P|257:38|333:52,1,120,4|0,0:0|0:0,0:0:0:0:
282,116,32501,1,0,0:0:0:0:
354,158,32668,2,0,P|306:197|230:183,1,120,0|0,0:0|0:0,0:0:0:0:
282,116,33168,1,0,0:0:0:0:
209,77,33335,6,0,P|171:144|180:219,1,120,0|0,0:0|0:0,0:0:0:0:
186,268,33835,1,0,0:0:0:0:
268,279,34001,2,0,P|301:287|349:311,1,60,2|0,0:0|0:0,0:0:0:0:
274,364,34334,2,0,P|240:355|192:331,1,60,2|0,0:0|0:0,0:0:0:0:
186,268,34668,6,0,B|187:201|187:201|215:121,1,120,4|8,0:0|0:0,0:0:0:0:
236,73,35168,1,2,0:0:0:0:
320,72,35335,2,0,P|357:88|385:112,1,60,0|0,0:0|0:0,0:0:0:0:
331,173,35668,2,0,P|294:157|266:133,1,60,8|0,0:0|0:0,0:0:0:0:
236,73,36001,6,0,B|168:72|168:72|88:92,1,120,4|8,0:0|0:0,0:0:0:0:
65,150,36501,1,2,0:0:0:0:
83,232,36668,2,0,P|99:269|123:297,1,60,2|0,0:0|0:0,0:0:0:0:
187,250,37001,2,0,P|171:213|147:185,1,60,2|0,0:0|0:0,0:0:0:0:
233,156,37335,6,0,B|267:219|267:219|272:277,1,120,4|8,0:0|0:0,0:0:0:0:
264,351,37835,1,2,0:0:0:0:
347,359,38001,2,0,L|423:367,1,60,0|0,0:0|0:0,0:0:0:0:
478,319,38335,2,0,L|486:243,1,60,8|0,0:0|0:0,0:0:0:0:
404,232,38668,6,0,L|419:91,1,120,4|8,0:0|0:0,0:0:0:0:
333,98,39168,1,2,0:0:0:0:
252,122,39335,2,0,L|256:34,1,60,2|0,0:0|0:0,0:0:0:0:
170,63,39668,2,0,L|172:122,1,60,2|0,0:0|0:0,0:0:0:0:
118,187,40001,6,0,P|160:197|201:214,1,60,4|2,0:0|0:0,0:0:0:0:
260,208,40335,2,0,P|290:198|322:192,1,60,8|0,0:0|0:0,0:0:0:0:
401,193,40668,2,0,P|443:203|484:220,3,60,4|2|8|10,0:0|0:0|0:0|0:0,0:0:0:0:
464,293,41335,5,0,0:0:0:0:
57,193,42668,6,0,L|203:234,1,120,4|8,0:0|0:0,0:0:0:0:
216,296,43168,1,2,0:0:0:0:
172,225,43335,2,0,L|213:79,1,120,4|8,0:3|0:0,0:0:0:0:
274,63,43835,1,0,0:0:0:0:
355,82,44001,6,0,L|350:165,1,60,0|8,0:0|0:0,0:0:0:0:
436,139,44335,2,0,L|439:198,1,60,8|2,0:0|0:3,0:0:0:0:
360,226,44668,1,8,0:0:0:0:
360,226,44835,2,0,L|292:236,1,60,0|4,0:0|0:0,0:0:0:0:
217,248,45168,1,0,0:0:0:0:
141,211,45335,6,0,P|125:175|118:131,1,60,4|6,0:0|0:0,0:0:0:0:
167,85,45668,2,0,P|199:79|231:85,1,60,4|0,0:0|0:0,0:0:0:0:
261,159,46001,2,0,P|229:165|191:156,1,60,8|0,0:0|0:0,0:0:0:0:
217,248,46335,1,4,0:0:0:0:
217,248,46501,1,0,0:0:0:0:
291,286,46668,6,0,L|379:296,1,60,8|6,0:0|0:0,0:0:0:0:
385,215,47001,2,0,L|468:204,1,60,8|6,0:0|0:0,0:0:0:0:
458,123,47335,2,0,L|447:40,1,60,8|0,0:0|0:0,0:0:0:0:
368,43,47668,1,10,0:0:0:0:
368,43,47835,1,0,0:0:0:0:
285,56,48001,6,0,P|210:82|188:150,1,120,4|8,0:0|0:0,0:0:0:0:
271,139,48501,1,2,0:0:0:0:
257,222,48668,2,0,P|332:196|354:128,1,120,4|8,0:0|0:0,0:0:0:0:
271,139,49168,1,0,0:0:0:0:
338,88,49335,6,0,P|382:92|426:141,1,60,4|2,0:0|0:0,0:0:0:0:
456,156,49668,2,0,P|474:196|454:258,1,60,8|2,0:0|0:0,0:0:0:0:
433,284,50001,1,4,0:0:0:0:
433,284,50168,2,0,P|407:320|343:333,1,60,0|8,0:0|0:0,0:0:0:0:
310,320,50501,1,0,0:0:0:0:
226,328,50668,6,0,L|219:251,1,60,8|2,0:0|0:0,0:0:0:0:
158,210,51001,2,0,L|81:217,1,60,8|2,0:0|0:0,0:0:0:0:
102,130,51335,2,0,L|179:137,1,60,4|0,0:0|0:0,0:0:0:0:
210,66,51668,1,8,0:0:0:0:
210,66,51835,1,0,0:0:0:0:
289,91,52001,6,0,P|267:123|236:138,3,60,8|6|8|6,0:0|0:0|0:0|0:0,0:0:0:0:
164,151,52668,2,0,P|157:208|173:258,1,100,0|0,0:0|0:0,0:0:0:0:
190,265,53001,6,0,B|226:262|237:266|237:266|250:265|260:265|260:265|276:263,1,60,8|0,0:0|0:0,0:0:0:0:
256,192,53335,12,2,54501,0:0:0:0:
256,192,54668,12,6,55835,0:0:0:0:
256,192,56001,12,0,57168,0:0:0:0:
172,203,57335,6,0,P|291:271|209:264,1,420,2|0,0:0|0:0,0:0:0:0:
256,194,58668,6,0,L|256:110,3,60,4|2|8|2,0:0|0:3|0:0|0:3,0:0:0:0:
310,69,59335,1,4,0:0:0:0:
310,69,59501,1,2,0:3:0:0:
390,93,59668,2,0,P|387:40|369:9,1,60,8|8,0:0|0:0,0:0:0:0:
310,69,60001,6,0,P|264:61|244:59,1,60,8|10,0:0|0:0,0:0:0:0:
249,144,60335,2,0,P|232:100|224:81,1,60,4|6,0:0|0:0,0:0:0:0:
154,129,60668,2,0,P|183:93|195:76,1,60,8|10,0:0|0:0,0:0:0:0:
117,40,61001,5,4,0:0:0:0:
117,40,61168,1,4,0:0:0:0:
117,40,61335,2,0,P|85:36|53:40,1,60,4|10,0:0|0:0,0:0:0:0:
20,114,61668,2,0,P|53:118|85:114,1,60,8|2,0:3|0:0,0:0:0:0:
107,194,62001,5,4,0:0:0:0:
107,194,62168,1,10,0:0:0:0:
107,194,62335,2,0,P|103:226|107:258,1,60,8|2,0:3|0:0,0:0:0:0:
184,222,62668,6,0,L|269:229,1,60,8|2,0:0|0:3,0:0:0:0:
281,151,63001,2,0,L|366:144,1,60,4|2,0:3|0:3,0:0:0:0:
390,214,63335,2,0,P|402:252|401:297,1,60,8|2,0:0|0:3,0:0:0:0:
319,261,63668,2,0,P|292:290|252:312,1,60,4|0,0:0|0:0,0:0:0:0:
195,328,64001,6,0,L|124:324,1,60,4|2,0:0|0:3,0:0:0:0:
50,316,64335,1,8,0:0:0:0:
50,316,64501,1,2,0:3:0:0:
82,238,64668,6,0,L|166:243,1,60,4|6,0:0|0:3,0:0:0:0:
225,245,65001,1,8,0:0:0:0:
225,245,65168,1,8,0:0:0:0:
259,168,65335,6,0,L|188:161,1,60,4|2,0:0|0:3,0:0:0:0:
115,154,65668,1,8,0:0:0:0:
115,154,65835,1,2,0:3:0:0:
132,72,66001,6,0,P|168:77|213:65,1,60,4|0,0:0|0:0,0:0:0:0:
273,54,66335,2,0,P|309:49|354:61,1,60,0|0,0:0|0:0,0:0:0:0:
415,65,66668,5,4,0:0:0:0:
415,65,66835,2,0,P|463:113|457:191,1,120,10|2,0:0|0:0,0:0:0:0:
385,146,67335,2,0,L|345:197,1,60,4|2,0:0|0:3,0:0:0:0:
263,188,67668,2,0,L|223:136,1,60,8|10,0:0|0:0,0:0:0:0:
308,119,68001,1,4,0:0:0:0:
160,199,68335,5,8,0:0:0:0:
160,199,68501,1,6,0:0:0:0:
160,199,68668,2,0,P|122:199|89:196,1,60,8|8,0:0|0:0,0:0:0:0:
41,136,69001,6,0,L|56:47,1,60,2|0,0:0|0:0,0:0:0:0:
126,39,69335,5,0,0:0:0:0:
196,272,70668,6,0,P|186:234|203:188,1,60,4|6,0:0|0:0,0:0:0:0:
114,174,71001,2,0,P|151:184|183:222,1,60,8|0,0:0|0:0,0:0:0:0:
246,166,71335,2,0,P|218:193|169:201,1,60,4|6,0:0|0:0,0:0:0:0:
125,178,71668,5,4,0:0:0:0:
125,178,71835,1,10,0:0:0:0:
125,178,72001,2,0,P|98:150|90:101,1,60,4|2,0:0|0:3,0:0:0:0:
172,109,72335,2,0,P|199:81|207:32,1,60,8|2,0:3|0:0,0:0:0:0:
296,51,72668,5,2,0:3:0:0:
296,51,72835,1,4,0:0:0:0:
296,51,73001,2,0,P|331:42|370:53,1,60,8|2,0:3|0:0,0:0:0:0:
381,125,73335,6,0,L|294:133,1,60,4|2,0:0|0:3,0:0:0:0:
280,214,73668,2,0,L|193:226,1,60,8|2,0:3|0:3,0:0:0:0:
164,284,74001,2,0,P|147:338|155:385,1,60,4|2,0:0|0:3,0:0:0:0:
80,288,74335,2,0,P|60:263|48:233,1,60,4|0,0:0|0:0,0:0:0:0:
127,205,74668,6,0,L|121:120,1,60,4|2,0:0|0:3,0:0:0:0:
129,65,75001,1,8,0:0:0:0:
129,65,75168,1,2,0:3:0:0:
208,37,75335,6,0,L|293:31,1,60,4|2,0:0|0:3,0:0:0:0:
353,31,75668,1,8,0:0:0:0:
353,31,75835,1,8,0:0:0:0:
404,96,76001,6,0,L|410:181,1,60,6|2,0:0|0:3,0:0:0:0:
410,241,76334,1,8,0:0:0:0:
410,241,76501,1,2,0:3:0:0:
437,320,76668,6,0,P|407:323|377:318,1,60,0|2,0:0|0:0,0:0:0:0:
304,277,77001,2,0,P|272:272|240:277,1,60,8|8,0:0|0:0,0:0:0:0:
172,230,77335,5,4,0:0:0:0:
172,230,77501,2,0,P|146:184|191:86,1,120,10|2,0:0|0:3,0:0:0:0:
226,165,78001,2,0,L|306:156,1,60,4|2,0:0|0:0,0:0:0:0:
291,74,78335,2,0,L|371:83,1,60,8|10,0:0|0:0,0:0:0:0:
433,92,78668,5,4,0:0:0:0:
466,256,79001,1,8,0:0:0:0:
466,256,79168,1,2,0:0:0:0:
466,256,79335,2,0,L|452:335,1,60,0|0,0:0|0:0,0:0:0:0:
381,355,79668,6,0,L|367:276,1,60,2|0,0:0|0:0,0:0:0:0:
256,192,86001,12,8,90001,0:0:0:0:
115,106,90668,6,0,L|185:90,1,60,4|2,0:0|0:0,0:0:0:0:
204,172,91001,2,0,L|274:189,1,60,8|0,0:0|0:0,0:0:0:0:
295,106,91335,2,0,L|365:90,1,60,4|2,0:0|0:0,0:0:0:0:
383,172,91668,2,0,L|453:189,1,60,8|0,0:0|0:0,0:0:0:0:
458,268,92001,6,0,P|436:306|422:319,1,60,4|2,0:0|0:0,0:0:0:0:
340,312,92335,2,0,P|301:332|284:337,1,60,0|0,0:0|0:0,0:0:0:0:
202,328,92668,2,0,P|158:327|140:322,1,60,4|2,0:0|0:0,0:0:0:0:
73,274,93001,2,0,P|35:251|22:238,1,60,0|0,0:0|0:0,0:0:0:0:
93,190,93335,6,0,L|112:122,1,60,4|2,0:0|0:0,0:0:0:0:
192,149,93668,2,0,L|208:207,1,60,8|0,0:0|0:0,0:0:0:0:
287,177,94001,2,0,L|303:235,1,60,4|0,0:0|0:0,0:0:0:0:
382,206,94334,2,0,L|398:146,1,60,0|0,0:0|0:0,0:0:0:0:
362,71,94668,6,0,P|324:54|283:46,3,60,4|0|0|0,0:0|0:0|0:0|0:0,0:0:0:0:
221,49,95335,2,0,P|183:65|142:73,3,60,8|2|0|0,0:0|0:0|0:0|0:0,0:0:0:0:
115,152,96001,6,0,P|137:181|148:202,1,60,4|0,0:0|0:0,0:0:0:0:
91,265,96335,2,0,P|119:243|141:232,1,60,8|2,0:0|0:0,0:0:0:0:
205,288,96668,2,0,P|183:259|172:237,1,60,4|2,0:0|0:0,0:0:0:0:
228,174,97001,2,0,P|200:196|178:207,1,60,8|0,0:0|0:0,0:0:0:0:
115,152,97335,6,0,L|147:101,1,60,4|2,0:0|0:0,0:0:0:0:
90,36,97668,2,0,L|140:68,1,60,8|2,0:0|0:0,0:0:0:0:
204,11,98001,2,0,L|171:61,1,60,4|2,0:0|0:0,0:0:0:0:
228,125,98335,2,0,L|177:92,1,60,8|10,0:0|0:0,0:0:0:0:
115,152,98668,6,0,P|104:186|82:217,3,60,4|2|8|2,0:0|0:0|0:0|0:0,0:0:0:0:
6,199,99335,2,0,P|16:164|38:133,3,60,4|2|8|2,0:0|0:0|0:0|0:0,0:0:0:0:
256,192,100001,12,6,101335,0:0:0:0:
