osu file format v14

[General]
AudioFilename: Tha Trickaz - Legend.mp3
AudioLeadIn: 0
PreviewTime: 68612
Countdown: 0
SampleSet: Soft
StackLeniency: 0.7
Mode: 0
LetterboxInBreaks: 0
WidescreenStoryboard: 0

[Editor]
Bookmarks: 47355
DistanceSpacing: 1
BeatDivisor: 4
GridSize: 4
TimelineZoom: 1

[Metadata]
Title:Legend
TitleUnicode:Legend
Artist:Tha Trickaz
ArtistUnicode:Tha Trickaz
Creator:Dubu
Version:Hard
Source:
Tags:moph dubstep drumstep trap
BeatmapID:848491
BeatmapSetID:387728

[Difficulty]
HPDrainRate:6
CircleSize:4
OverallDifficulty:6
ApproachRate:8
SliderMultiplier:1.6
SliderTickRate:2

[Events]
//Background and Video events
0,0,"legend.jpg",0,0
//Break Periods
2,47556,57577
//Storyboard Layer 0 (Background)
//Storyboard Layer 1 (Fail)
//Storyboard Layer 2 (Pass)
//Storyboard Layer 3 (Foreground)
//Storyboard Sound Samples

[TimingPoints]
3470,342.857142857143,4,2,0,60,1,0
14441,-111.111111111111,4,2,0,60,0,0
15127,-142.857142857143,4,2,0,60,0,0
15470,-111.111111111111,4,2,0,60,0,0
17870,-142.857142857143,4,2,0,60,0,0
18212,-111.111111111111,4,2,0,60,0,0
20612,-142.857142857143,4,2,0,60,0,0
20955,-111.111111111111,4,2,0,60,0,0
21470,-142.857142857143,4,2,0,60,0,0
21812,-111.111111111111,4,2,0,60,0,0
23698,-200,4,2,0,60,0,0
24384,-111.111111111111,4,2,0,60,0,0
24555,-142.857142857143,4,2,0,60,0,0
24898,-111.111111111111,4,2,0,60,0,0
25412,-142.857142857143,4,1,1,60,0,0
25755,-111.111111111111,4,1,1,60,0,0
26098,-142.857142857143,4,1,1,60,0,0
26441,-111.111111111111,4,1,1,60,0,0
28841,-142.857142857143,4,1,1,60,0,0
29184,-111.111111111111,4,1,1,60,0,0
30898,-142.857142857143,4,1,1,60,0,0
31241,-111.111111111111,4,1,1,60,0,0
31584,-142.857142857143,4,1,1,60,0,0
31927,-111.111111111111,4,1,1,60,0,0
36384,-142.857142857143,4,1,1,60,0,0
36727,-111.111111111111,4,1,1,60,0,0
37070,-142.857142857143,4,1,1,60,0,0
37412,-111.111111111111,4,1,1,60,0,0
39812,-142.857142857143,4,1,1,60,0,0
40155,-111.111111111111,4,1,1,60,0,0
41870,-142.857142857143,4,1,1,60,0,0
42212,-111.111111111111,4,1,1,60,0,0
42555,-142.857142857143,4,1,1,60,0,0
42898,-111.111111111111,4,1,1,60,0,0
58327,-111.111111111111,4,1,1,60,0,0
69298,-100,4,1,1,60,0,1
71355,-151.515151515152,4,1,1,60,0,1
71698,-100,4,1,1,60,0,1
76841,-151.515151515152,4,1,1,60,0,1
77184,-100,4,1,1,60,0,1
80270,-151.515151515152,4,1,1,60,0,1
80784,-100,4,1,1,60,0,1
82327,-151.515151515152,4,1,1,60,0,1
82670,-100,4,1,1,60,0,1
85755,-151.515151515152,4,1,1,60,0,1
86270,-100,4,1,1,60,0,1
87812,-151.515151515152,4,1,1,60,0,1
88155,-100,4,1,1,60,0,1
89184,-151.515151515152,4,1,1,60,0,1
89527,-100,4,1,1,60,0,1
91241,-100,4,1,1,60,0,0
91412,-151.515151515152,4,1,1,60,0,0
91755,-100,4,1,1,60,0,0
93984,-151.515151515152,4,1,1,60,0,0
94498,-100,4,1,1,60,0,0
96727,-151.515151515152,4,1,1,60,0,0
97070,-100,4,1,1,60,0,0

[Colours]
Combo1 : 243,158,95
Combo2 : 244,205,70
Combo3 : 53,247,184
Combo4 : 247,98,120

[HitObjects]
327,39,14441,6,0,P|287:35|241:53,1,71.9999978027344,4|0,0:0|0:0,0:0:0:0:
214,101,14784,1,0,0:0:0:0:
242,166,14955,1,0,0:0:0:0:
242,166,15127,2,0,P|250:222|233:289,1,111.999996582031,2|0,0:0|0:0,0:0:0:0:
191,330,15641,2,0,P|224:347|268:339,1,71.9999978027344,2|0,0:0|0:0,0:0:0:0:
325,367,15984,1,0,0:0:0:0:
394,352,16155,1,0,0:0:0:0:
413,282,16327,1,0,0:0:0:0:
413,282,16498,2,0,B|407:243|407:243|412:200,1,71.9999978027344,2|0,0:0|0:0,0:0:0:0:
472,173,16841,2,0,B|478:134|478:134|473:91,1,71.9999978027344,2|0,0:0|0:0,0:0:0:0:
413,62,17184,6,0,P|375:56|330:72,1,71.9999978027344,4|0,0:0|0:0,0:0:0:0:
280,100,17527,1,0,0:0:0:0:
210,81,17698,1,0,0:0:0:0:
210,81,17870,2,0,P|158:68|99:79,1,111.999996582031,2|0,0:0|0:0,0:0:0:0:
53,132,18384,2,0,P|84:150|134:141,1,71.9999978027344,2|0,0:0|0:0,0:0:0:0:
191,152,18727,1,0,0:0:0:0:
258,175,18898,1,0,0:0:0:0:
276,244,19070,1,0,0:0:0:0:
276,244,19241,2,0,P|262:283|271:336,1,71.9999978027344,2|0,0:0|0:0,0:0:0:0:
318,359,19584,2,0,P|332:320|323:267,1,71.9999978027344,2|0,0:0|0:0,0:0:0:0:
343,218,19927,6,0,P|375:209|427:214,1,71.9999978027344,4|0,0:0|0:0,0:0:0:0:
464,261,20270,1,0,0:0:0:0:
483,191,20441,1,0,0:0:0:0:
483,191,20612,2,0,B|484:135|484:135|477:70,1,111.999996582031,2|0,0:0|0:0,0:0:0:0:
416,41,21127,2,0,P|379:34|336:41,1,71.9999978027344,2|0,0:0|0:0,0:0:0:0:
283,76,21470,2,0,P|227:84|162:64,1,111.999996582031,2|0,0:0|0:0,0:0:0:0:
116,26,21984,2,0,P|102:56|112:105,1,71.9999978027344,2|0,0:0|0:0,0:0:0:0:
159,143,22327,1,0,0:0:0:0:
89,162,22498,1,0,0:0:0:0:
139,213,22670,6,0,L|148:294,1,71.9999978027344,8|0,0:0|0:0,0:0:0:0:
209,319,23012,1,0,0:0:0:0:
271,282,23184,2,0,L|357:281,1,71.9999978027344,8|0,0:0|0:0,0:0:0:0:
391,227,23527,1,0,0:0:0:0:
350,167,23698,2,0,B|309:149|270:165|270:165|229:178|192:164,1,160,12|0,0:0|0:0,0:0:0:0:
168,98,24555,2,0,P|180:48|242:26,1,111.999996582031,8|0,0:0|0:0,0:0:0:0:
300,48,25070,1,2,0:1:0:0:
353,95,25241,1,2,0:1:0:0:
353,95,25412,6,0,P|411:116|465:79,1,111.999996582031,4|0,0:0|0:0,0:0:0:0:
402,42,25927,1,0,0:0:0:0:
402,42,26012,1,0,0:0:0:0:
402,42,26098,2,0,L|404:168,1,111.999996582031,8|0,0:0|0:0,0:0:0:0:
444,213,26612,2,0,P|449:250|446:294,1,71.9999978027344,2|0,0:2|0:0,0:0:0:0:
391,329,26955,1,0,0:0:0:0:
321,310,27127,2,0,L|244:310,1,71.9999978027344,8|0,0:0|0:0,0:0:0:0:
241,238,27470,2,0,L|333:238,1,71.9999978027344,4|0,0:0|0:0,0:0:0:0:
311,166,27812,2,0,L|223:166,1,71.9999978027344,2|0,0:0|0:0,0:0:0:0:
174,198,28155,6,0,P|138:212|94:202,1,71.9999978027344,4|0,0:0|0:0,0:0:0:0:
50,161,28498,1,0,0:0:0:0:
79,95,28670,1,0,0:0:0:0:
134,141,28841,2,0,L|145:274,1,111.999996582031,8|0,0:0|0:0,0:0:0:0:
119,320,29355,1,0,0:0:0:0:
190,307,29527,1,0,0:0:0:0:
259,326,29698,1,0,0:0:0:0:
322,291,29870,2,0,B|327:250|327:250|324:198,1,71.9999978027344,8|0,0:0|0:0,0:0:0:0:
258,193,30212,1,4,0:0:0:0:
312,146,30384,2,0,P|342:145|380:172,2,71.9999978027344,8|2|0,0:0|0:0|0:0,0:0:0:0:
258,193,30898,6,0,P|202:198|140:189,1,111.999996582031,4|0,0:0|0:0,0:0:0:0:
92,142,31412,1,0,0:0:0:0:
92,142,31498,1,0,0:0:0:0:
92,142,31584,2,0,P|74:192|115:258,1,111.999996582031,8|0,0:0|0:0,0:0:0:0:
164,266,32098,1,0,0:0:0:0:
225,303,32270,1,0,0:0:0:0:
163,339,32441,1,0,0:0:0:0:
164,266,32612,2,0,B|160:230|160:230|167:194,1,71.9999978027344,8|0,0:0|0:0,0:0:0:0:
208,135,32955,2,0,B|216:99|216:99|214:57,1,71.9999978027344,4|0,0:0|0:0,0:0:0:0:
154,24,33298,1,0,0:0:0:0:
100,71,33470,1,0,0:0:0:0:
92,142,33641,6,0,P|91:183|72:238,1,71.9999978027344,4|0,0:0|0:0,0:0:0:0:
33,264,33984,1,8,0:0:0:0:
102,281,34155,2,0,P|138:286|198:285,1,71.9999978027344,4|0,0:0|0:0,0:0:0:0:
227,238,34498,1,8,0:0:0:0:
292,206,34670,2,0,P|328:201|372:210,1,71.9999978027344,4|0,0:0|0:0,0:0:0:0:
413,257,35012,6,0,P|433:220|422:170,1,71.9999978027344,4|0,0:0|0:0,0:0:0:0:
382,138,35355,1,8,0:0:0:0:
329,88,35527,2,0,L|237:79,1,71.9999978027344,4|0,0:0|0:0,0:0:0:0:
193,113,35870,1,8,0:0:0:0:
135,69,36041,1,2,0:1:0:0:
200,40,36212,1,2,0:1:0:0:
200,40,36384,6,0,L|187:165,1,111.999996582031,4|0,0:0|0:0,0:0:0:0:
116,144,36899,1,0,0:0:0:0:
116,144,36984,1,0,0:0:0:0:
116,144,37070,2,0,P|117:87|100:21,1,111.999996582031,8|0,0:0|0:0,0:0:0:0:
40,65,37584,2,0,P|47:105|36:152,1,71.9999978027344,2|0,0:2|0:0,0:0:0:0:
68,203,37927,1,0,0:0:0:0:
138,218,38099,2,0,P|174:220|212:246,1,71.9999978027344,8|0,0:0|0:0,0:0:0:0:
260,282,38442,2,0,P|293:288|348:278,1,71.9999978027344,4|0,0:0|0:0,0:0:0:0:
375,227,38784,2,0,L|378:146,1,71.9999978027344,2|0,0:0|0:0,0:0:0:0:
375,82,39127,6,0,P|410:88|444:130,1,71.9999978027344,4|0,0:0|0:0,0:0:0:0:
446,183,39470,1,0,0:0:0:0:
454,254,39642,1,0,0:0:0:0:
403,305,39813,2,0,P|329:296|297:251,1,111.999996582031,8|0,0:0|0:0,0:0:0:0:
286,201,40327,1,0,0:0:0:0:
235,253,40499,1,0,0:0:0:0:
167,276,40670,1,0,0:0:0:0:
97,300,40842,2,0,B|59:306|59:306|2:299,1,71.9999978027344,8|0,0:0|0:0,0:0:0:0:
26,230,41184,1,4,0:0:0:0:
26,157,41356,2,0,P|52:128|100:125,2,71.9999978027344,8|2|0,0:0|0:0|0:0,0:0:0:0:
89,194,41870,6,0,B|144:201|144:201|208:194,1,111.999996582031,4|2,0:0|0:0,0:0:0:0:
267,220,42384,1,0,0:0:0:0:
267,220,42470,1,0,0:0:0:0:
267,220,42556,2,0,P|267:162|211:125,1,111.999996582031,8|2,0:0|0:0,0:0:0:0:
156,123,43070,1,0,0:0:0:0:
101,75,43242,1,0,0:0:0:0:
145,18,43413,1,0,0:0:0:0:
200,64,43584,2,0,P|238:59|300:57,1,71.9999978027344,8|0,0:0|0:0,0:0:0:0:
336,88,43927,2,0,B|375:90|375:90|416:84,1,71.9999978027344,4|0,0:0|0:0,0:0:0:0:
457,33,44270,1,0,0:0:0:0:
479,101,44442,1,0,0:0:0:0:
429,153,44613,6,0,P|422:193|429:240,1,71.9999978027344,4|0,0:0|0:0,0:0:0:0:
456,288,44956,1,8,0:0:0:0:
416,348,45127,2,0,P|376:352|332:347,1,71.9999978027344,4|0,0:0|0:0,0:0:0:0:
287,304,45470,1,8,0:0:0:0:
227,262,45642,2,0,P|191:261|155:266,1,71.9999978027344,4|0,0:0|0:0,0:0:0:0:
92,301,45984,6,0,P|84:259|100:220,1,71.9999978027344,4|0,0:0|0:0,0:0:0:0:
153,193,46327,1,8,0:0:0:0:
143,121,46499,2,0,L|153:30,1,71.9999978027344,4|0,0:0|0:0,0:0:0:0:
85,19,46842,1,8,0:0:0:0:
19,48,47013,1,8,0:0:0:0:
13,119,47184,1,8,0:0:0:0:
74,157,47356,1,4,0:0:0:0:
460,42,58327,6,0,P|465:76|456:122,1,71.9999978027344,4|0,0:0|0:0,0:0:0:0:
405,161,58670,2,0,P|398:203|405:247,1,71.9999978027344,8|0,0:0|0:0,0:0:0:0:
443,289,59012,2,0,P|407:303|363:290,1,71.9999978027344,8|0,0:0|0:0,0:0:0:0:
343,278,59270,1,0,0:0:0:0:
309,265,59355,2,0,B|257:259|257:259|195:264,1,107.999996704102,0|0,0:0|3:0,0:0:0:0:
174,286,59698,6,0,P|139:295|89:272,1,71.9999978027344,0|0,3:0|3:0,0:0:0:0:
57,231,60041,2,0,P|48:196|71:146,1,71.9999978027344,0|0,3:0|3:0,0:0:0:0:
105,108,60384,2,0,P|140:99|190:122,1,71.9999978027344,8|8,0:0|0:0,0:0:0:0:
229,155,60727,1,8,0:0:0:0:
230,226,60898,1,8,0:0:0:0:
292,189,61070,6,0,L|381:182,1,71.9999978027344,4|0,0:0|0:0,0:0:0:0:
363,111,61412,2,0,L|291:116,1,71.9999978027344,8|0,0:0|0:0,0:0:0:0:
285,44,61755,2,0,L|356:38,1,71.9999978027344,8|0,0:0|0:0,0:0:0:0:
392,37,62012,1,0,0:0:0:0:
423,54,62098,2,0,P|445:104|431:156,1,107.999996704102,0|0,0:0|0:0,0:0:0:0:
409,181,62441,6,0,B|406:220|406:220|413:283,1,71.9999978027344,0|0,3:0|3:0,0:0:0:0:
453,310,62784,2,0,P|421:325|368:305,1,71.9999978027344,0|0,3:0|0:0,0:0:0:0:
339,263,63127,2,0,P|299:254|260:261,1,71.9999978027344,8|8,0:0|0:0,0:0:0:0:
209,299,63470,1,8,0:0:0:0:
140,276,63641,1,8,0:0:0:0:
191,225,63812,6,0,B|195:188|195:188|195:145,1,71.9999978027344,4|0,0:0|0:0,0:0:0:0:
152,94,64155,2,0,P|181:81|236:95,1,71.9999978027344,8|0,0:0|0:0,0:0:0:0:
279,126,64498,2,0,P|313:131|358:115,1,71.9999978027344,8|0,0:0|0:0,0:0:0:0:
369,90,64755,1,0,0:0:0:0:
391,61,64841,2,0,P|384:122|396:177,1,107.999996704102,0|0,0:0|3:0,0:0:0:0:
408,199,65184,6,0,P|415:242|408:279,1,71.9999978027344,4|8,3:1|0:0,0:0:0:0:
350,309,65527,1,8,0:0:0:0:
284,279,65698,1,8,0:0:0:0:
226,322,65870,2,0,B|191:330|191:330|135:327,1,71.9999978027344,12|8,0:0|0:0,0:0:0:0:
88,299,66212,1,8,0:0:0:0:
52,235,66384,1,8,0:0:0:0:
77,167,66555,6,0,L|68:120,3,35.9999989013672,0|0|0|0,0:0|0:0|0:0|0:0,0:0:0:0:
99,153,66898,2,0,L|90:106,3,35.9999989013672,0|0|0|0,0:0|0:0|0:0|0:0,0:0:0:0:
121,139,67241,2,0,L|112:92,3,35.9999989013672,0|0|0|0,0:0|0:0|0:0|0:0,0:0:0:0:
142,125,67584,2,0,L|133:78,3,35.9999989013672,0|0|0|0,0:0|0:0|0:0|0:0,0:0:0:0:
163,111,67927,6,0,L|154:64,7,35.9999989013672,0|0|0|0|0|0|0|0,0:0|0:0|0:0|0:0|0:0|0:0|0:0|0:0,0:0:0:0:
191,99,68612,6,0,P|228:92|271:105,1,71.9999978027344,0|0,0:0|0:0,0:0:0:0:
312,149,68955,1,2,0:0:0:0:
312,149,69127,1,2,0:0:0:0:
312,149,69298,6,0,P|330:112|322:64,1,80,4|0,0:0|0:0,0:0:0:0:
265,22,69641,1,0,0:0:0:0:
260,99,69812,1,0,0:0:0:0:
260,99,69898,1,0,0:0:0:0:
260,99,69984,2,0,P|336:115|424:96,1,160,8|0,0:0|0:0,0:0:0:0:
484,57,70498,1,0,0:0:0:0:
484,57,70584,1,0,0:0:0:0:
484,57,70670,6,0,P|497:103|480:155,1,80,4|0,0:0|0:0,0:0:0:0:
427,181,71012,2,0,B|422:226|422:226|428:279,1,80,2|0,0:0|0:0,0:0:0:0:
481,316,71355,2,0,P|431:337|375:318,1,105.599999677734,0|0,0:0|0:0,0:0:0:0:
312,285,71870,1,0,0:0:0:0:
312,285,71955,1,0,0:0:0:0:
312,285,72041,6,0,P|272:276|227:292,1,80,4|0,0:0|0:0,0:0:0:0:
170,334,72384,1,0,0:0:0:0:
102,291,72555,1,0,0:0:0:0:
168,245,72727,2,0,L|167:149,1,80,8|0,0:0|0:0,0:0:0:0:
110,108,73070,2,0,L|70:96,2,40,0|0|8,0:0|0:0|0:0,0:0:0:0:
186,87,73412,6,0,P|225:90|272:102,1,80,4|0,0:0|0:0,0:0:0:0:
300,171,73755,1,8,0:0:0:0:
346,105,73927,1,0,0:0:0:0:
346,105,74012,1,0,0:0:0:0:
346,105,74098,2,0,L|352:50,2,40,8|0|0,0:0|0:0|0:0,0:0:0:0:
380,177,74441,1,2,0:2:0:0:
427,112,74612,1,2,0:2:0:0:
458,186,74784,6,0,P|459:233|446:290,1,80,4|0,0:0|0:0,0:0:0:0:
409,332,75127,1,0,0:0:0:0:
332,309,75298,1,0,0:0:0:0:
332,309,75384,1,0,0:0:0:0:
332,309,75470,2,0,B|289:299|249:315|249:315|226:308|226:308|200:316|200:316|171:311,1,160,8|0,0:0|0:0,0:0:0:0:
144,238,75984,1,0,0:0:0:0:
144,238,76070,1,0,0:0:0:0:
144,238,76155,6,0,P|155:199|151:145,1,80,4|0,0:0|0:0,0:0:0:0:
127,83,76498,1,0,0:0:0:0:
46,87,76670,1,0,0:0:0:0:
46,87,76755,1,0,0:0:0:0:
46,87,76841,2,0,B|42:134|42:134|46:145|46:145|42:192,1,105.599999677734,0|0,0:0|0:0,0:0:0:0:
69,267,77355,1,0,0:0:0:0:
69,267,77441,1,0,0:0:0:0:
69,267,77527,6,0,P|67:312|77:352,1,80,4|0,0:0|0:0,0:0:0:0:
150,320,77870,1,0,0:0:0:0:
222,353,78041,1,0,0:0:0:0:
280,298,78212,2,0,P|320:290|370:302,1,80,8|0,0:0|0:0,0:0:0:0:
424,342,78555,5,0,0:0:0:0:
424,342,78641,1,0,0:0:0:0:
424,342,78727,2,0,P|437:301|429:260,1,80,8|0,0:0|0:0,0:0:0:0:
367,216,79070,1,0,0:0:0:0:
367,216,79155,1,0,0:0:0:0:
366,216,79241,2,0,B|360:176|360:176|364:127,1,80,8|0,0:0|0:0,0:0:0:0:
412,73,79584,1,8,0:0:0:0:
412,73,79755,2,0,P|453:72|504:81,2,80,4|2|2,0:0|0:2|0:2,0:0:0:0:
332,64,80270,6,0,B|300:54|300:54|267:61|267:61|229:43|177:61,1,158.399999516602,4|0,0:0|0:0,0:0:0:0:
121,116,80955,2,0,P|109:159|115:275,1,160,8|0,0:0|0:0,0:0:0:0:
183,314,81470,1,0,0:0:0:0:
183,314,81555,1,0,0:0:0:0:
183,314,81641,6,0,P|223:323|262:311,1,80,4|0,0:0|0:0,0:0:0:0:
317,257,81984,2,0,P|325:214|315:161,1,80,2|0,0:0|0:0,0:0:0:0:
254,133,82327,2,0,P|287:105|364:115,1,105.599999677734,8|0,0:0|0:0,0:0:0:0:
407,158,82841,1,0,0:0:0:0:
407,158,82927,1,0,0:0:0:0:
407,158,83012,6,0,P|424:119|415:68,1,80,4|0,0:0|0:0,0:0:0:0:
363,26,83355,1,0,0:0:0:0:
282,20,83527,1,0,0:0:0:0:
212,59,83698,2,0,B|173:59|173:59|132:51,1,80,8|0,0:0|0:0,0:0:0:0:
52,47,84041,2,0,P|36:35|26:16,2,40,0|0|8,0:0|0:0|0:0,0:0:0:0:
89,117,84384,6,0,P|89:161|78:226,1,80,4|0,0:0|0:0,0:0:0:0:
32,257,84727,1,8,0:0:0:0:
79,321,84898,2,0,L|77:370,2,40,0|0|8,0:0|0:0|0:0,0:0:0:0:
132,260,85241,2,0,P|169:255|212:268,2,80,8|2|2,0:0|0:2|0:2,0:0:0:0:
164,332,85755,6,0,B|171:257|171:257|164:224|164:224|175:154,1,158.399999516602,4|0,0:0|0:0,0:0:0:0:
111,122,86441,2,0,P|157:97|250:156,1,160,8|0,0:0|0:0,0:0:0:0:
269,219,86955,1,0,0:0:0:0:
269,219,87041,1,0,0:0:0:0:
269,219,87127,6,0,P|304:198|320:156,1,80,4|0,0:0|0:0,0:0:0:0:
303,84,87470,1,0,0:0:0:0:
379,108,87641,1,0,0:0:0:0:
379,108,87727,1,0,0:0:0:0:
379,108,87812,2,0,B|431:115|431:115|493:105,1,105.599999677734,8|0,0:0|0:0,0:0:0:0:
440,37,88327,1,0,0:0:0:0:
440,37,88412,1,0,0:0:0:0:
440,37,88498,6,0,L|343:23,1,80,4|0,0:0|0:0,0:0:0:0:
303,84,88841,1,0,0:0:0:0:
227,110,89012,1,0,0:0:0:0:
227,110,89098,1,0,0:0:0:0:
227,110,89184,6,0,P|175:105|128:76,1,105.599999677734,8|0,0:0|0:0,0:0:0:0:
76,17,89698,2,0,P|51:63|124:159,1,160,8|0,0:0|0:0,0:0:0:0:
124,180,90127,1,0,0:0:0:0:
154,205,90212,2,0,P|166:252|147:296,1,80,8|0,0:0|0:0,0:0:0:0:
90,326,90555,1,0,0:0:0:0:
98,246,90727,2,0,L|208:232,2,80,0|2|2,0:0|0:2|0:2,0:0:0:0:
24,278,91241,5,4,0:0:0:0:
90,326,91412,2,0,B|142:334|142:334|195:328,1,105.599999677734,8|0,0:0|0:0,0:0:0:0:
275,329,91927,1,8,0:0:0:0:
341,284,92098,2,0,P|351:253|330:188,2,80,0|0|0,0:0|0:0|0:0,0:0:0:0:
273,241,92612,5,4,0:0:0:0:
271,160,92784,1,0,0:0:0:0:
298,85,92955,2,0,L|396:83,1,80,8|0,0:0|0:0,0:0:0:0:
351,160,93298,2,0,L|261:160,1,80,8|0,0:0|0:0,0:0:0:0:
219,98,93641,2,0,P|176:93|118:104,1,80,2|0,0:2|0:0,0:0:0:0:
121,174,93984,6,0,P|68:132|95:38,1,158.399999516602,4|0,0:0|0:0,0:0:0:0:
139,97,94670,2,0,L|42:146,1,80,8|0,0:0|0:0,0:0:0:0:
13,192,95012,1,0,0:0:0:0:
74,243,95184,1,0,0:0:0:0:
153,250,95355,6,0,P|195:247|235:256,1,80,4|0,0:0|0:0,0:0:0:0:
295,303,95698,2,0,P|333:310|383:305,1,80,8|0,0:0|0:0,0:0:0:0:
443,267,96041,1,8,0:0:0:0:
472,192,96212,2,0,L|469:106,2,80,8|0|0,0:0|0:0|0:0,0:0:0:0:
393,205,96727,6,0,P|342:183|283:185,1,105.599999677734,4|0,0:0|0:0,0:0:0:0:
231,234,97241,2,0,P|232:255|226:288,2,40,0|0|8,0:0|0:0|0:0,0:0:0:0:
219,154,97584,2,0,P|218:114|224:52,2,80,0|0|0,0:0|0:0|0:0,0:0:0:0:
155,202,98098,5,4,0:0:0:0:
102,141,98270,1,0,0:0:0:0:
40,191,98441,2,0,L|32:290,1,80,8|0,0:0|0:0,0:0:0:0:
57,347,98784,2,0,P|93:359|155:354,1,80,8|0,0:0|0:0,0:0:0:0:
206,322,99127,1,0,0:0:0:0:
281,348,99298,1,0,0:0:0:0:
281,348,99384,1,0,0:0:0:0:
281,348,99470,6,0,P|322:354|380:345,1,80,4|0,0:0|0:0,0:0:0:0:
415,293,99812,1,8,0:0:0:0:
376,222,99984,2,0,P|371:183|378:123,1,80,8|0,0:0|0:0,0:0:0:0:
442,101,100327,1,8,0:0:0:0:
372,62,100498,2,0,B|329:56|329:56|274:63,1,80,8|0,0:0|0:0,0:0:0:0:
230,111,100841,2,0,B|187:116|187:116|150:110,1,80,4|0,0:0|0:0,0:0:0:0:
71,95,101184,1,8,0:0:0:0:
122,33,101355,1,8,0:0:0:0:
256,192,101441,12,0,102212,0:0:0:0:
