osu file format v9

[General]
AudioFilename: why so serious.mp3
AudioLeadIn: 0
PreviewTime: 80618
Countdown: 0
SampleSet: Normal
StackLeniency: 0.7
Mode: 0
LetterboxInBreaks: 1

[Editor]
DistanceSpacing: 0.8
BeatDivisor: 4
GridSize: 8

[Metadata]
Title:Why So Serious?
Artist:Tha Playah
Creator:Soaprman
Version:Insane
Source:
Tags:walking the line hardcore the dark knight

[Difficulty]
HPDrainRate:4
CircleSize:4
OverallDifficulty:8
ApproachRate:8
SliderMultiplier:2
SliderTickRate:1

[Events]
//Background and Video events
0,0,"joker.jpg"
//Break Periods
2,73748,82682
2,141513,163152
2,231867,242211
//Storyboard Layer 0 (Background)
//Storyboard Layer 1 (Fail)
//Storyboard Layer 2 (Pass)
//Storyboard Layer 3 (Foreground)
//Storyboard Sound Samples
//Background Colour Transformations
3,100,0,0,0

[TimingPoints]
5785,352.941176470588,4,1,0,40,1,0
8422,-100,4,1,0,20,0,0
8598,-100,4,1,0,40,0,0
11245,-100,4,1,0,50,0,0
11422,-100,4,1,0,40,0,0
14069,-100,4,1,0,20,0,0
14245,-100,4,1,0,40,0,0
17069,-100,4,1,0,50,0,0
19716,-100,4,1,0,30,0,0
19892,-100,4,1,0,50,0,0
22539,-100,4,1,0,70,0,0
22716,-100,4,1,0,50,0,0
25363,-100,4,1,0,30,0,0
25539,-100,4,1,0,50,0,0
26951,-66.6666666666667,4,1,0,50,0,0
28363,-80,4,1,0,50,0,0
38245,-66.6666666666667,4,1,0,60,0,0
39657,-66.6666666666667,4,1,0,50,0,0
89784,-50,4,1,0,50,0,0
90490,-66.6666666666667,4,1,0,50,0,0
130020,-76.9230769230769,4,1,0,40,0,0
132843,-90.9090909090909,4,1,0,30,0,0
135667,-111.111111111111,4,1,0,20,0,0
138490,-142.857142857143,4,2,0,20,0,0
140961,-200,4,2,0,5,0,0
163902,-83.3333333333333,4,2,0,40,0,0
180843,-83.3333333333333,4,1,0,40,0,0
186137,-83.3333333333333,4,2,0,40,0,0
186490,-66.6666666666667,4,1,0,50,0,0
220373,-66.6666666666667,4,1,0,60,0,0
230255,-66.6666666666667,4,2,0,60,0,0
242961,-66.6666666666667,4,1,0,40,0,0
248608,-66.6666666666667,4,1,0,50,0,0
274020,-50,4,1,0,60,0,0
276843,-100,4,1,0,50,0,0

[Colours]
Combo1 : 122,106,149
Combo2 : 149,106,106
Combo3 : 191,191,191
Combo4 : 106,149,106

[HitObjects]
120,104,5795,1,0
96,128,6147,1,0
80,160,6500,1,0
72,192,6853,1,0
80,224,7206,1,0
96,256,7559,1,0
120,280,7912,1,0
120,280,8265,1,0
232,328,8442,1,0
392,280,8618,5,0
416,256,8970,1,0
432,224,9323,1,0
440,192,9676,1,0
432,160,10029,1,0
416,128,10382,1,0
392,104,10735,1,0
392,104,11088,1,0
280,56,11265,1,0
120,104,11442,5,0
96,128,11794,1,0
80,160,12147,1,0
72,192,12500,1,0
80,224,12853,1,0
96,256,13206,1,0
120,280,13559,1,0
120,280,13912,1,0
232,328,14089,1,0
392,280,14265,5,0
416,256,14617,1,0
432,224,14970,1,0
440,192,15323,1,0
432,152,15677,6,0,B|400:168|400:168|432:152|432:152|440:64|360:64,1,200
288,208,16206,1,0
288,32,16383,2,2,B|248:56|248:56|208:56|208:56|176:88|176:88|104:72,1,200,2|0
0,56,16912,1,2
56,152,17089,6,0,B|0:240,2,100
96,208,17794,2,0,B|56:304,2,100
152,248,18500,2,0,B|128:360,2,100
216,264,19206,2,0,B|208:368,2,100
296,120,19736,1,0
456,152,19902,6,0,B|512:240,2,100
416,208,20608,2,0,B|456:304,2,100
360,248,21314,2,0,B|384:360,2,100
296,264,22020,2,0,B|304:368,2,100
216,120,22559,1,0
56,152,22726,6,0,B|0:240,2,100
96,208,23431,2,0,B|56:304,2,100
152,248,24137,2,0,B|128:360,2,100
216,264,24843,2,0,B|208:368,2,100
296,120,25383,1,0
456,152,25549,6,0,B|512:240,2,100
416,208,26254,2,0,B|456:304,2,100
368,264,26971,6,2,B|304:224|304:224|320:152,1,149.999995529652,0|2
264,64,27324,2,2,B|296:32|264:8|248:8|240:48|168:32,1,149.999995529652
136,232,27677,1,0
48,40,27853,1,0
120,120,28030,2,8,B|176:144|176:144|272:144,1,149.999995529652,8|0
472,144,28383,6,0,B|344:144,1,124.999998137355
320,56,28736,1,8
416,56,28912,1,0
416,240,29089,2,0,B|288:240,1,124.999998137355
200,240,29442,1,8
16,240,29794,6,0,B|16:112,1,124.999998137355
16,24,30147,1,8
496,240,30500,2,0,B|496:112,1,124.999998137355
496,24,30853,2,0,B|440:24|440:24|416:40|416:40|312:40,1,187.499997206032,8|0
272,40,31206,6,0,B|144:40,1,124.999998137355
72,88,31559,1,8
240,344,31902,2,0,B|368:344,1,124.999998137355
440,296,32255,1,8
272,40,32608,6,0,B|144:40,1,124.999998137355
72,88,32961,1,8
72,264,33324,2,0,B|120:264|120:264|136:256|136:256|200:256,1,124.999998137355,0|2
316,256,33667,2,0,B|376:256|376:256|392:264|392:264|440:264,1,124.999998137355,0|2
472,176,34030,5,0
472,176,34118,1,0
472,176,34206,2,0,B|472:48,1,124.999998137355,0|8
256,40,34736,2,0,B|128:56,2,124.999998137355,0|0|0
256,128,35432,2,0,B|384:144,2,124.999998137355,0|0|0
256,216,36137,2,0,B|128:232,2,124.999998137355,0|0|0
256,304,36833,2,0,B|384:320,2,124.999998137355,0|0|0
96,256,37559,2,0,B|40:288|48:368,1,124.999998137355,2|0
96,128,37902,2,0,B|152:96|144:16,1,124.999998137355,2|0
296,40,38265,6,2,B|376:16|432:88,1,149.999995529652,0|2
496,240,38618,2,0,B|456:288|456:288|368:280,1,149.999995529652
192,128,38971,1,4
416,144,39147,1,4
232,272,39324,1,4
232,272,39677,6,8,B|80:248,1,149.999995529652,8|0
16,152,40030,1,2
16,152,40206,1,0
120,96,40383,2,8,B|272:72,1,149.999995529652,8|0
376,24,40736,1,2
376,24,40912,1,0
480,80,41089,6,8,B|440:232,1,149.999995529652,8|0
384,328,41442,1,2
384,328,41618,1,0
280,272,41794,2,0,B|128:296,1,149.999995529652,8|0
32,232,42147,1,2
32,232,42324,1,0
128,176,42500,6,0,B|64:40,1,149.999995529652,8|0
176,32,42843,1,2
176,32,43020,1,0
296,40,43196,2,0,B|248:184,1,149.999995529652,8|0
216,296,43549,6,0,B|272:360|360:320,1,149.999995529652,0|2
496,280,43902,2,0,B|440:216|352:256,1,149.999995529652,0|2
224,152,44255,2,0,B|280:216|368:176,1,149.999995529652,0|2
504,136,44608,2,0,B|448:72|360:112,1,149.999995529652,8|10
232,8,44961,2,0,B|288:72|376:32,1,149.999995529652,8|10
496,24,45314,5,0
488,72,45490,1,0
472,120,45667,1,2
448,160,45843,1,0
416,192,46020,1,0
376,224,46196,1,0
336,248,46373,1,2
288,264,46549,1,0
240,272,46726,1,0
192,272,46902,1,0
144,264,47079,1,2
96,248,47255,1,0
56,216,47432,1,0
24,176,47608,1,0
8,128,47784,1,2
0,80,47961,1,0
80,80,48137,5,0
104,88,48226,1,0
128,96,48314,1,0
152,104,48402,1,0
176,112,48490,1,0
200,120,48579,1,0
224,128,48667,1,0
248,136,48755,1,0
272,144,48843,1,0
296,152,48932,1,0
320,160,49020,1,0
344,168,49108,1,0
368,176,49196,1,0
392,184,49284,1,0
416,192,49373,2,4,B|472:224|376:264|424:328,1,149.999995529652
423,326,49902,6,0,B|336:392|216:384|152:264|152:264|80:288|136:240|136:240|184:200|120:216|120:216|64:232|184:200|136:120,1,599.999982118607
80,40,50961,5,0
440,40,51314,1,0
464,248,51667,1,0
48,248,52020,1,0
464,136,52373,1,0
48,136,52726,1,0
72,344,53079,1,0
432,344,53432,1,0
104,192,53784,1,0
408,192,54137,1,0
256,344,54490,1,0
256,40,54843,1,0
48,104,55196,6,0,B|120:104|120:104|192:144,1,149.999995529652,0|2
144,200,55549,2,2,B|224:232|296:184,1,149.999995529652,0|2
264,120,55902,2,0,B|336:96|336:96|360:168,1,149.999995529652,0|2
376,240,56255,2,2,B|464:216|464:128,1,149.999995529652,0|2
464,56,56608,5,0
256,40,56961,1,0
376,240,57314,1,0
256,40,57667,1,0
136,240,58020,1,0
256,40,58373,1,0
48,56,58726,1,0
256,40,59079,1,0
256,160,59255,1,8
128,40,59432,5,0
384,40,59785,1,0
128,192,60138,1,0
384,192,60491,1,0
344,208,60579,1,0
304,224,60667,1,0
264,240,60755,1,0
224,256,60843,6,0,B|208:344|96:336,1,149.999995529652,0|2
40,336,61196,2,2,B|24:264|24:264|48:184,1,149.999995529652,0|2
112,224,61549,2,0,B|152:136|80:80,1,149.999995529652,0|2
24,40,61902,2,2,B|80:8|80:8|176:32,1,149.999995529652,0|2
256,48,62255,6,0,B|307:99|307:99|312:176,2,149.999995529652,0|8|0
256,336,62961,2,0,B|204:284|204:284|200:208,2,149.999995529652,0|8|0
384,192,63667,2,0,B|448:232|448:232|512:192,2,149.999995529652,0|8|0
128,192,64373,2,0,B|64:152|64:152|0:192,2,149.999995529652,0|8|0
296,232,65079,6,0,B|432:320,1,149.999995529652,0|8
256,336,65432,1,0
216,152,65784,2,0,B|80:64,1,149.999995529652,0|8
256,48,66137,2,2,B|328:96|416:40,1,149.999995529652,0|2
464,160,66490,2,2,B|512:88|456:0,1,149.999995529652,0|2
352,160,66843,1,0
352,160,67196,1,0
160,224,67373,1,8
256,48,67549,1,8
256,336,67726,1,0
400,336,67902,6,0,B|464:304|456:208,1,149.999995529652
456,72,68255,1,0
456,72,68608,2,0,B|376:48|376:48|360:112,1,149.999995529652
328,272,68961,1,0
328,272,69314,2,0,B|256:304|256:304|192:272,1,149.999995529652
152,112,69667,1,0
152,112,70020,2,0,B|136:48|136:48|56:72,1,149.999995529652
56,224,70373,1,0
56,224,70726,6,0,B|104:296|200:264,1,149.999995529652
240,144,71079,1,8
328,144,71255,1,8
416,144,71432,2,2,B|432:88|488:72|488:72|464:64|432:64,1,149.999995529652,2|0
256,56,71784,1,2
256,56,72137,5,0
256,232,72314,2,0,B|328:248|328:248|408:248,1,149.999995529652
404,248,72843,1,0
288,264,73020,1,0
168,280,73196,2,2,B|112:248|112:248|168:280|152:196|168:120|112:144|112:144|168:120,1,299.999991059304,0|4
88,152,83432,5,0
88,152,83520,1,0
88,152,83608,1,0
88,152,83696,1,0
88,152,83784,1,0
88,152,84137,1,8
160,256,84314,1,0
256,64,84490,1,8
352,256,84667,1,0
424,152,84843,6,0,B|444:102|424:49|377:24,1,149.999995529652
136,104,85196,2,0,B|115:153|135:206|182:231,1,149.999995529652,2|0
328,256,85549,2,0,B|348:206|328:153|281:128,1,149.999995529652
40,208,85902,2,0,B|19:257|39:310|86:335,1,149.999995529652,2|0
328,256,86255,2,0,B|348:206|328:153|281:128,1,149.999995529652
281,128,86520,1,0
281,128,86608,2,0,B|192:152|136:80,1,149.999995529652,2|0
224,48,86961,1,8
312,48,87137,1,8
400,48,87314,1,8
400,48,87667,6,0,B|421:97|401:150|354:175,1,149.999995529652,0|0
240,336,88020,2,0,B|219:287|239:234|286:209,1,149.999995529652,2|0
360,256,88373,2,0,B|381:305|361:358|314:383,1,149.999995529652,0|0
280,128,88726,1,0
160,40,88902,1,0
224,192,89079,1,0
88,272,89255,1,0
120,112,89432,1,0
120,112,89784,2,2,B|184:112|184:112|240:136|320:136,2,200,8|8|8
136,216,90490,6,0,B|160:312|72:360,1,149.999995529652
136,216,90843,2,0,B|192:152|288:184,1,149.999995529652,2|0
408,216,91196,2,0,B|384:120|472:72,1,149.999995529652
408,216,91549,2,0,B|352:280|256:248,1,149.999995529652,2|0
136,136,91902,2,0,B|232:112|280:200,1,149.999995529652
136,136,92255,2,0,B|72:80|104:-16,1,149.999995529652,2|0
40,184,92608,1,8
136,136,92784,1,8
232,88,92961,2,2,B|296:40|384:72,1,149.999995529652,10|0
496,160,93314,5,0
384,200,93490,1,0
272,160,93667,1,0
160,200,93843,1,0
32,280,94020,5,0
168,336,94196,1,0
304,264,94373,1,0
448,312,94549,1,0
256,192,94726,12,4,95079
440,352,96137,6,0,B|432:280|432:280|440:200,1,149.999995529652,8|0
360,264,96490,2,0,B|368:192|368:192|360:112,1,149.999995529652,2|0
296,344,96843,2,0,B|288:272|288:272|296:192,1,149.999995529652,8|0
216,256,97196,2,0,B|224:184|224:184|216:104,1,149.999995529652,2|0
152,336,97549,2,0,B|144:264|144:264|152:184,1,149.999995529652,8|0
72,248,97902,2,0,B|80:176|80:176|72:96,1,149.999995529652,2|0
192,104,98255,2,0,B|280:112|328:24,1,150.000005722046,0|2
320,40,98608,2,2,B|232:32|184:120,1,150.000005722046,2|0
72,352,98961,6,0,B|80:280|80:280|72:200,1,149.999995529652,8|0
152,264,99314,2,0,B|144:192|144:192|152:112,1,149.999995529652,2|0
216,344,99667,2,0,B|224:272|224:272|216:192,1,149.999995529652,8|0
296,256,100020,2,0,B|288:184|288:184|296:104,1,149.999995529652,2|0
360,336,100373,2,0,B|368:264|368:264|360:184,1,149.999995529652,8|0
440,248,100726,2,0,B|432:176|432:176|440:96,1,149.999995529652,2|0
320,104,101079,1,8
192,40,101255,1,10
296,0,101432,1,8
200,176,101608,1,0
176,328,101784,6,0,B|72:296|72:296|56:232,1,150.000005722046,8|0
48,168,102137,2,0,B|152:200|152:200|168:264,1,150.000005722046,2|0
256,224,102490,2,0,B|200:128|200:128|208:88,1,150.000005722046,8|0
304,89,102843,2,0,B|311:127|311:127|255:223,1,150.000005722046,2|0
350,239,103196,2,0,B|360:200|360:200|464:168,1,150.000005722046,8|0
449,256,103549,2,0,B|440:296|440:296|336:328,1,150.000005722046,2|0
256,224,103902,2,0,B|200:152|256:88,1,150.000005722046,0|2
256,88,104255,2,2,B|312:160|256:224,1,150.000005722046,2|0
152,336,104608,5,8
40,240,104784,1,0
176,256,104961,1,2
112,120,105137,1,0
256,88,105314,2,0,B|368:88|416:48|344:-64|272:48|320:88|432:88,1,300.000011444092
428,87,105843,1,8
428,296,106020,5,0
312,200,106196,1,0
264,160,106284,1,0
216,200,106373,2,2,B|200:176|200:176|224:320,1,150.000005722046,2|0
219,295,106726,2,2,B|176:32|176:32|168:64,1,300.000011444092,0|0
288,88,107255,1,0
56,40,107432,5,8
24,224,107608,1,0
184,232,107784,2,0,B|152:160|64:136,1,150.000005722046,2|0
256,40,108137,1,8
256,192,108314,1,0
184,96,108490,2,0,B|256:136|328:96,1,150.000005722046,2|0
456,40,108843,1,8
488,224,109019,1,0
328,232,109195,2,0,B|360:160|448:136,1,150.000005722046,2|0
424,336,109549,2,0,B|344:312|328:232,1,150.000005722046,0|2
184,231,109902,2,2,B|168:312|88:336,1,150.000005722046,2|0
56,136,110255,6,0,B|33:95|33:95|85:5,1,150.000005722046,8|0
56,136,110608,2,0,B|78:176|78:176|26:266,1,150.000005722046,2|0
256,96,110961,2,0,B|192:136|192:136|128:96,1,150.000005722046,8|0
256,96,111314,2,0,B|320:136|320:136|384:96,1,150.000005722046,2|0
456,136,111667,2,0,B|478:95|478:95|426:5,1,150.000005722046,8|0
456,136,112020,2,0,B|433:176|433:176|485:266,1,150.000005722046,2|0
344,344,112373,2,0,B|376:264|376:264|344:208,1,150.000005722046,0|2
256,64,112726,1,0
256,64,112902,1,0
256,64,113079,6,0,B|176:40|80:112,1,150.000005722046,8|0
32,208,113432,2,0,B|32:320|32:320|56:352,1,150.000005722046,2|0
136,216,113784,2,0,B|215:295|215:295|254:300,1,150.000005722046,8|0
368,216,114136,2,0,B|288:295|288:295|251:300,1,150.000005722046,2|0
315,372,114489,2,0,B|427:372|427:372|458:350,1,150.000005722046,8|0
480,208,114842,2,0,B|480:320|480:320|456:352,1,150.000005722046,2|0
416,136,115196,2,0,B|336:104|336:16,1,150.000005722046,0|2
175,20,115549,2,2,B|176:104|96:136,1,150.000005722046,2|2
0,176,115902,5,0
40,192,115990,1,0
80,208,116078,1,0
120,224,116166,1,0
160,240,116254,1,0
160,240,116432,1,0
232,296,116608,2,0,B|264:264|384:328,1,150.000005722046
372,321,116961,1,0
372,321,117314,2,2,B|448:240|448:112|448:112|424:152|448:192,1,300.000011444092,2|0
488,288,117843,1,0
442,181,118020,2,0,B|264:128,1,150.000005722046,0|2
240,120,118373,1,2
184,104,118549,1,2
128,88,118726,6,0,B|48:112|64:208,1,150.000005722046,0|2
136,304,119079,2,0,B|288:336,1,150.000005722046,2|0
376,264,119432,2,2,B|424:256|448:224|448:224|392:304|216:232,1,300.000011444092,2|0
152,56,120137,2,0,B|0:32,2,150.000005722046,0|8|0
152,56,120843,1,0
272,40,121020,1,8
384,72,121196,1,0
504,48,121373,1,8
464,152,121549,5,0
424,176,121637,1,0
384,200,121726,1,0
344,224,121814,1,0
304,248,121902,1,0
256,344,122079,1,0
256,176,122255,2,2,B|296:168|320:136|320:136|256:224|72:152,1,300.000011444092,2|0
16,88,122784,2,2,B|24:80|32:88|32:88|40:96|48:88|48:88|56:80|64:88|64:88|72:96|80:88|80:88|88:80|96:88|96:88|104:96|112:88|112:88|120:80|128:88|128:88|136:96|144:88|144:88|152:80|160:88|160:88|168:96|240:144|296:48,1,300.000011444092,0|2
392,0,123314,1,0
464,96,123490,1,0
512,0,123667,1,8
408,216,123843,1,8
304,0,124020,2,0,B|152:0,1,150.000005722046,8|0
48,64,124373,5,0
80,176,124549,1,0
176,104,124726,1,0
176,224,124902,1,0
176,344,125079,2,2,B|304:368|384:304|384:304|352:328|304:344,1,300.000011444092,2|0
344,80,125784,2,0,B|496:32,2,150.000005722046,0|8|0
344,80,126490,1,0
232,48,126667,1,8
128,96,126843,1,0
16,48,127020,1,8
48,160,127196,6,0,B|72:248|32:312,1,150.000005722046,8|0
152,272,127549,2,2,B|232:256|232:256|192:256|192:256|272:272|272:272|368:272,1,300.000011444092,0|8
368,272,128255,2,2,B|368:120,1,150.000005722046,0|2
432,24,128608,1,0
392,32,128696,1,0
352,40,128784,1,0
304,48,128873,1,0
288,88,128961,1,0
248,96,129049,1,0
208,104,129137,1,0
168,112,129226,1,0
128,120,129314,2,4,B|96:168|96:168|96:264,2,150.000005722046
128,120,130020,6,0,B|224:216,1,129.999994049073
296,288,130373,1,0
376,216,130549,1,0
376,112,130726,2,0,B|336:56|264:48,2,129.999994049073
376,112,131432,2,0,B|416:56|488:48,2,129.999994049073
376,112,132137,2,0,B|336:56|264:48,2,129.999994049073
472,296,132843,6,0,B|344:320,1,110.000003356934
280,328,133196,1,0
192,304,133373,1,0
120,248,133549,2,0,B|64:216|56:152,2,110.000003356934
120,248,134255,2,0,B|176:216|184:152,2,110.000003356934
120,248,134961,2,0,B|64:216|56:152,2,110.000003356934
120,104,135667,6,0,B|200:64,1,89.9999972534181
272,64,136020,1,0
344,64,136196,1,0
408,88,136373,2,0,B|424:136|472:160,2,89.9999972534181
408,88,137079,2,0,B|424:40|472:16,2,89.9999972534181
408,88,137784,2,0,B|424:136|472:160,2,89.9999972534181
392,200,138490,6,0,B|296:320|128:296,1,279.999991455078
48,240,139549,1,0
80,136,139902,2,0,B|184:16|360:64,1,279.999991455078
288,288,140961,2,0,B|256:192,1,100
257,272,163902,6,8,B|496:296,1,239.999992675781
254,111,164608,2,8,B|16:88,1,239.999992675781
320,184,165314,2,8,B|296:16|480:16,1,239.999992675781
192,200,166020,2,8,B|216:368|32:368,1,239.999992675781
368,64,166726,6,0,B|256:120|256:120|152:64,1,239.999992675781
304,320,167432,2,0,B|311:195|311:195|412:132,1,239.999992675781
102,134,168137,2,0,B|199:194|199:194|207:319,1,239.999992675781
256,120,168843,1,8
312,200,169020,1,8
200,200,169196,1,8
344,32,169549,6,8,B|328:184|480:192,1,239.999992675781
168,352,170255,2,8,B|184:200|32:192,1,239.999992675781
256,192,170961,2,8,B|208:80|208:80|96:48,1,239.999992675781
256,192,171667,2,8,B|304:304|304:304|416:336,1,239.999992675781
456,144,172373,5,8
56,240,172726,1,8
400,80,173079,1,8
112,304,173432,1,8
120,152,173784,2,0,B|96:128|96:128|96:32,1,119.999996337891,8|0
216,152,174137,2,0,B|192:128|192:128|192:32,1,119.999996337891,8|0
392,232,174490,2,0,B|416:256|416:256|416:352,1,119.999996337891,8|8
296,232,174843,2,0,B|320:256|320:256|320:352,1,119.999996337891,8|0
184,264,175196,6,0,B|64:200|72:64,1,239.999992675781,4|0
312,176,175902,2,0,B|312:48,1,119.999996337891,8|0
200,56,176255,2,0,B|200:184,1,119.999996337891,8|0
328,264,176608,2,0,B|448:200|440:64,1,239.999992675781,4|0
71,68,177314,2,0,B|64:200|184:264,1,239.999992675781,4|0
256,192,177843,1,2
328,263,178020,6,0,B|392:144|392:144|480:88,1,239.999992675781,4|0
360,80,178726,2,0,B|256:144|256:144|152:80,1,239.999992675781,8|8
32,88,179432,2,0,B|120:144|120:144|183:263,1,239.999992675781,4|0
183,263,180137,1,8
328,263,180314,1,0
183,263,180490,1,8
328,263,180667,1,8
384,176,180843,6,0,B|408:56,1,119.999996337891
304,168,181196,2,0,B|328:48,1,119.999996337891
224,160,181549,2,0,B|248:40,1,119.999996337891
144,152,181902,2,0,B|168:32,1,119.999996337891
64,296,182255,5,0
88,294,182343,1,0
113,293,182431,1,0
138,291,182519,1,0
163,290,182607,1,0
188,288,182696,1,0
213,287,182784,1,0
238,285,182872,1,0
263,284,182960,1,0
288,282,183049,1,0
313,281,183137,1,0
338,279,183225,1,0
363,278,183313,1,0
388,276,183402,1,0
413,275,183490,1,0
438,273,183578,1,0
463,272,183667,6,0,B|472:240,7,29.9999990844727
464,208,184020,6,0,B|456:176,7,29.9999990844727
456,160,184373,6,0,B|464:127,7,29.9999990844727
464,112,184726,6,0,B|448:72,7,29.9999990844727
256,192,185079,12,4,186137
56,336,186490,6,0,B|8:192,1,150.000005722046,8|0
208,336,186843,2,0,B|56:336,1,150.000005722046,0|0
208,336,187196,2,0,B|160:192,1,150.000005722046,8|0
360,336,187549,2,0,B|208:336,1,150.000005722046
256,192,187902,2,2,B|244:101|160:96,1,150.000005722046,2|0
104,168,188255,2,2,B|48:96|104:32,1,150.000005722046,2|0
408,32,188608,2,2,B|464:96|408:168,1,150.000005722046,0|0
352,95,188961,2,2,B|267:101|256:192,1,150.000005722046,0|0
456,336,189314,6,0,B|504:192,1,150.000005722046,8|0
304,336,189667,2,0,B|456:336,1,150.000005722046
304,336,190020,2,0,B|352:192,1,150.000005722046,8|0
152,336,190373,2,0,B|304:336,1,150.000005722046
256,192,190726,2,2,B|267:101|352:96,1,150.000005722046,2|0
408,168,191079,2,2,B|464:96|408:32,1,150.000005722046,2|0
103,32,191432,2,2,B|48:96|104:168,1,150.000005722046,0|0
160,104,191784,1,8
352,280,191961,1,8
160,104,192137,6,0,B|56:224,1,150.000005722046,8|0
156,304,192490,2,0,B|256:192,1,150.000005722046
352,104,192843,2,0,B|456:224,1,150.000005722046,8|0
356,304,193196,2,0,B|256:192,1,150.000005722046
32,192,193549,2,2,B|8:272|72:328,1,150.000005722046,2|0
216,328,193902,2,2,B|280:272|256:192,1,150.000005722046,2|0
480,192,194255,2,2,B|504:272|440:328,1,150.000005722046,0|0
296,328,194608,2,2,B|232:272|256:192,1,150.000005722046,0|0
352,104,194961,6,0,B|456:224,1,150.000005722046,8|0
356,304,195314,2,0,B|256:192,1,150.000005722046
160,104,195667,2,0,B|0:176|56:352,1,300.000011444092,8|0
104,352,196108,1,0
152,352,196196,1,0
200,352,196284,1,0
248,352,196373,2,0,B|256:328|256:328|256:352|256:352|264:328|264:328|264:352|264:352|272:328|272:328|272:352|272:352|424:352,1,300.000011444092
472,240,196902,1,0
384,64,197079,1,8
384,64,197255,1,0
128,64,197432,1,8
128,64,197608,1,0
40,240,197784,6,0,B|112:256|112:256|192:232,1,150.000005722046,8|0
256,176,198137,2,0,B|184:160|184:160|104:184,1,150.000005722046
472,240,198490,2,0,B|400:256|400:256|320:232,1,150.000005722046,8|0
256,176,198843,2,0,B|328:160|328:160|408:184,1,150.000005722046
256,96,199196,2,2,B|104:96,1,150.000005722046,2|0
256,24,199549,2,2,B|104:24,1,150.000005722046,2|0
256,288,199902,2,2,B|408:288,1,150.000005722046,0|0
256,360,200255,2,2,B|408:360,1,150.000005722046,0|0
160,152,200608,6,0,B|112:128|112:128|112:32,1,150.000005722046,8|0
64,192,200961,2,0,B|112:216|112:216|112:312,1,150.000005722046,8|0
352,152,201314,2,0,B|400:128|400:128|400:32,1,150.000005722046,8|0
448,192,201667,2,0,B|400:216|400:216|400:312,1,150.000005722046,8|0
256,336,202020,2,0,B|224:312|232:224|256:192|280:160|288:72|256:48,2,300.000011444092,8|0|8
328,232,202902,1,0
160,232,203079,2,0,B|128:224|128:224|128:104,1,150.000005722046,8|8
72,32,203432,6,0,B|8:80|24:168,1,150.000005722046,8|0
40,320,203784,2,0,B|87:384|176:376,1,150.000005722046
336,376,204137,2,0,B|424:384|472:320,1,150.000005722046,8|0
488,165,204489,2,0,B|504:80|440:32,1,150.000005722046
160,104,204843,2,2,B|24:168,1,150.000005722046,2|0
352,104,205196,2,2,B|488:168,1,150.000005722046,2|0
256,160,205549,2,4,B|256:200|256:200|200:216|200:216|312:216|312:216|256:240|256:240|256:272,1,300.000011444092
256,268,206255,5,0
256,56,206432,1,8
256,268,206608,1,0
96,320,206961,2,0,B|-40:200|56:48,1,300.000011444092
256,268,207667,1,0
256,56,207844,1,8
256,268,208020,1,0
416,320,208373,2,0,B|552:200|456:48,1,300.000011444092
360,144,208902,1,0
256,56,209079,6,0,B|192:112|112:96,1,150.000005722046,8|0
56,168,209432,2,0,B|208:184,1,150.000005722046
306,200,209784,2,0,B|456:216,1,150.000005722046,8|0
394,287,210137,2,0,B|320:272|256:328,1,150.000005722046
160,344,210490,2,2,B|72:352|40:272,1,150.000005722046,2|0
120,192,210843,2,2,B|112:104|192:72,1,150.000005722046,2|0
320,72,211196,2,2,B|400:104|392:192,1,150.000005722046,0|0
472,272,211549,2,2,B|440:352|352:344,1,150.000005722046,0|0
256,336,211902,6,0,B|104:304,1,150.000005722046,8|0
86,164,212255,2,0,B|56:240|109:305,1,150.000005722046
256,48,212608,2,0,B|408:80,1,150.000005722046,8|0
425,219,212961,2,0,B|456:144|402:78,1,150.000005722046
248,136,213314,2,2,B|185:96|185:96|170:22,1,150.000005722046,2|0
168,192,213667,2,2,B|105:152|105:152|90:78,1,150.000005722046,2|0
264,248,214020,2,2,B|326:287|326:287|341:361,1,150.000005722046,0|0
344,192,214373,1,8
464,32,214549,1,8
344,192,214726,6,0,B|352:280|448:320,1,150.000005722046,8|0
480,160,215079,2,0,B|432:96|344:112,1,150.000005722046,0|0
168,192,215432,2,0,B|160:280|64:320,1,150.000005722046,8|0
32,160,215785,2,0,B|80:96|168:112,1,150.000005722046,0|0
304,40,216137,2,2,B|456:40,1,150.000005722046,2|0
504,112,216490,2,2,B|352:112,1,150.000005722046,2|0
208,344,216843,2,2,B|56:344,1,150.000005722046,0|0
8,272,217196,2,2,B|160:272,1,150.000005722046,0|0
296,232,217549,6,0,B|352:88,1,150.000005722046,8|0
232,184,217902,2,0,B|288:40,1,150.000005722046
168,144,218255,2,0,B|56:152|8:64|88:64|168:48|136:144|16:160,2,300.000011444092
256,192,219049,12,0,220020
96,112,220373,5,2
96,112,220461,1,2
96,112,220549,1,2
96,112,220637,1,2
96,112,220726,1,2
208,72,220902,1,8
328,96,221079,1,2
328,96,221167,1,2
448,80,221343,1,2
448,80,221432,1,2
416,192,221608,1,12
448,304,221784,5,0
328,320,221961,1,8
328,320,222049,1,8
328,320,222137,2,0,B|248:352|176:288,1,150.000005722046,2|8
187,297,222402,1,8
187,297,222490,2,0,B|120:256|96:160,1,150.000005722046,2|8
101,178,222755,1,8
101,178,222843,2,2,B|80:88|160:24,1,150.000005722046
264,24,223196,5,2
264,24,223284,1,2
264,24,223373,1,2
264,24,223461,1,2
264,24,223549,1,2
208,128,223726,1,8
328,120,223902,1,2
328,120,223990,1,2
448,104,224167,1,2
448,104,224255,1,2
392,216,224432,1,12
272,224,224608,6,0,B|152:184|152:400|0:360,2,300.000011444092,0|0|8
448,264,225490,1,0
272,224,225667,1,8
448,264,225843,1,0
352,336,226020,5,2
352,336,226108,1,2
352,336,226196,1,2
352,336,226284,1,2
352,336,226373,1,2
232,320,226549,1,8
112,336,226726,1,2
112,336,226814,1,2
48,232,226990,1,2
48,232,227079,1,2
32,112,227255,1,12
120,32,227432,5,0
136,152,227608,1,8
136,152,227696,1,8
136,152,227784,2,0,B|160:240|264:240,1,150.000005722046,2|8
244,239,228049,1,0
244,239,228137,2,0,B|336:264|384:176,1,150.000005722046,2|8
374,190,228402,1,8
374,190,228490,2,2,B|424:120|384:32,1,150.000005722046
272,64,228843,5,2
272,64,228932,1,2
272,64,229020,1,2
272,64,229108,1,2
272,64,229196,1,2
200,160,229373,1,8
80,160,229549,1,2
80,160,229637,1,2
144,264,229814,1,2
144,264,229902,1,2
264,264,230079,1,8
384,264,230255,6,0,B|464:224|448:128,1,150.000005722046
384,64,230608,2,0,B|304:104|320:200,1,150.000005722046
264,264,230961,2,0,B|224:344|128:328,1,150.000005722046
64,264,231314,2,0,B|104:184|200:200,1,150.000005722046
328,336,231667,1,6
64,264,242961,5,0
64,264,243314,1,0
144,264,243667,5,0
144,264,244020,1,0
224,264,244373,5,0
224,264,244726,1,0
304,264,245079,5,0
304,264,245432,1,0
384,264,245784,5,0
384,264,246137,1,0
464,264,246490,5,0
464,264,246843,1,0
424,336,247020,1,0
424,128,247196,1,0
424,336,247373,1,0
424,336,247902,2,2,B|376:344|376:344|320:320|320:320|272:328,2,150.000005722046,0|0|0
424,336,248608,6,0,B|472:272|464:192,1,150.000005722046,8|0
464,195,248873,1,0
464,195,248961,2,0,B|464:112|400:48,1,150.000005722046,8|8
410,58,249314,2,0,B|264:96,1,150.000005722046,8|8
376,144,249667,1,8
160,144,249844,1,0
80,192,250020,2,2,B|112:224|112:224|184:232|184:232|224:248,3,150.000005722046
288,280,250726,2,8,B|328:296|328:296|399:281|399:281|448:288,3,150.000005722046
432,72,251432,5,0
441,105,251520,1,0
433,138,251608,1,0
402,150,251696,1,0
367,143,251784,1,0
334,131,251873,1,0
301,121,251961,1,0
266,115,252049,1,0
231,116,252137,1,0
198,126,252226,1,0
170,146,252314,1,0
153,176,252402,1,0
161,209,252490,1,0
192,223,252579,1,0
226,214,252667,1,0
254,193,252755,1,0
256,192,252843,12,0,253196
256,192,254255,6,0,B|312:160|312:160|440:216|440:216|472:120,1,300.000011444092,8|0
256,192,254961,2,0,B|200:224|200:224|72:168|72:168|40:264,1,300.000011444092,8|0
312,16,255667,1,8
312,16,256020,1,8
200,368,256373,1,0
200,368,256726,1,0
256,192,257079,6,0,B|200:168|200:168|224:240|224:240|56:240,1,300.000011444092,8|0
256,192,257784,2,0,B|312:216|312:216|288:144|288:144|456:144,1,300.000011444092,8|0
200,32,258490,1,8
200,32,258843,1,8
200,32,259196,1,0
8,104,259373,1,0
80,0,259549,1,8
176,280,259726,1,0
256,192,259902,6,0,B|320:216|320:216|448:96|448:96|488:144,1,300.000011444092,8|0
256,192,260608,2,0,B|192:168|192:168|64:288|64:288|24:240,1,300.000011444092,8|0
192,32,261314,1,8
192,32,261667,1,8
320,352,262020,1,0
320,352,262373,1,0
256,192,262726,6,0,B|192:192|192:192|144:128|144:128|56:256,1,300.000011444092,8|0
256,192,263432,2,0,B|344:168|448:216|360:280|248:272|312:176|408:152,1,300.000011444092
472,128,263961,1,0
472,320,264137,1,0
472,320,264490,2,2,B|448:328|448:328|432:304|432:304|408:320|408:320|384:296|384:296|368:328|368:328|352:296|352:296|328:320|328:320|304:304|304:304|288:328|288:328|264:320,2,300.000011444092
256,192,265549,6,0,B|224:304|224:304|128:304|128:304|40:336,1,300.000011444092,8|0
256,192,266255,2,0,B|288:80|288:80|384:80|384:80|472:48,1,300.000011444092,8|0
432,264,266961,1,8
432,264,267314,1,8
152,48,267667,2,2,B|168:0|248:40|184:240|80:240,1,300.000011444092,2|0
256,192,268373,6,0,B|312:216|312:216|472:144|472:144|400:104,1,300.000011444092,8|0
256,192,269079,2,0,B|200:168|200:168|40:240|40:240|112:280,1,300.000011444092,8|0
40,104,269784,1,8
40,104,270137,1,8
400,56,270490,2,2,B|368:32|432:-16|560:112|408:248,1,300.000011444092,2|0
320,336,271020,1,0
256,192,271196,6,0,B|144:80,2,150.000005722046,8|0|0
256,192,271902,2,0,B|360:88|360:88|504:152,1,300.000011444092,8|0
256,40,272608,1,8
256,40,272961,1,8
256,40,273314,2,2,B|96:64|0:192,1,300.000011444092,2|0
152,224,274020,2,2,B|84:314|174:405|299:371|321:246|219:201,1,350,2|0
203,275,274373,2,2,B|213:387|340:394|410:285|344:178|238:212,1,350,2|0
276,279,274726,2,2,B|344:369|456:307|457:178|344:122|272:207,1,350,2|0
340,244,275079,2,2,B|449:271|497:152|417:51|294:78|292:190,1,350,2|0
256,192,275432,12,4,276137
152,336,276843,6,0,B|152:280|96:232,1,100,8|0
48,200,277196,2,0,B|48:120|48:120|32:104|32:104|32:8,1,200,2|8
104,40,277726,1,0
176,72,277902,2,0,B|256:72|256:72|304:80|304:80|376:80,1,200,2|8
456,80,278432,1,0
456,160,278608,2,0,B|408:176|408:176|392:168|392:168|264:216,1,200,2|8
200,248,279137,1,0
200,328,279314,1,2
200,328,279667,6,0,B|256:352|304:304,1,100,8|0
360,272,280020,2,0,B|360:224|360:224|368:184|368:184|368:72,1,200,2|8
296,104,280549,1,0
224,80,280726,2,0,B|120:80|120:80|88:104|88:104|32:104,1,200,2|8
32,184,281255,1,0
32,264,281432,2,0,B|88:264|88:264|120:288|120:288|224:288,1,200,2|8
224,208,281961,2,0,B|176:208|176:208|200:200|200:200|224:216|224:216|248:208|248:208|320:208,1,200
400,208,282490,6,0,B|448:168|432:96,1,100,8|0
432,40,282843,2,0,B|400:40|400:40|272:80|272:80|240:80,1,200,2|8
160,80,283373,1,0
96,32,283549,2,0,B|80:64|80:64|80:192|80:192|64:224,1,200,2|8
24,296,284079,1,0
104,296,284255,2,0,B|152:288|152:288|256:288|256:288|304:280,1,200,2|8
376,248,284784,1,0
448,216,284961,1,10
448,320,285137,1,0
360,80,285314,6,2,B|306:85|264:40,1,100,0|2
224,128,285667,2,2,B|168:120|128:168,1,100,2|0
96,256,286020,2,2,B|56:216|-16:240,1,100,0|0
24,160,286373,1,0
32,120,286461,1,0
40,80,286549,1,0
48,40,286637,1,0
56,0,286726,1,0
152,32,286902,2,0,B|176:64|176:64|208:56|240:88,1,100,8|0
272,152,287255,1,0
424,168,287432,1,8
160,248,287608,1,0
424,168,287784,1,8
160,248,287961,1,0
312,280,288137,6,0,B|360:256|416:288,1,100
480,320,288490,2,0,B|432:360|432:360|296:360,1,200,2|8
216,360,289020,1,0
136,360,289196,2,0,B|80:328|80:328|80:192,1,200,2|8
24,136,289726,1,0
80,80,289902,2,0,B|136:48|136:48|272:48,1,200,2|8
352,72,290432,1,0
432,56,290608,1,2
432,56,290961,6,0,B|464:104|432:168,1,100,8|0
400,224,291314,2,0,B|352:264|352:264|192:264,1,200,2|8
136,264,291843,1,0
64,224,292020,2,0,B|112:184|112:184|272:184,1,200,2|8
249,184,292549,1,0
248,336,292726,2,0,B|344:392|456:336,1,200,0|8
400,144,293255,1,0
496,232,293432,1,8
304,64,293608,1,0
224,64,293784,6,0,B|192:112|120:96,1,100,8|0
56,88,294137,2,0,B|56:208|56:208|80:288,1,200,2|8
144,328,294667,1,0
224,328,294843,2,0,B|344:328|344:328|424:304,1,200,2|8
496,280,295373,1,0
432,232,295549,2,0,B|408:168|408:168|408:32,1,200,2|8
304,24,296079,1,0
264,120,296255,2,0,B|256:192|168:184,1,100,0|8
96,200,296608,6,2,B|80:96|136:48|136:48|104:80|104:112,1,200,0|2
188,105,297137,1,0
240,48,297314,2,2,B|243:57|211:25|211:25|259:81|363:65,1,200,0|2
440,56,297843,1,0
440,288,298020,1,0
336,272,298196,2,0,B|304:272|304:272|296:256|272:264|272:264|264:272|256:264|256:264|232:256|224:272|224:272|192:272,1,150,8|8
196,272,298726,2,0,B|168:320|192:368,1,100,8|0
224,184,299079,2,2,B|252:136|228:88,1,100,0|2
64,184,299432,5,0
224,184,299784,1,2
384,184,300137,1,0
408,264,300314,1,0
384,184,300490,1,2
224,184,300843,1,0
200,264,301020,1,0
224,184,301196,1,2
304,40,301549,1,0
224,64,301726,1,0
144,64,301902,1,2
72,32,302079,1,0
80,112,302255,5,8
224,184,302608,2,0,B|248:280,1,100,2|0
248,281,302961,1,8
248,281,303314,1,2
328,168,303490,1,0
368,272,303667,1,8
432,320,303843,1,0
368,272,304020,1,2
368,272,304373,2,8,B|360:240|376:200|368:168,2,100,8|8|0
256,336,305079,5,0
216,336,305167,1,0
176,336,305255,1,0
136,336,305343,1,0
96,336,305432,1,2
56,184,305784,1,8
136,200,305961,1,0
288,64,306137,1,2
208,48,306314,1,8
256,168,306490,1,0
312,320,306843,1,2
464,272,307196,1,0
416,120,307549,1,2
352,192,307726,1,0
320,64,307902,6,2,B|264:72|208:24,1,100,0|2
168,96,308255,2,2,B|112:96|72:136,1,100,0|0
32,200,308608,2,2,B|24:200|0:176|0:176|56:240|168:200,1,200,2|0
224,192,309137,2,2,B|406:192|406:192|392:176,1,200,0|2
512,272,309843,1,0
512,96,310020,1,0
432,96,310196,1,0
352,96,310373,1,0
272,96,310549,1,0
192,96,310726,5,0
72,200,311079,2,0,B|64:304,2,100
72,200,311784,1,0
192,304,312137,2,0,B|296:312,2,100
288,224,312843,2,0,B|184:216,2,100
360,184,313373,1,0
440,208,313549,6,0,B|472:104,2,100
384,104,314255,2,0,B|416:0,2,100,0|0|0
280,152,314961,2,0,B|312:48,2,100,0|0|0
280,152,315667,1,0
216,104,315843,1,0
136,104,316020,1,0
72,152,316196,1,0
72,232,316373,6,0,B|32:336,2,100
192,232,317079,1,0
320,232,317432,1,0
440,232,317784,2,0,B|480:336,2,100
440,232,318490,1,0
440,232,318843,1,0
376,280,319020,1,0
312,232,319196,5,0
288,152,319549,1,0
232,96,319902,1,0
152,88,320255,1,0
80,128,320608,2,0,B|112:136|112:136|80:128|80:128|64:208|160:256,1,200
216,224,321137,1,0
216,328,321314,1,0
216,328,321490,1,0
296,224,321667,2,2,B|344:208|344:208|328:168|296:168|280:128|280:128|328:112,1,200,2|4
