osu file format v5

[General]
AudioFilename: Devil May Cry - Omake.mp3
AudioLeadIn: 0
PreviewTime: -1
Countdown: 1
SampleSet: Soft
StackLeniency: 0.7
Mode: 0
LetterboxInBreaks: 1
EditorDistanceSpacing: 0.800000011920929

[Metadata]
Title:Omake
Artist:Tetsuya Shibata, Kento Hasegawa
Creator:Vercon
Version:Normal
Source:
Tags:

[Difficulty]
HPDrainRate:9
CircleSize:6
OverallDifficulty:9
SliderMultiplier:1.4
SliderTickRate:1

[Events]
//Background and Video events
0,0,"Vergil.jpg"
//Break Periods
2,57871,58517
2,59575,60086
2,61078,61769
2,62569,63937
2,89262,95735
2,184881,209646
2,211259,220531
//Storyboard Layer 0 (Background)
//Storyboard Layer 1 (Failing)
//Storyboard Layer 2 (Passing)
//Storyboard Layer 3 (Foreground)
//Storyboard Sound Samples
//Background Colour Transformations
3,100,163,162,255

[TimingPoints]
9072,374.882849109653,4,2,0,70,1,0
9072,-100,4,2,0,70,0,0
9072,-100,4,2,0,70,0,0

[Colours]
Combo1 : 190,182,185
Combo2 : 210,0,0
Combo3 : 79,109,166
Combo4 : 230,230,230

[HitObjects]
160,128,57671,1,0
184,88,59117,6,0,B|112:104|104:184,1,100
203,182,60686,5,0
288,128,60878,1,0
288,96,62369,5,0
96,96,64401,5,0
96,96,64537,5,0
96,168,64898,1,0
96,96,65260,1,0
168,96,65621,1,8
168,96,65802,1,8
168,200,66344,2,8,B|168:328,2,100
168,200,67428,5,0
192,160,67834,1,0
336,80,68512,2,8,B|376:48|400:88,1,50
448,88,69054,2,8,B|480:120|424:152,1,50
440,200,69596,2,2,B|440:280|368:152|352:272,1,100,2|2
128,64,70679,1,0
160,64,70860,1,0
192,64,71041,1,0
224,64,71267,1,0
96,160,71628,2,0,C|224:160,1,122.5
96,224,72170,2,0,C|224:224,1,122.5
96,288,72757,2,0,C|224:288,1,122.5
192,96,73931,5,0
224,96,74067,5,0
288,96,74202,6,0,C|448:288,1,245
168,200,75061,1,0
240,200,75377,1,0
312,200,75603,2,2,B|392:200|368:128|160:112,1,250,2|0
32,176,77184,6,0,B|152:176,1,100
192,144,77906,2,0,B|248:184,1,50
288,128,78448,1,0
336,176,78810,2,2,B|336:248|248:280|168:248|168:160,1,250,2|0
128,96,80210,6,0,C|320:96,1,175
352,96,80887,1,0
384,128,81068,1,0
256,192,81565,12,2,82649
224,160,83100,5,0
224,128,83326,1,0
160,128,83688,1,2
160,160,83913,1,0
344,176,84320,6,2,B|272:312|200:176,3,200,2|2|2|2
203,182,86352,5,0
203,182,86849,1,0
203,182,87030,6,2,B|275:46|347:182,2,200
480,288,88475,2,2,C|480:192,2,87.5
480,288,89062,1,0
256,192,96335,12,4,97419
8,176,97780,5,0
80,176,98141,1,0
152,176,98503,1,0
152,176,98728,1,0
304,272,99496,1,0
232,272,99903,2,0,B|128:272|144:200,1,100
256,192,100716,5,2
192,128,100896,1,2
128,160,101258,1,10
144,236,101980,2,2,C|96:96,1,140
144,176,103064,6,0,B|240:176|120:264|296:224,1,150
260,231,103742,2,0,B|328:248|288:104|360:216,1,150
64,160,104419,1,2
96,160,104871,1,2
288,160,105910,1,0
256,160,106045,1,0
256,160,106361,1,2
160,160,106678,1,0
192,128,106903,2,0,C|224:96,16,35
128,128,108665,1,4
416,176,109343,5,0
344,176,109704,1,0
272,176,110065,1,0
200,176,110923,2,2,B|248:248|304:264,1,100,0|2
336,248,111827,5,0
368,248,112053,1,0
352,176,112459,2,4,B|424:104|256:120|328:184,1,150
294,262,113362,6,0,B|190:222|262:126,1,150
248,144,114311,1,8
248,72,114492,1,2
176,72,114672,1,8
176,144,114943,1,2
176,216,115169,1,4
64,128,115485,6,2,B|80:32|192:64,1,150
190,51,116163,2,0,B|288:48|136:96|248:160,2,150
136,96,117337,1,2
256,192,118286,12,0,121447
256,88,122170,5,0
328,88,122622,2,0,B|400:104|408:184,1,100
384,224,123209,1,0
384,224,123570,1,0
256,192,123931,12,2,126100
368,120,126687,5,0
296,96,127048,1,0
224,96,127274,1,0
152,96,127771,2,8,B|152:184,1,50,8|8
152,216,128313,2,8,B|152:144,1,50,8|8
224,168,128855,2,2,B|224:72|312:104,1,100,2|2
416,96,129578,5,0
416,168,129939,1,0
416,96,130300,1,0
344,96,130662,1,8
344,96,130842,1,8
344,200,131384,2,2,B|344:328,2,100,2|2|2
344,200,132468,5,0
232,120,133191,1,0
192,128,134230,1,2
224,128,134817,5,2
32,128,135630,6,0,C|480:128,1,437.5
64,128,137211,5,0
128,128,137572,1,0
224,128,138159,1,0
256,128,138746,1,0
256,128,139198,1,0
32,128,139604,2,0,C|384:128,1,350
480,96,140824,5,0
448,96,141050,1,0
384,96,141411,1,0
288,96,142043,6,0,C|0:96|160:256,1,507.5
32,96,144121,1,0
64,96,144347,1,0
64,96,144483,1,0
96,96,144754,1,0
160,96,145160,1,0
288,96,145521,1,0
256,96,145792,1,0
256,160,146018,2,0,C|288:160,24,17.5
256,160,147238,1,4
96,96,147780,1,8
32,64,148231,2,0,C|480:64,1,437.5
256,192,149903,12,0,153109
128,96,153606,5,0
160,96,153877,1,0
192,96,154284,1,0
256,96,154690,2,0,C|480:96|480:128,1,262.5
448,160,155684,1,0
256,192,156407,12,0,159930
64,64,160607,5,0
128,64,161511,2,0,C|480:64|480:160|480:160,1,472.5
384,224,163091,1,8
256,192,163453,12,8,165937
0,64,166298,6,8,C|416:320|448:320,1,542.5
448,256,167969,1,8
256,192,168331,12,8,172667
64,64,173344,5,8
192,64,173660,1,0
224,64,173751,1,0
256,192,174293,12,4,175603
256,192,175919,12,4,177951
256,192,178087,12,4,178719
256,192,179126,12,4,181926
160,96,182378,5,0
192,96,182513,1,0
224,96,182604,1,0
256,96,182784,1,0
288,96,182875,1,0
320,96,182965,1,0
352,96,183055,1,0
128,160,183417,6,2,C|384:160,2,245
192,128,210246,5,6
160,128,210336,1,6
128,128,210427,1,10
96,128,210517,1,6
96,160,210562,1,0
128,160,210607,1,6
160,160,210652,1,2
192,160,210698,1,10
224,160,210743,1,6
256,160,210788,1,2
288,160,210878,1,6
320,160,210923,1,10
384,160,211059,5,8
256,128,221131,5,10
288,128,221221,1,6
320,128,221267,1,2
352,128,221357,1,10
384,128,221447,1,6
416,128,221492,1,2
416,160,221583,1,10
384,160,221673,1,10
352,160,221763,1,2
320,160,221809,1,10
288,160,221899,1,10
256,160,221944,1,2
256,192,222034,1,10
288,192,222125,1,10
320,192,222215,1,10
352,192,222260,1,6
384,192,222305,1,10
416,192,222396,1,10
