osu file format v5

[General]
AudioFilename: Stepping Wind.mp3
AudioLeadIn: 0
PreviewTime: 130363
Countdown: 1
SampleSet: Normal
StackLeniency: 0.7
Mode: 0
LetterboxInBreaks: 1
EditorBookmarks: 1760,86629,119003,193447

[Metadata]
Title:Stepping Wind
Artist:Tetsukazu Nakanishi
Creator:vytalibus
Version:WAHOO!
Source:Namco x Capcom soundtrack
Tags:

[Difficulty]
HPDrainRate:7
CircleSize:5
OverallDifficulty:8
SliderMultiplier:1.5
SliderTickRate:2

[Events]
//Background and Video events
0,0,"Klonoa2006.jpg"
1,-384,"Sing Along Song! Stepping Wind_xvid.avi"
//Break Periods
2,63421,85731
2,103656,118103
2,182483,192539
//Storyboard Layer 0 (Background)
//Storyboard Layer 1 (Failing)
//Storyboard Layer 2 (Passing)
//Storyboard Layer 3 (Foreground)
//Storyboard Sound Samples
//Background Colour Transformations
3,100,163,162,255

[TimingPoints]
1750,365.898280278083,4,1,0,70,1

[Colours]
Combo1 : 255,128,64
Combo2 : 0,95,210
Combo3 : 255,255,0

[HitObjects]
48,313,1750,2,0,B|128:313,2,75,0|0|8
96,265,2298,2,0,B|176:265,2,75,0|0|8
144,217,2847,2,0,B|224:217,2,75,0|0|8
192,169,3396,2,0,B|272:169,2,75,0|0|8
464,313,4677,6,0,B|384:313,2,75,0|0|8
416,265,5226,2,0,B|336:265,2,75,0|0|8
368,217,5774,2,0,B|288:217,2,75,0|0|8
320,169,6323,2,0,B|240:169,2,75,0|0|8
256,304,7604,6,0,B|256:224,2,75,0|0|8
320,304,8153,2,0,B|320:224,2,75,0|0|8
384,304,8702,2,0,B|384:208,2,75,0|0|8
448,304,9250,2,0,B|448:224,2,75,0|0|8
256,64,10531,6,0,B|256:144,2,75,0|0|8
192,64,11080,2,0,B|192:144,2,75,0|0|8
128,64,11629,2,0,B|128:160,2,75,0|0|8
64,64,12178,2,0,B|64:144,2,75,0|0|8
256,192,12726,12,4,13092
144,336,13458,5,4
160,288,13641,1,0
144,240,13824,2,0,B|128:192|80:160,1,75
192,96,14373,1,0
224,48,14556,1,0
272,16,14739,1,0
330,27,14922,1,0
380,59,15105,2,0,B|412:75|428:123,2,75
288,136,15837,5,0
254,186,16020,1,0
242,244,16202,1,0
262,300,16385,2,0,B|294:348|326:348,2,75
208,192,17117,2,0,B|256:83|304:192,5,150,0|8|0|8|0|2
423,189,19313,5,4
451,136,19496,1,0
432,80,19679,2,0,B|400:48|336:48,1,75
246,69,20227,1,0
282,116,20410,1,0
283,175,20593,1,0
243,220,20776,1,0
187,243,20959,2,0,B|139:227|107:195,2,75
193,122,21691,5,0
251,110,21874,1,0
309,124,22057,1,0
320,176,22240,2,0,B|240:176,3,75
192,176,22972,2,0,B|112:144|64:48,4,150,0|8|0|8|0
248,192,24618,5,0
288,144,24801,1,2
288,80,24984,1,0
256,32,25167,2,0,B|208:32|192:64,3,75,4|0|0|0
144,176,26082,1,0
208,176,26265,1,0
272,176,26448,1,0
336,176,26631,2,0,B|368:192|400:224,3,75
432,336,27545,5,0
368,336,27728,1,0
304,336,27911,1,0
240,336,28094,2,0,B|208:320|176:288,2,75
256,208,28826,2,0,B|256:48,1,150,0|8
310,23,29375,1,0
363,59,29558,2,0,B|363:235,1,150,0|8
412,250,30107,1,0
462,210,30290,2,0,B|462:34,1,150,0|2
336,32,31021,5,4
272,32,31204,1,0
208,32,31387,2,0,B|160:48|144:80,1,75
32,112,31936,1,0
32,176,32119,1,0
32,240,32302,1,0
32,304,32485,2,0,B|80:352|112:352,3,75
208,352,33400,1,0
272,352,33583,1,0
336,352,33766,1,0
400,352,33949,2,0,B|448:320|464:272,3,75
448,240,34680,2,0,B|416:144|320:128,1,150,0|8
352,192,35229,1,0
288,192,35412,2,0,B|256:96|160:80,1,150,0|8
192,144,35961,1,0
128,144,36144,2,0,B|96:48|0:32,1,150,0|2
256,192,36876,12,4,39071
288,80,39986,5,0
352,80,40169,1,0
384,128,40352,1,0
320,128,40535,1,0
352,176,40718,1,0
416,176,40901,1,0
448,224,41084,1,0
384,224,41267,2,0,B|224:224,1,150
59,306,42181,5,0
123,306,42364,2,0,B|203:306,1,75
256,304,42730,1,4
384,112,43096,5,4
128,112,43462,5,4
256,240,44011,6,0,B|320:192|336:112,1,150
288,64,44560,1,0
224,64,44743,1,0
176,112,44925,2,4,B|192:192|256:236,1,150
208,40,45840,6,0,B|256:104,1,75
304,136,46206,2,0,B|256:200,1,75,0|0
200,160,46572,2,0,B|248:96,1,75
304,72,46938,2,0,B|256:8,1,75,0|0
256,80,47304,2,0,B|256:160,1,75
432,192,48036,5,0
368,192,48219,1,0
304,192,48402,1,0
240,192,48584,2,4,B|240:272,2,75
240,328,49316,1,4
392,192,49865,2,0,B|344:96|280:48|216:128|168:192|72:192,1,375,0|0
32,240,50963,1,4
128,320,51329,1,4
192,320,51512,1,4
256,320,51695,6,0,B|336:320,1,75
323,256,52061,1,2
256,256,52243,2,0,B|176:256,1,75
189,191,52609,1,2
256,192,52792,2,0,B|336:192,1,75
323,128,53158,1,2
256,128,53341,2,0,B|176:128,1,75
188,63,53707,1,2
256,64,53890,2,0,B|336:64,1,75,0|0
400,64,54256,1,2
400,128,54439,1,4
400,256,54805,1,4
288,192,55171,1,4
480,192,55719,2,0,B|304:192,1,150,0|0
272,192,56268,1,0
272,128,56451,1,0
208,128,56634,2,4,B|48:128,1,150
60,256,57366,1,4
96,208,57549,6,0,B|112:160|176:144,1,75
208,128,57915,1,2
272,128,58098,2,0,B|320:128|368:176,1,75
384,192,58464,1,2
384,256,58647,2,0,B|368:304|320:320,1,75
288,352,59013,1,2
224,336,59196,2,0,B|176:320|160:272,1,75
160,224,59561,1,2
208,176,59744,2,0,B|256:144|272:96,1,75
304,80,60110,1,2
256,32,60293,5,4
96,192,60659,5,4
256,352,61025,5,4
416,192,61391,5,4
256,192,61757,12,4,63220
48,32,86638,5,0
80,80,86821,1,0
112,32,87004,1,0
144,80,87187,2,0,B|304:80,2,150
144,144,88101,2,4,B|304:144,2,150
374,192,89565,1,4
310,192,89748,2,0,B|214:192,1,75
166,192,90114,1,4
312,248,90480,2,0,B|232:248,1,75,0|0
168,248,90846,2,4,B|72:240|112:136,2,150,4|0|0
192,192,91760,1,2
320,192,92126,1,2
256,72,92492,5,4
184,72,92675,2,0,B|184:152,1,75
184,216,93041,2,0,B|344:216,2,150
184,144,93956,1,4
328,144,94322,1,4
472,144,94688,1,4
472,280,95054,1,0
400,280,95237,1,0
328,280,95419,2,0,B|328:128,1,150,4|0
256,128,95968,2,0,B|256:280,1,150,4|0
120,280,96700,2,0,B|120:120,1,150,4|0
256,128,97432,2,0,B|256:288,1,150,4|4
256,192,98347,12,4,98895
64,192,99627,6,0,B|224:192,1,150
272,192,100176,2,0,B|352:192,1,75
400,192,100542,2,4,B|448:144|400:48,1,150
256,192,101274,12,4,101823
432,192,102372,5,0
384,144,102554,2,0,B|224:144,1,150
192,192,103103,2,0,B|112:192,2,75,0|0|4
144,72,119020,5,0
184,120,119203,1,0
144,168,119386,1,0
184,216,119569,2,0,B|336:216,1,150
256,336,120301,5,4
256,48,120666,5,4
400,192,121215,5,0
352,144,121398,1,0
304,96,121581,1,0
256,48,121764,1,4
112,192,122130,5,4
256,336,122496,5,4
400,192,123045,6,0,B|344:91|296:192,1,150
240,192,123594,2,0,B|160:192,1,75
112,192,123960,1,4
400,192,124325,5,4
160,192,124874,6,2,B|176:64|368:48|432:144|372:314|240:256|256:192,1,450
256,192,126155,1,4
256,192,126521,1,4
256,64,127070,5,0
256,128,127253,1,0
256,192,127436,1,0
256,256,127619,1,4
152,64,127984,5,4
360,64,128350,5,4
256,256,128716,6,0,B|256:168,1,75
256,112,129082,1,4
256,192,129265,12,2,130180
80,192,130546,6,0,B|160:192,1,75,4|0
208,192,130912,1,10
272,192,131095,2,0,B|368:144|368:64,1,150
320,48,131643,1,10
256,48,131826,2,0,B|176:48,1,75
112,48,132192,1,0
64,96,132375,1,10
64,160,132558,2,0,B|64:240|176:240,1,150
224,240,133107,1,10
288,240,133290,1,0
288,304,133473,1,0
224,304,133656,1,0
160,304,133839,1,10
256,192,134205,12,6,136034
448,192,136400,5,0
413,144,136583,1,0
363,111,136766,1,10
304,96,136949,2,0,B|144:96,1,150
96,112,137498,1,10
64,160,137681,2,0,B|64:208|112:208,1,75
112,272,138047,2,0,B|112:320|160:320,1,75,0|10
224,320,138413,2,0,B|384:320,1,150
432,320,138961,2,0,B|480:304|480:256,5,75,10|0|0|0|10|0
256,192,140059,12,0,141523
64,192,141706,5,0
128,192,141889,1,2
192,192,142071,1,0
256,192,142254,1,4
256,56,142620,5,4
392,192,142986,5,4
256,328,143352,5,4
392,56,143718,5,4
392,328,144084,5,4
120,328,144450,5,4
120,56,144816,5,4
120,192,145182,5,4
392,200,145548,5,4
256,192,145913,12,6,147743
168,64,148109,5,4
344,320,148475,5,4
344,64,148841,5,4
168,320,149207,5,4
432,64,149572,5,4
432,320,149938,5,4
256,64,150304,5,4
256,320,150670,5,4
72,64,151036,5,4
72,320,151402,5,4
256,192,151768,12,6,153597
192,192,153963,6,0,B|272:192,3,75
384,192,154878,2,0,B|448:160|448:64,1,150
384,48,155427,1,4
256,48,155793,1,4
128,48,156159,1,4
256,256,156890,2,0,B|256:176,2,75,4|0|0
256,320,157439,1,4
256,192,157805,2,0,B|256:112,1,75
256,48,158171,1,4
200,343,159086,1,2
312,343,159452,1,2
256,240,159818,5,4
320,240,160001,2,0,B|320:192|272:176,1,75
256,240,160366,1,0
256,112,160732,2,0,B|192:112|192:240,1,150
256,240,161281,5,4
352,96,161647,5,4
160,96,162013,5,4
256,176,162379,6,0,B|256:96,1,75
256,32,162745,1,4
336,112,163111,1,0
336,176,163294,1,4
256,256,163659,1,0
176,176,164025,1,4
256,256,164391,1,0
336,176,164757,1,4
256,96,165123,1,4
96,192,165672,6,4,B|352:192,1,225
432,192,166953,2,8,B|384:144|368:96|352:144|304:192,1,150
272,192,167501,2,8,B|192:192,1,75
144,159,167867,2,4,B|116:133|98:80|84:133|37:179,1,150,4|4
160,192,168599,6,0,B|400:192,1,225,4|4
256,104,169697,1,2
256,192,169880,12,4,170795
32,80,171526,5,0
96,80,171709,1,0
128,136,171892,1,8
160,80,172075,1,0
224,80,172258,1,0
256,136,172441,1,8
288,80,172624,1,0
352,80,172807,1,0
384,136,172990,1,8
416,80,173173,1,0
480,80,173356,1,0
512,136,173539,1,8
480,304,174453,5,0
416,304,174636,1,0
384,248,174819,1,8
352,304,175002,1,0
288,304,175185,1,0
256,248,175368,1,8
224,304,175551,1,0
160,304,175734,1,0
128,240,175917,1,8
96,304,176100,1,0
32,304,176283,1,0
0,248,176466,1,8
256,48,177381,6,0,B|336:48,1,75
386,78,177747,1,8
331,108,177930,2,0,B|256:108,1,75,0|0
198,135,178295,1,8
256,168,178478,2,0,B|336:168,1,75
384,202,178844,1,8
331,230,179027,2,0,B|256:230,1,75,0|0
200,248,179393,1,8
256,48,180308,6,0,B|176:48,1,75
126,78,180674,1,8
181,108,180857,2,0,B|256:108,1,75,0|0
314,135,181222,1,8
256,168,181405,2,0,B|176:168,1,75
128,202,181771,1,8
181,230,181954,2,0,B|256:230,1,75,0|0
312,248,182320,1,8
336,176,193480,6,0,B|336:96,2,75
304,224,194029,2,0,B|256:256|192:224|208:160,2,150
368,224,194944,2,0,B|416:256|480:224|464:160,2,150,4|4|4
128,192,196407,2,4,B|368:192,1,225
352,64,197322,2,0,B|176:64,1,150,0|4
32,112,198603,1,2
32,272,198969,1,2
128,192,199335,6,0,B|392:192,1,225,4|0
360,320,200249,2,0,B|200:320,1,150
256,272,200798,2,4,B|96:272,2,150
256,144,201896,1,0
256,208,202079,1,0
192,192,202262,2,0,B|128:136|224:72,1,150,4|0
288,72,202811,2,0,B|383:136|319:192,1,150,4|0
256,304,203542,5,4
368,192,203908,5,0
256,80,204274,5,4
144,192,204640,5,4
480,48,205921,5,4
448,96,206104,1,0
400,128,206287,1,8
400,64,206470,2,0,B|368:96|320:64,1,75
336,128,206835,2,0,B|304:144|256:128,2,75,0|8|0
368,176,207384,1,0
304,176,207567,1,0
336,224,207750,1,8
400,224,207933,2,0,B|368:256|320:272,1,75
288,224,208299,2,0,B|304:256|272:296,2,75,0|8|0
224,224,208848,1,0
256,176,209031,1,0
288,224,209214,1,8
320,96,209580,2,0,B|256:16|192:96,5,150,0|8|0|8|0|10
256,192,211775,5,4
288,240,211958,1,0
224,240,212141,1,8
256,288,212324,2,0,B|256:368,2,75
320,288,212873,2,0,B|320:208,1,75,8|0
256,192,213239,5,0
224,144,213422,1,0
288,144,213605,1,8
256,96,213788,2,0,B|256:16,2,75
192,96,214336,2,0,B|192:176,1,75,8|0
256,192,214702,2,0,B|256:288,3,75,0|0|8|0
256,192,215434,12,2,216898
256,192,217081,5,0
256,256,217264,1,8
256,320,217447,1,0
320,320,217629,6,0,B|320:240,1,75,4|0
192,320,217995,2,0,B|192:240,1,75,4|0
320,192,218361,2,0,B|320:112,1,75,4|0
192,192,218727,2,0,B|192:80,1,75,4|0
320,64,219093,2,0,B|432:64,1,75,4|0
192,64,219459,2,0,B|80:64,1,75,4|0
320,128,219825,2,0,B|432:128,1,75,4|0
192,128,220191,2,0,B|80:128,1,75,4|0
256,128,220557,1,4
256,192,220740,1,0
256,256,220923,1,4
256,336,221288,2,4,B|256:160,1,150
149,79,222020,2,4,B|261:191,1,150,4|4
363,79,222752,2,4,B|251:191,1,150,4|4
128,192,223484,6,4,B|288:192,2,150
176,144,224399,2,0,B|272:144,2,75,0|4|0
224,96,224947,2,4,B|384:96,2,150,4|4|4
272,144,225862,2,0,B|352:144,2,75,0|4|0
320,192,226411,2,4,B|160:192,1,150
256,192,227143,12,2,228972
192,64,229338,5,4
256,64,229521,1,0
320,64,229704,1,0
288,112,229887,2,0,B|256:244|224:112,2,150
352,112,230802,2,4,B|352:272,2,150,4|4|4
112,192,232265,2,0,B|192:192,2,75,4|0|0
112,128,232814,2,0,B|277:128,1,150,4|0
264,192,233363,2,0,B|168:192,1,75,0|4
480,112,234461,1,2
480,272,234827,1,2
320,192,235193,6,0,B|240:192,2,75,4|0|0
245,192,235741,2,0,B|80:192,2,150
304,192,236656,2,4,B|464:192,2,150
256,80,237754,1,0
256,144,237937,1,0
256,192,238120,12,4,240498
336,144,241047,6,6,B|400:96|352:16|288:0|240:48,1,225
320,328,242694,1,0
256,328,242876,1,0
192,328,243059,1,0
224,280,243242,2,6,B|256:148|288:280,1,150
256,192,243974,12,6,244523
224,192,245072,6,0,B|304:192,1,75
256,80,245621,2,0,B|256:160,3,75,0|0|0|6
176,144,246901,6,6,B|112:96|160:16|224:0|272:48,1,225
192,328,248548,1,0
256,328,248731,1,0
320,328,248914,1,0
288,280,249097,2,6,B|256:148|224:280,1,150
256,192,249829,12,6,250377
288,192,250926,6,0,B|208:192,1,75
256,80,251475,2,0,B|256:160,1,75,0|6
288,96,251841,2,0,B|368:96,1,75,0|6
304,64,252207,2,0,B|304:144,1,75,0|6
336,192,252573,2,0,B|256:192,1,75,0|6
304,160,252939,2,0,B|304:80,1,75,0|6
256,48,253305,2,0,B|256:128,1,75,0|6
