osu file format v5

[General]
AudioFilename: Stepping Wind.mp3
AudioLeadIn: 0
PreviewTime: 130363
Countdown: 1
SampleSet: Normal
StackLeniency: 0.7
Mode: 0
LetterboxInBreaks: 1
EditorBookmarks: 1760,51516,74930,119003,183223,193447

[Metadata]
Title:Stepping Wind
Artist:Tetsukazu Nakanishi
Creator:vytalibus
Version:Rapaa!
Source:Namco x Capcom soundtrack
Tags:

[Difficulty]
HPDrainRate:5
CircleSize:3
OverallDifficulty:5
SliderMultiplier:1.2
SliderTickRate:1

[Events]
//Background and Video events
0,0,"Klonoa2006.jpg"
1,-384,"Sing Along Song! Stepping Wind_xvid.avi"
//Break Periods
2,39276,50499
2,63423,73730
2,103667,117633
2,170983,182023
//Storyboard Layer 0 (Background)
//Storyboard Layer 1 (Failing)
//Storyboard Layer 2 (Passing)
//Storyboard Layer 3 (Foreground)
//Storyboard Sound Samples
//Background Colour Transformations
3,100,163,162,255

[TimingPoints]
1750,365.90943741424,4,1,0,70,1
182875,-100,4,2,0,30,0
193120,-100,4,1,0,70,0

[Colours]
Combo1 : 255,255,0
Combo2 : 0,95,210
Combo3 : 255,0,0

[HitObjects]
48,256,1749,1,0
112,256,2115,1,0
176,256,2481,1,0
240,256,2847,1,0
304,256,3213,1,0
368,256,3579,1,0
464,256,4128,2,10,B|464:192,1,60
464,128,4677,5,0
400,128,5043,1,0
336,128,5409,1,0
272,128,5775,1,0
208,128,6140,1,0
144,128,6506,1,0
48,128,7055,2,10,B|48:192,1,60
96,240,7604,5,8
144,288,7970,1,8
192,240,8336,1,8
240,288,8702,1,8
288,240,9068,1,8
336,288,9434,1,8
416,240,9982,2,10,B|448:208|432:176,1,60
416,128,10531,5,8
368,80,10897,1,8
320,128,11263,1,8
272,80,11629,1,8
224,128,11995,1,8
176,80,12361,1,8
96,128,12910,2,10,B|64:160|112:192,1,60
128,240,13459,5,4
192,240,13825,1,0
256,240,14190,1,0
320,240,14556,2,0,B|384:240,2,60,8|0|0
320,176,15288,1,0
320,112,15654,1,0
256,112,16020,2,0,B|176:112,4,60,8|0|0|0|0
320,112,17118,2,2,C|368:192|304:240|256:134|208:240|144:192|192:112,1,600
224,64,19313,5,4
288,64,19679,1,0
288,128,20045,1,0
224,128,20411,2,0,C|160:128,2,60,8|0|0
224,192,21143,1,0
288,192,21509,1,0
288,256,21875,2,0,C|352:256,4,60,8|0|0|0|0
224,256,22972,2,2,C|128:192|208:96|256:74|304:96|384:192|288:256,1,600,2|2
256,192,25168,5,4
320,160,25534,1,0
320,224,25900,1,0
256,256,26265,2,0,C|256:320,2,60,8|0|0
192,224,26997,1,0
192,160,27363,1,0
256,128,27729,2,0,C|256:64,4,60,8|0|0|0|0
256,192,28827,2,2,C|336:176|384:112|336:32|256:0|176:32|128:112|176:176,1,600,2|2
224,192,31022,5,4
288,192,31388,1,0
336,144,31754,1,0
288,96,32120,2,0,C|336:32,2,60,8|0|0
256,144,32852,1,0
192,144,33218,1,0
224,96,33584,2,0,C|192:32,4,60,8|0|0|0|0
256,144,34681,2,2,B|352:176|368:256|256:320|144:272|128:144|208:96|208:96|128:112|112:32|192:0|256:48,1,600,2|2
304,80,36877,6,4,L|336:80|384:208|304:320|192:320|112:208|176:80|208:80,1,720
48,192,51696,6,6,B|80:64|240:48|384:96|416:144,2,420
48,192,54440,1,4
48,192,54806,1,4
48,192,55172,1,4
144,192,55721,2,4,B|448:192,1,300
444,192,57002,1,4
352,192,57551,6,6,B|320:64|160:48|64:144|80:288,2,420
352,192,60295,1,4
352,192,60661,1,4
352,192,61027,1,4
256,192,61393,2,0,B|256:112,2,60,0|0|4
256,192,61942,12,4,63222
256,192,74931,5,4
256,128,75297,1,0
256,64,75663,2,0,B|320:112|320:176,1,120,0|8
320,224,76395,1,0
256,240,76761,1,0
192,224,77127,2,0,B|192:144|256:112,1,120,0|8
256,64,77859,2,0,B|256:0,2,60
256,192,78590,12,2,80420
384,192,80786,5,4
368,128,81152,1,0
320,80,81518,2,0,B|289:177|256:80,1,120,0|8
192,80,82250,1,0
144,128,82615,1,0
128,192,82981,2,0,B|176:259|224:192,1,120,0|8
256,144,83713,2,0,B|256:208,3,60,0|0|0|0
256,192,84445,12,4,86640
320,192,88104,5,4
256,192,88470,1,4
192,192,88836,1,4
256,288,89568,2,4,B|256:96,2,180,4|4|0
256,288,90848,1,4
256,144,91763,1,2
256,80,92129,1,2
320,80,92495,6,4,L|320:208|256:260|192:208|192:80,1,420,4|0
192,80,93959,1,4
256,80,94325,1,4
320,80,94690,1,4
256,192,95422,12,4,98350
256,112,98898,5,4
192,288,99996,5,0
192,288,100179,1,0
256,288,100545,1,2
320,288,100911,1,2
384,288,101277,2,4,L|384:192|288:192,1,180
192,80,102741,1,0
256,80,103106,1,0
320,80,103472,1,6
256,192,118841,12,4,120670
256,112,121768,5,4
200,136,122134,1,4
176,192,122500,1,4
256,240,123048,2,4,B|448:240|448:48,1,300
400,16,124329,1,4
384,80,124695,6,2,B|352:160|272:128,4,120,6|2|2|2|6
320,80,126525,1,4
224,80,127073,2,0,B|224:176|128:160,1,120
157,162,127622,1,4
160,224,127988,1,4
200,272,128354,1,4
256,296,128720,1,2
256,192,129086,12,2,130184
256,48,130550,6,0,B|368:64|400:176|400:240|272:272|224:240,1,360,4|2
272,192,132013,2,4,B|320:144|240:64|128:144|128:272|240:336,1,360,4|2
256,272,133477,2,0,B|304:256|304:208,2,60,4|0|0
192,272,134209,2,0,B|192:144,1,120
192,80,134941,2,0,B|336:80,1,120
368,80,135672,2,0,B|368:224,1,120,0|2
368,256,136404,6,0,B|320:352|128:320|208:96|336:192,1,360,4|2
384,208,137868,2,0,B|448:144|352:32|224:32|160:144,1,360,4|2
128,192,139331,2,0,B|192:192,3,60,4|0|0|0
224,192,140063,2,0,B|352:192,1,120
400,192,140795,2,0,B|467:143|400:96,1,120
336,96,141527,2,0,B|208:96,1,120,0|2
144,96,142259,5,4
144,160,142625,1,4
144,224,142991,1,4
144,288,143356,1,4
208,288,143722,1,4
272,288,144088,1,4
336,288,144454,1,4
400,288,144820,1,4
400,224,145186,5,4
400,160,145552,1,4
400,96,145918,1,4
400,32,146284,1,4
336,32,146650,1,4
272,32,147016,1,4
208,32,147381,1,4
144,32,147747,1,4
144,96,148113,5,4
144,160,148479,1,4
208,160,148845,1,4
208,96,149211,1,4
272,96,149577,1,4
272,160,149943,1,4
336,160,150309,1,4
336,96,150675,1,4
336,32,151041,5,4
272,32,151406,1,4
208,32,151772,1,4
144,32,152138,1,4
144,96,152504,1,4
208,96,152870,1,4
272,96,153236,1,4
336,96,153602,1,4
320,160,153968,5,4
192,160,154700,1,0
256,272,155431,1,4
256,208,155797,1,4
256,144,156163,1,4
256,272,156895,2,4,B|256:64,1,180
320,80,157810,1,0
320,144,158176,1,4
320,304,159091,1,2
256,304,159456,1,2
192,304,159822,6,0,B|48:192|192:64|336:160|272:240,1,360,4|0
256,288,161286,1,4
320,288,161652,1,4
384,288,162018,1,4
256,192,162750,12,4,165677
256,32,166226,5,4
384,192,167324,6,0,B|312:192,1,60,0|0
256,192,167872,2,0,B|128:192,1,120,2|2
64,192,168604,5,4
168,192,169153,1,4
272,192,169702,1,2
344,192,170068,2,0,B|472:192,2,120,4|4|4
256,192,183241,12,2,192022
256,64,193486,5,4
256,192,194218,1,0
192,304,194950,1,4
256,336,195316,1,4
320,304,195682,1,4
256,192,196413,2,0,B|384:144|304:48,2,180,4|4|0
256,192,197694,1,4
96,192,198609,1,2
96,256,198975,1,2
96,320,199341,6,0,B|384:80,1,360,4|0
320,48,200804,1,4
256,48,201170,1,4
192,48,201536,1,4
256,192,202268,12,4,204646
112,192,205927,6,0,B|304:192,2,180,4|0|0
112,128,207391,2,0,B|304:128,2,180
112,64,208854,1,0
112,64,209037,1,0
112,64,209220,1,0
176,64,209586,2,0,B|304:64,1,120
352,64,210318,2,0,B|352:208,1,120
288,192,211050,2,0,B|160:192,1,120,0|2
176,256,211782,6,0,B|288:256|288:368,2,180,4|0|0
176,192,213245,2,0,B|288:192|288:80,2,180,4|0|0
176,128,214709,1,0
176,128,214892,1,0
176,128,215075,1,0
176,128,215258,1,0
176,128,215441,2,0,B|192:48|256:30|320:48|336:128,3,240,0|0|0|4
400,144,218002,5,4
352,176,218368,1,4
400,224,218734,1,4
352,272,219100,1,4
304,240,219466,1,4
256,272,219832,1,4
208,240,220197,1,4
160,272,220563,5,4
112,224,220929,1,4
160,192,221295,1,4
112,144,221661,1,4
160,112,222027,1,6
224,112,222393,1,6
288,112,222759,1,6
352,112,223125,1,6
288,96,223491,6,4,C|256:46|224:96,1,120
184,144,224222,2,4,C|119:144|152:208,1,120,4|4
176,240,224954,2,4,C|176:304|240:272,1,120
288,288,225686,2,4,C|337:311|337:247,1,120
368,192,226418,2,4,C|392:146|326:146,1,120,4|4
288,192,227150,2,4,B|256:208|224:192|208:160|256:128|272:160,5,120,4|4|6|6|6|6
256,192,229345,12,4,231541
192,192,232272,5,4
256,128,232821,1,4
256,256,233553,1,4
400,192,234468,1,2
368,240,234834,1,2
368,176,235200,5,4
256,112,235932,1,0
256,240,236663,1,4
288,192,237029,1,4
224,192,237395,1,4
224,64,238127,2,0,B|80:224|80:224|160:224|160:224|224:144|224:144|224:192|224:192|256:224|288:192|288:192|288:144|288:144|352:224|352:224|432:224|432:224|288:64,1,960,4|4
256,336,242701,5,0
256,336,242884,1,0
256,272,243250,1,2
256,208,243616,1,2
256,144,243982,2,0,L|368:144|368:224,1,180,4|4
256,320,245445,1,0
256,256,245811,1,0
256,192,246177,1,4
376,192,246909,6,0,B|312:120|256:56,1,180,4|4
128,192,248555,1,0
128,192,248738,1,0
192,192,249104,1,2
256,192,249470,1,2
312,192,249836,2,4,B|352:48|256:56,1,180
256,192,251300,12,4,253495
