osu file format v12

[General]
AudioFilename: Terui Haruka Matsui Eriko Yoshida Yuri - Masshiro World.mp3
AudioLeadIn: 0
PreviewTime: -1
Countdown: 1
SampleSet: Soft
StackLeniency: 0.7
Mode: 3
LetterboxInBreaks: 1
SpecialStyle: 0
WidescreenStoryboard: 1

[Editor]
DistanceSpacing: 1
BeatDivisor: 4
GridSize: 4
TimelineZoom: 1.2

[Metadata]
Title:Masshiro World
TitleUnicode:まっしろわーるど
Artist:Terui Haruka Matsui Eriko Yoshida Yuri
ArtistUnicode:照井春佳・松井恵理子・吉田有里
Creator:Icy Wind
Version:Masshiro
Source:未确认で进行形
Tags:YukiKaze
BeatmapID:418593
BeatmapSetID:173218

[Difficulty]
HPDrainRate:5
CircleSize:5
OverallDifficulty:5
ApproachRate:5
SliderMultiplier:1.4
SliderTickRate:1

[Events]
//Background and Video events
Video,0,"Terui Haruka Matsui Eriko Yoshida Yuri - Masshiro World.flv"
0,0,"201403201016525468.jpg",0,0
//Break Periods
//Storyboard Layer 0 (Background)
//Storyboard Layer 1 (Fail)
//Storyboard Layer 2 (Pass)
//Storyboard Layer 3 (Foreground)
//Storyboard Sound Samples
//Background Colour Transformations
3,100,163,162,255

[TimingPoints]
0,375,4,2,0,100,1,0

[HitObjects]
51,192,750,128,0,4312:0:0:0:0:
153,192,1500,128,0,4312:0:0:0:0:
256,192,2250,128,0,4312:0:0:0:0:
358,192,2625,128,0,4312:0:0:0:0:
460,192,3000,128,0,4312:0:0:0:0:
51,192,4500,5,0,0:0:0:0:
153,192,4500,1,0,0:0:0:0:
256,192,4500,1,0,0:0:0:0:
460,192,4687,1,0,0:0:0:0:
358,192,4781,1,0,0:0:0:0:
153,192,4875,1,0,0:0:0:0:
51,192,4968,1,0,0:0:0:0:
256,192,5062,1,0,0:0:0:0:
460,192,5250,1,0,0:0:0:0:
51,192,5437,1,0,0:0:0:0:
256,192,5625,1,0,0:0:0:0:
358,192,5718,1,0,0:0:0:0:
153,192,5812,1,0,0:0:0:0:
256,192,6000,1,0,0:0:0:0:
358,192,6000,1,0,0:0:0:0:
460,192,6000,1,0,0:0:0:0:
153,192,6093,1,0,0:0:0:0:
51,192,6187,1,0,0:0:0:0:
358,192,6281,1,0,0:0:0:0:
153,192,6375,1,0,0:0:0:0:
460,192,6468,1,0,0:0:0:0:
256,192,6562,1,0,0:0:0:0:
358,192,6750,1,0,0:0:0:0:
460,192,6937,1,0,0:0:0:0:
358,192,7125,1,0,0:0:0:0:
256,192,7312,1,0,0:0:0:0:
153,192,7500,128,0,7875:0:0:0:0:
358,192,7500,128,0,7875:0:0:0:0:
51,192,7500,1,0,0:0:0:0:
460,192,7500,1,0,0:0:0:0:
51,192,7875,128,0,8250:0:0:0:0:
460,192,7875,128,0,8250:0:0:0:0:
256,192,7875,1,0,0:0:0:0:
153,192,8250,128,0,8625:0:0:0:0:
358,192,8250,128,0,8625:0:0:0:0:
256,192,8250,1,0,0:0:0:0:
256,192,8625,128,0,9000:0:0:0:0:
51,192,8625,1,0,0:0:0:0:
51,192,9000,128,0,9375:0:0:0:0:
460,192,9000,1,0,0:0:0:0:
358,192,9093,1,0,0:0:0:0:
256,192,9187,1,0,0:0:0:0:
358,192,9281,1,0,0:0:0:0:
460,192,9375,1,0,0:0:0:0:
358,192,9468,1,0,0:0:0:0:
51,192,9562,1,0,0:0:0:0:
256,192,9562,1,0,0:0:0:0:
358,192,9656,1,0,0:0:0:0:
460,192,9750,1,0,0:0:0:0:
153,192,9750,1,0,0:0:0:0:
153,192,10312,1,0,0:0:0:0:
256,192,10500,1,0,0:0:0:0:
460,192,10500,1,0,0:0:0:0:
51,192,10875,1,0,0:0:0:0:
460,192,11250,128,0,11437:0:0:0:0:
256,192,11437,1,0,0:0:0:0:
51,192,11625,128,0,11812:0:0:0:0:
358,192,11625,1,0,0:0:0:0:
256,192,11812,1,0,0:0:0:0:
358,192,12000,1,0,0:0:0:0:
153,192,12000,1,0,0:0:0:0:
51,192,12375,1,0,0:0:0:0:
460,192,12375,1,0,0:0:0:0:
358,192,12750,128,0,12937:0:0:0:0:
51,192,12750,1,0,0:0:0:0:
153,192,12937,1,0,0:0:0:0:
153,192,13125,128,0,13312:0:0:0:0:
460,192,13125,1,0,0:0:0:0:
358,192,13312,1,0,0:0:0:0:
256,192,13500,1,0,0:0:0:0:
51,192,13500,1,0,0:0:0:0:
460,192,13500,1,0,0:0:0:0:
153,192,13875,1,0,0:0:0:0:
358,192,13875,1,0,0:0:0:0:
256,192,14250,128,0,14437:0:0:0:0:
153,192,14250,1,0,0:0:0:0:
460,192,14437,1,0,0:0:0:0:
153,192,14625,128,0,14812:0:0:0:0:
358,192,14625,128,0,14812:0:0:0:0:
51,192,14625,1,0,0:0:0:0:
256,192,14812,1,0,0:0:0:0:
51,192,15000,1,0,0:0:0:0:
153,192,15187,1,0,0:0:0:0:
256,192,15375,1,0,0:0:0:0:
358,192,15562,1,0,0:0:0:0:
460,192,15750,1,0,0:0:0:0:
358,192,15937,1,0,0:0:0:0:
51,192,16031,1,0,0:0:0:0:
256,192,16125,1,0,0:0:0:0:
153,192,16312,1,0,0:0:0:0:
51,192,16500,1,0,0:0:0:0:
460,192,16500,1,0,0:0:0:0:
256,192,16875,1,0,0:0:0:0:
51,192,17250,128,0,17437:0:0:0:0:
153,192,17250,128,0,17437:0:0:0:0:
358,192,17250,1,0,0:0:0:0:
256,192,17437,1,0,0:0:0:0:
358,192,17625,128,0,17812:0:0:0:0:
460,192,17625,128,0,17812:0:0:0:0:
153,192,17625,1,0,0:0:0:0:
256,192,17812,1,0,0:0:0:0:
153,192,18000,1,0,0:0:0:0:
256,192,18000,1,0,0:0:0:0:
256,192,18375,1,0,0:0:0:0:
358,192,18375,1,0,0:0:0:0:
256,192,18750,128,0,18937:0:0:0:0:
51,192,18750,1,0,0:0:0:0:
460,192,18750,1,0,0:0:0:0:
153,192,18937,1,0,0:0:0:0:
358,192,18937,1,0,0:0:0:0:
256,192,19125,128,0,19312:0:0:0:0:
153,192,19125,1,0,0:0:0:0:
358,192,19125,1,0,0:0:0:0:
51,192,19312,1,0,0:0:0:0:
460,192,19312,1,0,0:0:0:0:
153,192,19500,1,0,0:0:0:0:
358,192,19500,1,0,0:0:0:0:
51,192,19875,1,0,0:0:0:0:
460,192,19875,1,0,0:0:0:0:
153,192,20250,128,0,20437:0:0:0:0:
358,192,20250,128,0,20437:0:0:0:0:
51,192,20250,1,0,0:0:0:0:
460,192,20250,1,0,0:0:0:0:
256,192,20437,1,0,0:0:0:0:
51,192,20625,128,0,20812:0:0:0:0:
460,192,20625,128,0,20812:0:0:0:0:
153,192,20625,1,0,0:0:0:0:
358,192,20625,1,0,0:0:0:0:
256,192,20812,1,0,0:0:0:0:
460,192,21000,1,0,0:0:0:0:
358,192,21187,1,0,0:0:0:0:
256,192,21375,1,0,0:0:0:0:
153,192,21562,1,0,0:0:0:0:
51,192,21750,1,0,0:0:0:0:
153,192,21937,1,0,0:0:0:0:
460,192,22031,1,0,0:0:0:0:
256,192,22125,1,0,0:0:0:0:
358,192,22312,1,0,0:0:0:0:
460,192,22500,128,0,23250:0:0:0:0:
51,192,22500,1,0,0:0:0:0:
153,192,22500,1,0,0:0:0:0:
256,192,22875,1,0,0:0:0:0:
153,192,22875,1,0,0:0:0:0:
153,192,23250,1,0,0:0:0:0:
51,192,23250,1,0,0:0:0:0:
51,192,23625,1,0,0:0:0:0:
460,192,23625,1,0,0:0:0:0:
256,192,24000,1,0,0:0:0:0:
153,192,24187,1,0,0:0:0:0:
358,192,24187,1,0,0:0:0:0:
51,192,24375,1,0,0:0:0:0:
460,192,24375,1,0,0:0:0:0:
153,192,24562,1,0,0:0:0:0:
358,192,24562,1,0,0:0:0:0:
256,192,24750,1,0,0:0:0:0:
153,192,25125,5,0,0:0:0:0:
460,192,25125,1,0,0:0:0:0:
51,192,25125,1,0,0:0:0:0:
358,192,25500,1,0,0:0:0:0:
153,192,25593,1,0,0:0:0:0:
460,192,25687,1,0,0:0:0:0:
256,192,25781,1,0,0:0:0:0:
51,192,25875,1,0,0:0:0:0:
256,192,26062,1,0,0:0:0:0:
358,192,26156,1,0,0:0:0:0:
460,192,26250,1,0,0:0:0:0:
256,192,26437,1,0,0:0:0:0:
153,192,26625,1,0,0:0:0:0:
51,192,26812,1,0,0:0:0:0:
256,192,27000,1,0,0:0:0:0:
153,192,27187,1,0,0:0:0:0:
460,192,27375,1,0,0:0:0:0:
358,192,27562,1,0,0:0:0:0:
256,192,27656,1,0,0:0:0:0:
51,192,27750,1,0,0:0:0:0:
153,192,27937,1,0,0:0:0:0:
358,192,28125,1,0,0:0:0:0:
460,192,28312,1,0,0:0:0:0:
256,192,28500,1,0,0:0:0:0:
153,192,28500,1,0,0:0:0:0:
358,192,28593,1,0,0:0:0:0:
460,192,28593,1,0,0:0:0:0:
51,192,28875,128,0,29250:0:0:0:0:
256,192,28875,1,0,0:0:0:0:
153,192,29250,128,0,29625:0:0:0:0:
358,192,29250,1,0,0:0:0:0:
256,192,29625,128,0,30000:0:0:0:0:
460,192,29625,1,0,0:0:0:0:
358,192,30000,128,0,30562:0:0:0:0:
460,192,30000,1,0,0:0:0:0:
51,192,30187,1,0,0:0:0:0:
460,192,30562,128,0,30750:0:0:0:0:
153,192,30562,1,0,0:0:0:0:
51,192,30750,1,0,0:0:0:0:
460,192,31125,1,0,0:0:0:0:
256,192,31125,1,0,0:0:0:0:
51,192,31125,1,0,0:0:0:0:
153,192,31500,1,0,0:0:0:0:
460,192,31593,1,0,0:0:0:0:
51,192,31687,1,0,0:0:0:0:
256,192,31781,1,0,0:0:0:0:
358,192,31875,1,0,0:0:0:0:
153,192,31968,1,0,0:0:0:0:
460,192,32062,1,0,0:0:0:0:
358,192,32156,1,0,0:0:0:0:
51,192,32250,1,0,0:0:0:0:
153,192,32437,1,0,0:0:0:0:
358,192,32625,1,0,0:0:0:0:
460,192,32718,1,0,0:0:0:0:
358,192,32812,1,0,0:0:0:0:
256,192,33000,1,0,0:0:0:0:
358,192,33093,1,0,0:0:0:0:
460,192,33187,1,0,0:0:0:0:
153,192,33281,1,0,0:0:0:0:
51,192,33375,1,0,0:0:0:0:
256,192,33562,1,0,0:0:0:0:
358,192,33656,1,0,0:0:0:0:
460,192,33750,1,0,0:0:0:0:
153,192,33843,1,0,0:0:0:0:
51,192,34031,1,0,0:0:0:0:
358,192,34125,1,0,0:0:0:0:
460,192,34218,1,0,0:0:0:0:
358,192,34312,1,0,0:0:0:0:
256,192,34406,1,0,0:0:0:0:
153,192,34500,1,0,0:0:0:0:
256,192,34875,128,0,35062:0:0:0:0:
51,192,34875,1,0,0:0:0:0:
460,192,35062,1,0,0:0:0:0:
51,192,35250,128,0,35625:0:0:0:0:
358,192,35250,1,0,0:0:0:0:
358,192,35625,1,0,0:0:0:0:
460,192,36000,128,0,36562:0:0:0:0:
153,192,36000,1,0,0:0:0:0:
256,192,36562,128,0,36750:0:0:0:0:
358,192,36562,1,0,0:0:0:0:
153,192,36750,1,0,0:0:0:0:
358,192,37125,1,0,0:0:0:0:
51,192,37125,1,0,0:0:0:0:
256,192,37125,1,0,0:0:0:0:
460,192,37312,1,0,0:0:0:0:
256,192,37500,1,0,0:0:0:0:
460,192,37687,1,0,0:0:0:0:
358,192,37781,1,0,0:0:0:0:
153,192,37875,1,0,0:0:0:0:
460,192,38062,1,0,0:0:0:0:
358,192,38156,1,0,0:0:0:0:
51,192,38250,1,0,0:0:0:0:
460,192,38437,1,0,0:0:0:0:
358,192,38531,1,0,0:0:0:0:
153,192,38625,1,0,0:0:0:0:
358,192,38812,1,0,0:0:0:0:
256,192,39000,1,0,0:0:0:0:
153,192,39093,1,0,0:0:0:0:
460,192,39187,1,0,0:0:0:0:
51,192,39281,1,0,0:0:0:0:
358,192,39375,1,0,0:0:0:0:
256,192,39468,1,0,0:0:0:0:
153,192,39562,1,0,0:0:0:0:
460,192,39750,1,0,0:0:0:0:
256,192,39937,1,0,0:0:0:0:
358,192,40125,1,0,0:0:0:0:
256,192,40218,1,0,0:0:0:0:
153,192,40312,1,0,0:0:0:0:
256,192,40500,128,0,40875:0:0:0:0:
460,192,40500,1,0,0:0:0:0:
153,192,40875,128,0,41250:0:0:0:0:
358,192,40875,1,0,0:0:0:0:
51,192,41250,128,0,41625:0:0:0:0:
256,192,41250,1,0,0:0:0:0:
358,192,41625,128,0,42000:0:0:0:0:
153,192,41625,1,0,0:0:0:0:
153,192,42000,128,0,42562:0:0:0:0:
256,192,42000,1,0,0:0:0:0:
51,192,42187,1,0,0:0:0:0:
256,192,42562,128,0,42750:0:0:0:0:
358,192,42562,1,0,0:0:0:0:
460,192,42750,1,0,0:0:0:0:
460,192,43125,1,0,0:0:0:0:
256,192,43125,1,0,0:0:0:0:
358,192,43500,1,0,0:0:0:0:
256,192,43593,1,0,0:0:0:0:
153,192,43687,1,0,0:0:0:0:
51,192,43781,1,0,0:0:0:0:
256,192,43875,1,0,0:0:0:0:
460,192,44062,1,0,0:0:0:0:
358,192,44156,1,0,0:0:0:0:
153,192,44250,1,0,0:0:0:0:
460,192,44437,1,0,0:0:0:0:
51,192,44625,1,0,0:0:0:0:
256,192,44718,1,0,0:0:0:0:
460,192,44812,1,0,0:0:0:0:
153,192,45000,1,0,0:0:0:0:
460,192,45187,1,0,0:0:0:0:
153,192,45375,1,0,0:0:0:0:
51,192,45562,1,0,0:0:0:0:
358,192,45750,1,0,0:0:0:0:
256,192,45937,1,0,0:0:0:0:
358,192,46125,1,0,0:0:0:0:
153,192,46218,1,0,0:0:0:0:
460,192,46312,1,0,0:0:0:0:
51,192,46406,1,0,0:0:0:0:
256,192,46500,1,0,0:0:0:0:
51,192,46875,128,0,47250:0:0:0:0:
256,192,46875,1,0,0:0:0:0:
153,192,47062,1,0,0:0:0:0:
358,192,47250,128,0,47625:0:0:0:0:
256,192,47250,1,0,0:0:0:0:
153,192,47437,1,0,0:0:0:0:
256,192,47625,128,0,48000:0:0:0:0:
51,192,47625,1,0,0:0:0:0:
153,192,47812,1,0,0:0:0:0:
51,192,48000,128,0,48562:0:0:0:0:
358,192,48000,1,0,0:0:0:0:
460,192,48187,1,0,0:0:0:0:
256,192,48562,128,0,48750:0:0:0:0:
153,192,48562,1,0,0:0:0:0:
358,192,48750,1,0,0:0:0:0:
460,192,49125,1,0,0:0:0:0:
51,192,49125,1,0,0:0:0:0:
256,192,49125,1,0,0:0:0:0:
153,192,49125,1,0,0:0:0:0:
358,192,49125,1,0,0:0:0:0:
153,192,49500,128,0,50250:0:0:0:0:
256,192,49500,1,0,0:0:0:0:
460,192,49875,1,0,0:0:0:0:
358,192,50250,128,0,50625:0:0:0:0:
256,192,50250,1,0,0:0:0:0:
460,192,50625,1,0,0:0:0:0:
256,192,50625,128,0,51000:0:0:0:0:
51,192,51000,128,0,51375:0:0:0:0:
153,192,51000,1,0,0:0:0:0:
460,192,51375,1,0,0:0:0:0:
256,192,51562,1,0,0:0:0:0:
460,192,51750,128,0,52125:0:0:0:0:
153,192,51750,1,0,0:0:0:0:
51,192,52125,1,0,0:0:0:0:
256,192,52500,128,0,52875:0:0:0:0:
460,192,52500,1,0,0:0:0:0:
51,192,52875,1,0,0:0:0:0:
358,192,52875,128,0,53250:0:0:0:0:
51,192,53250,128,0,53625:0:0:0:0:
256,192,53250,1,0,0:0:0:0:
460,192,53625,1,0,0:0:0:0:
153,192,53625,128,0,54000:0:0:0:0:
358,192,54000,128,0,54375:0:0:0:0:
256,192,54000,1,0,0:0:0:0:
460,192,54375,1,0,0:0:0:0:
256,192,54562,1,0,0:0:0:0:
153,192,54750,128,0,55125:0:0:0:0:
51,192,54750,1,0,0:0:0:0:
460,192,55125,1,0,0:0:0:0:
256,192,55500,128,0,55687:0:0:0:0:
51,192,55500,128,0,55687:0:0:0:0:
460,192,55500,128,0,55687:0:0:0:0:
358,192,56250,128,0,56625:0:0:0:0:
153,192,56250,1,0,0:0:0:0:
460,192,56625,1,0,0:0:0:0:
153,192,56625,128,0,57000:0:0:0:0:
51,192,57000,1,0,0:0:0:0:
256,192,57000,128,0,57375:0:0:0:0:
153,192,57187,1,0,0:0:0:0:
51,192,57375,1,0,0:0:0:0:
460,192,57562,1,0,0:0:0:0:
358,192,57750,1,0,0:0:0:0:
153,192,57750,128,0,57937:0:0:0:0:
256,192,57937,128,0,58125:0:0:0:0:
51,192,57937,1,0,0:0:0:0:
358,192,58125,128,0,58312:0:0:0:0:
460,192,58125,1,0,0:0:0:0:
460,192,58312,128,0,58500:0:0:0:0:
153,192,58312,1,0,0:0:0:0:
153,192,58500,128,0,58687:0:0:0:0:
256,192,58500,1,0,0:0:0:0:
51,192,58687,1,0,0:0:0:0:
460,192,58875,128,0,59062:0:0:0:0:
358,192,59062,1,0,0:0:0:0:
256,192,59250,128,0,59812:0:0:0:0:
358,192,59812,1,0,0:0:0:0:
51,192,60187,1,0,0:0:0:0:
153,192,60281,1,0,0:0:0:0:
256,192,60375,1,0,0:0:0:0:
358,192,60468,1,0,0:0:0:0:
460,192,60562,1,0,0:0:0:0:
358,192,60656,1,0,0:0:0:0:
256,192,60750,1,0,0:0:0:0:
153,192,60937,1,0,0:0:0:0:
358,192,61125,1,0,0:0:0:0:
153,192,61312,1,0,0:0:0:0:
51,192,61500,128,0,62062:0:0:0:0:
358,192,61500,1,0,0:0:0:0:
460,192,61687,1,0,0:0:0:0:
153,192,61875,1,0,0:0:0:0:
256,192,62062,1,0,0:0:0:0:
460,192,62250,128,0,62812:0:0:0:0:
153,192,62250,1,0,0:0:0:0:
51,192,62437,1,0,0:0:0:0:
153,192,62625,1,0,0:0:0:0:
256,192,62812,1,0,0:0:0:0:
153,192,63000,128,0,63562:0:0:0:0:
358,192,63000,1,0,0:0:0:0:
51,192,63000,1,0,0:0:0:0:
256,192,63187,1,0,0:0:0:0:
358,192,63375,1,0,0:0:0:0:
256,192,63562,1,0,0:0:0:0:
358,192,63750,1,0,0:0:0:0:
153,192,63937,1,0,0:0:0:0:
51,192,64125,1,0,0:0:0:0:
153,192,64125,1,0,0:0:0:0:
256,192,64125,1,0,0:0:0:0:
358,192,64125,1,0,0:0:0:0:
460,192,64125,1,0,0:0:0:0:
51,192,64500,128,0,64875:0:0:0:0:
358,192,64500,1,0,0:0:0:0:
460,192,64687,1,0,0:0:0:0:
256,192,64875,1,0,0:0:0:0:
460,192,65062,128,0,65625:0:0:0:0:
153,192,65062,1,0,0:0:0:0:
51,192,65250,1,0,0:0:0:0:
153,192,65437,1,0,0:0:0:0:
256,192,65625,1,0,0:0:0:0:
51,192,65812,128,0,66375:0:0:0:0:
153,192,65812,1,0,0:0:0:0:
358,192,66000,1,0,0:0:0:0:
153,192,66187,1,0,0:0:0:0:
460,192,66375,1,0,0:0:0:0:
256,192,66375,128,0,66750:0:0:0:0:
460,192,66562,1,0,0:0:0:0:
358,192,66750,1,0,0:0:0:0:
153,192,66750,128,0,67125:0:0:0:0:
358,192,66937,1,0,0:0:0:0:
256,192,67125,1,0,0:0:0:0:
51,192,67125,128,0,67500:0:0:0:0:
153,192,67500,128,0,68062:0:0:0:0:
358,192,67500,1,0,0:0:0:0:
460,192,67500,1,0,0:0:0:0:
256,192,67687,1,0,0:0:0:0:
358,192,67875,1,0,0:0:0:0:
256,192,68062,1,0,0:0:0:0:
460,192,68250,128,0,68812:0:0:0:0:
51,192,68250,1,0,0:0:0:0:
358,192,68250,1,0,0:0:0:0:
153,192,68437,1,0,0:0:0:0:
51,192,68625,1,0,0:0:0:0:
256,192,68812,1,0,0:0:0:0:
51,192,69000,128,0,69562:0:0:0:0:
358,192,69000,1,0,0:0:0:0:
153,192,69187,1,0,0:0:0:0:
358,192,69375,1,0,0:0:0:0:
460,192,69562,1,0,0:0:0:0:
256,192,69750,1,0,0:0:0:0:
153,192,69937,1,0,0:0:0:0:
358,192,69937,1,0,0:0:0:0:
153,192,70125,1,0,0:0:0:0:
51,192,70125,1,0,0:0:0:0:
256,192,70125,1,0,0:0:0:0:
358,192,70125,1,0,0:0:0:0:
460,192,70125,1,0,0:0:0:0:
358,192,70500,128,0,70875:0:0:0:0:
153,192,70500,1,0,0:0:0:0:
256,192,70687,1,0,0:0:0:0:
460,192,70875,1,0,0:0:0:0:
51,192,70875,1,0,0:0:0:0:
153,192,71062,1,0,0:0:0:0:
358,192,71250,1,0,0:0:0:0:
256,192,71437,1,0,0:0:0:0:
460,192,71625,128,0,71812:0:0:0:0:
153,192,71625,1,0,0:0:0:0:
358,192,71812,128,0,72000:0:0:0:0:
51,192,71812,1,0,0:0:0:0:
153,192,72000,1,0,0:0:0:0:
256,192,72187,1,0,0:0:0:0:
153,192,72375,1,0,0:0:0:0:
51,192,72562,1,0,0:0:0:0:
153,192,72656,1,0,0:0:0:0:
256,192,72750,1,0,0:0:0:0:
358,192,72843,1,0,0:0:0:0:
460,192,72937,1,0,0:0:0:0:
358,192,73031,1,0,0:0:0:0:
256,192,73125,1,0,0:0:0:0:
153,192,73218,1,0,0:0:0:0:
51,192,73312,1,0,0:0:0:0:
153,192,73500,128,0,74250:0:0:0:0:
256,192,73500,1,0,0:0:0:0:
358,192,73500,1,0,0:0:0:0:
460,192,73500,1,0,0:0:0:0:
51,192,73875,1,0,0:0:0:0:
256,192,73875,1,0,0:0:0:0:
460,192,74062,1,0,0:0:0:0:
358,192,74250,1,0,0:0:0:0:
51,192,74250,1,0,0:0:0:0:
460,192,74250,1,0,0:0:0:0:
256,192,74625,1,0,0:0:0:0:
358,192,74625,1,0,0:0:0:0:
460,192,74625,1,0,0:0:0:0:
51,192,74812,128,0,76125:0:0:0:0:
153,192,75000,128,0,76125:0:0:0:0:
358,192,75000,1,0,0:0:0:0:
460,192,75000,1,0,0:0:0:0:
256,192,75375,1,0,0:0:0:0:
358,192,75375,1,0,0:0:0:0:
460,192,75562,1,0,0:0:0:0:
358,192,75750,128,0,76125:0:0:0:0:
256,192,75750,1,0,0:0:0:0:
460,192,76125,1,0,0:0:0:0:
51,192,76500,128,0,77062:0:0:0:0:
256,192,76500,1,0,0:0:0:0:
358,192,76500,1,0,0:0:0:0:
460,192,76500,1,0,0:0:0:0:
460,192,76875,1,0,0:0:0:0:
358,192,76875,1,0,0:0:0:0:
153,192,77062,1,0,0:0:0:0:
256,192,77250,1,0,0:0:0:0:
358,192,77250,1,0,0:0:0:0:
460,192,77250,1,0,0:0:0:0:
153,192,77625,1,0,0:0:0:0:
51,192,77625,1,0,0:0:0:0:
460,192,77625,1,0,0:0:0:0:
256,192,77812,128,0,79125:0:0:0:0:
358,192,78000,1,0,0:0:0:0:
460,192,78000,1,0,0:0:0:0:
153,192,78000,1,0,0:0:0:0:
51,192,78000,1,0,0:0:0:0:
153,192,78375,1,0,0:0:0:0:
358,192,78375,1,0,0:0:0:0:
358,192,78750,1,0,0:0:0:0:
51,192,78750,1,0,0:0:0:0:
460,192,78750,1,0,0:0:0:0:
153,192,79125,1,0,0:0:0:0:
358,192,79125,1,0,0:0:0:0:
256,192,79500,128,0,80062:0:0:0:0:
153,192,79500,1,0,0:0:0:0:
358,192,79500,1,0,0:0:0:0:
358,192,79875,1,0,0:0:0:0:
153,192,79875,1,0,0:0:0:0:
51,192,80062,1,0,0:0:0:0:
460,192,80062,1,0,0:0:0:0:
256,192,80250,128,0,80812:0:0:0:0:
153,192,80250,1,0,0:0:0:0:
358,192,80250,1,0,0:0:0:0:
51,192,80625,1,0,0:0:0:0:
460,192,80625,1,0,0:0:0:0:
153,192,80812,1,0,0:0:0:0:
358,192,80812,1,0,0:0:0:0:
256,192,81000,128,0,81750:0:0:0:0:
51,192,81000,1,0,0:0:0:0:
460,192,81000,1,0,0:0:0:0:
51,192,81375,1,0,0:0:0:0:
460,192,81375,1,0,0:0:0:0:
358,192,81562,1,0,0:0:0:0:
153,192,81562,1,0,0:0:0:0:
51,192,81750,1,0,0:0:0:0:
460,192,81750,1,0,0:0:0:0:
51,192,82125,1,0,0:0:0:0:
153,192,82125,1,0,0:0:0:0:
256,192,82125,1,0,0:0:0:0:
358,192,82125,1,0,0:0:0:0:
460,192,82125,1,0,0:0:0:0:
256,192,82500,1,0,0:0:0:0:
460,192,82500,1,0,0:0:0:0:
153,192,82687,1,0,0:0:0:0:
51,192,82875,1,0,0:0:0:0:
358,192,82875,1,0,0:0:0:0:
256,192,82875,1,0,0:0:0:0:
153,192,83062,1,0,0:0:0:0:
460,192,83062,1,0,0:0:0:0:
358,192,83250,1,0,0:0:0:0:
153,192,83250,1,0,0:0:0:0:
256,192,83437,1,0,0:0:0:0:
51,192,83437,1,0,0:0:0:0:
358,192,83625,1,0,0:0:0:0:
153,192,83625,1,0,0:0:0:0:
256,192,83625,1,0,0:0:0:0:
460,192,83812,1,0,0:0:0:0:
256,192,83812,1,0,0:0:0:0:
153,192,84000,1,0,0:0:0:0:
358,192,84000,1,0,0:0:0:0:
256,192,84187,1,0,0:0:0:0:
51,192,84375,1,0,0:0:0:0:
358,192,84375,1,0,0:0:0:0:
256,192,84375,1,0,0:0:0:0:
153,192,84562,1,0,0:0:0:0:
460,192,84562,1,0,0:0:0:0:
358,192,84750,1,0,0:0:0:0:
256,192,84750,1,0,0:0:0:0:
460,192,84937,1,0,0:0:0:0:
256,192,84937,1,0,0:0:0:0:
153,192,85125,1,0,0:0:0:0:
256,192,85125,1,0,0:0:0:0:
358,192,85312,1,0,0:0:0:0:
51,192,85312,1,0,0:0:0:0:
256,192,85500,128,0,87000:0:0:0:0:
153,192,85500,1,0,0:0:0:0:
460,192,85500,1,0,0:0:0:0:
153,192,85875,1,0,0:0:0:0:
358,192,85875,1,0,0:0:0:0:
153,192,86250,1,0,0:0:0:0:
358,192,86250,1,0,0:0:0:0:
153,192,86625,1,0,0:0:0:0:
358,192,86625,1,0,0:0:0:0:
51,192,87000,1,0,0:0:0:0:
153,192,87000,1,0,0:0:0:0:
358,192,87000,1,0,0:0:0:0:
460,192,87000,1,0,0:0:0:0:
153,192,87375,1,0,0:0:0:0:
256,192,87375,1,0,0:0:0:0:
358,192,87375,1,0,0:0:0:0:
153,192,87750,1,0,0:0:0:0:
256,192,87750,1,0,0:0:0:0:
358,192,87750,1,0,0:0:0:0:
