osu file format v5

[General]
AudioFilename: 13 - Triangle Square.mp3
AudioLeadIn: 0
PreviewTime: -1
Countdown: 1
SampleSet: Normal
StackLeniency: 0.8
Mode: 0
LetterboxInBreaks: 1
EditorDistanceSpacing: 1.29999995231628

[Metadata]
Title:Triangle Square
Artist:Terry S. Taylor
Creator:strager
Version:Easy
Source:Neverhood OST
Tags:neverhood guitar

[Difficulty]
HPDrainRate:2
CircleSize:4
OverallDifficulty:1
SliderMultiplier:1
SliderTickRate:2

[Events]
//Background and Video events
0,0,"neverhood-putput.png"
//Break Periods
2,18743,18890
2,34962,38151
2,42034,42181
2,46086,46233
//Storyboard Layer 0 (Background)
//Storyboard Layer 1 (Failing)
//Storyboard Layer 2 (Passing)
//Storyboard Layer 3 (Foreground)
//Storyboard Sound Samples
//Background Colour Transformations
3,100,163,162,255

[TimingPoints]
4351,506.863780359028,4,1,1,50,1,0
6505,-100,4,1,1,40,0,0
8279,-100,4,1,1,50,0,0
22724,-100,4,1,1,40,0,0
24498,-100,4,1,1,50,0,0
43886,506.863780359028,4,1,1,50,1,0
49424,506.863780359028,4,1,1,50,1,0
50412,506.863780359028,4,1,1,50,1,0
54994,506.863780359028,4,1,1,50,1,0

[Colours]
Combo1 : 190,99,57
Combo2 : 203,34,25
Combo3 : 219,182,134
Combo4 : 113,135,46

[HitObjects]
120,192,4351,1,0
208,192,4857,1,0
296,192,5364,1,0
472,192,6378,5,2
408,256,6885,1,0
344,192,7392,1,2
280,256,7899,1,0
216,192,8405,5,0
128,192,8912,1,0
40,192,9419,1,0
256,192,10433,5,2
32,96,11447,5,0
120,96,11953,1,0
184,32,12460,5,2
248,96,12967,1,0
312,160,13474,1,0
376,96,13981,1,2
376,96,14488,5,2
312,160,14995,1,0
248,224,15502,1,0
184,160,16008,1,2
184,160,16515,5,2
248,224,17022,1,0
312,288,17529,1,0
376,224,18036,5,2
440,288,18543,1,4
400,192,20570,5,0
312,192,21077,1,0
224,192,21584,1,0
40,192,22598,6,0,L|80:232,1,50,10|2
104,256,23104,2,0,L|144:216,1,50,2|2
168,192,23611,1,2
232,256,24118,1,0
296,192,24625,5,0
384,192,25132,1,0
472,192,25639,1,0
256,352,26653,6,0,L|280:304,1,50,0|0
288,272,27159,2,0,L|264:224,1,50,0|0
256,200,27666,6,0,L|256:88,1,100,0|0
256,24,28680,6,0,L|352:88,1,100,2|0
256,80,29694,2,0,L|352:144,1,100,0|2
256,136,30707,6,0,L|160:200,1,100,2|0
256,192,31721,2,0,L|160:256,1,100,0|2
256,248,32735,6,0,L|352:312,1,100,2|0
256,304,33749,2,0,L|352:368,1,100,0|2
339,360,34762,5,4
128,256,39831,5,0
192,192,40338,1,0
256,128,40845,1,0
320,192,41352,2,2,L|392:264,1,100,2|8
384,128,43886,5,0
320,192,44392,1,0
256,256,44899,1,0
192,192,45406,2,2,L|120:120,1,100,2|8
128,160,47940,5,0
192,96,48447,1,2
280,96,48954,1,2
344,160,49424,1,0
408,224,49931,5,0
344,160,50412,1,2
256,160,50918,1,2
192,224,51425,1,0
128,288,51932,5,0
192,224,52439,1,2
280,224,52946,1,2
344,288,53453,1,0
256,288,53960,1,2
128,192,54994,5,0
216,192,55500,1,0
304,192,56007,6,0,L|304:64,3,100,2|0|0|2
392,92,58035,2,0,L|392:220,3,100,2|0|0|2
304,192,60062,2,0,L|304:64,3,100,2|0|0|2
256,192,62090,12,4,63610
