osu file format v12

[General]
AudioFilename: Terry Lin - The Fireworks Of Transience.mp3
AudioLeadIn: 0
PreviewTime: 95387
Countdown: 0
SampleSet: Soft
StackLeniency: 0.7
Mode: 0
LetterboxInBreaks: 0
WidescreenStoryboard: 0

[Editor]
DistanceSpacing: 2
BeatDivisor: 8
GridSize: 4
TimelineZoom: 3.199999

[Metadata]
Title:The Fireworks of Transience
TitleUnicode:烟花易冷
Artist:Terry Lin
ArtistUnicode:林志炫
Creator:cmn_891127
Version:Transience
Source:I am a Singer
Tags:Jay Chou Vincent Fang Yanhua Yileng
BeatmapID:268083
BeatmapSetID:101125

[Difficulty]
HPDrainRate:6
CircleSize:4
OverallDifficulty:5
ApproachRate:8
SliderMultiplier:1.2
SliderTickRate:1

[Events]
//Background and Video events
0,0,"BG.jpg",0,0
//Break Periods
//Storyboard Layer 0 (Background)
//Storyboard Layer 1 (Fail)
//Storyboard Layer 2 (Pass)
//Storyboard Layer 3 (Foreground)
//Storyboard Sound Samples
//Background Colour Transformations
3,100,163,162,255

[TimingPoints]
13643,413.793103448276,4,2,1,30,1,0
14005,-200,4,2,1,30,0,0
15298,437.956204379562,4,2,1,30,1,0
15681,-200,4,2,1,30,0,0
17104,437.956204379562,4,2,1,30,1,8
17104,-200,4,2,1,30,0,0
18855,465.116279069767,4,2,1,30,1,0
20715,434.782608695652,4,2,1,30,1,0
20715,-200,4,2,1,30,0,0
22345,461.538461538462,4,2,1,30,1,0
22345,-200,4,2,1,30,0,0
24191,452.147701582517,4,2,1,30,1,0
24191,-200,4,2,1,30,0,0
27808,431.654676258993,4,2,1,30,1,0
27808,-200,4,2,1,30,0,0
31261,434.782608695652,4,2,1,30,1,0
31261,-200,4,2,1,30,0,0
33000,476.190476190476,4,2,1,30,1,0
34904,441.176470588235,4,2,1,30,1,0
36601,-200,4,2,1,30,0,0
38543,461.538461538462,4,2,1,30,1,0
38543,-200,4,2,1,30,0,0
42581,437.956204379562,4,2,1,30,1,0
44280,-200,4,2,1,30,0,0
46084,428.571428571429,4,2,1,30,1,0
47798,451.127819548872,4,2,1,30,1,0
48305,-200,4,2,1,30,0,0
49602,414.9377593361,4,2,1,30,1,0
53440,458.015267175573,4,2,1,30,1,0
53440,-200,4,2,1,30,0,0
56646,419.58041958042,4,2,1,30,1,0
57469,-200,4,2,1,30,0,0
60156,449.438202247191,4,2,1,30,1,8
60156,-200,4,2,1,30,0,0
63751,432.276657060519,4,2,1,30,1,0
64507,-200,4,2,1,32,0,0
65372,-200,4,2,1,34,0,0
66236,-200,4,2,1,36,0,0
67209,-200,4,2,1,38,0,0
68938,-200,4,2,1,40,0,0
70667,428.571428571429,4,2,1,30,1,1
70701,-100,4,2,1,30,0,0
76646,-200,4,2,1,30,0,0
77631,440.528634361234,4,2,1,30,1,0
83760,-200,4,2,1,30,0,0
84310,-100,4,2,1,30,0,0
89475,-200,4,2,1,30,0,0
89965,480,4,2,1,30,1,0
90385,-200,4,2,1,30,0,0
91885,444.444444444444,4,2,1,30,1,0
91885,-200,4,2,1,30,0,0
95440,439.882697947214,4,2,1,30,1,0
95440,-200,4,2,1,30,0,0
96268,-133.333333333333,4,2,1,30,0,0
97147,-100,4,2,1,30,0,0
100718,434.782608695652,4,2,1,30,1,0
106080,428.571428571429,4,2,1,30,1,0
109615,436.681222707424,4,2,1,30,1,0
113108,444.444444444444,4,2,1,30,1,0
116663,454.545454545455,4,2,1,30,1,0
118420,-100,4,2,1,30,0,0
119541,444.444444444444,4,2,1,30,1,0
119938,-200,4,2,1,30,0,0
124133,445.765230312036,4,2,1,30,1,0
125861,-200,4,2,1,30,0,0
131488,431.654676258993,4,2,1,30,1,0
131488,-200,4,2,1,30,0,0
135013,446.096654275093,4,2,1,30,1,0
135013,-200,4,2,1,30,0,0
145830,446.096654275093,4,2,1,30,1,0
145830,-200,4,2,1,30,0,0
149510,441.176470588235,4,2,1,30,1,0
149510,-200,4,2,1,30,0,0
152157,448.765893792072,4,2,1,30,1,0
152157,-200,4,2,1,30,0,0
154961,448.765893792072,4,2,1,30,1,0
154961,-200,4,2,1,30,0,0
156756,442.80442804428,4,2,1,30,1,0
156756,-200,4,2,1,30,0,0
160298,428.571428571429,4,2,1,30,1,0
163726,422.535211267606,4,2,1,30,1,0
167051,-200,4,2,1,30,0,0
170433,-100,4,2,1,30,0,0
173092,427.046263345196,4,2,1,30,1,0
173092,-200,4,2,1,30,0,0
177433,421.052631578947,4,2,1,30,1,0
179117,444.444444444444,4,2,1,30,1,0
180894,404.040404040404,4,2,1,30,1,0
182293,-200,4,2,1,30,0,0
184328,421.052631578947,4,2,1,30,1,0
187800,431.654676258993,4,2,1,30,1,0
188125,-200,4,2,1,30,0,0
189526,472.44094488189,4,2,1,30,1,0
191416,421.644413211525,4,2,1,30,1,0
193829,-200,4,2,1,30,0,0
195730,-100,4,2,1,30,0,0
198162,431.654676258993,4,2,1,30,1,0
203341,434.782608695652,4,2,1,30,1,0
203341,-200,4,2,1,30,0,0
205080,444.444444444444,4,2,1,30,1,0
208342,-200,4,2,1,30,0,0
208635,428.724544480172,4,2,1,30,1,0
209865,-200,4,2,1,30,0,0
212064,434.782608695652,4,2,1,30,1,0
217281,451.127819548872,4,2,1,30,1,0
217672,-200,4,2,1,30,0,0
219085,433.212996389892,4,2,1,30,1,1
219247,-100,4,2,1,30,0,0
224283,444.444444444444,4,2,1,30,1,0
224283,-200,4,2,1,30,0,0
226171,436.681222707424,4,2,1,30,1,0
232174,-200,4,2,1,30,0,0
233157,444.444444444444,4,2,1,30,1,0
234036,-100,4,2,1,30,0,0
238490,461.538461538462,4,2,1,30,1,0
239413,442.80442804428,4,2,1,30,1,0
243841,357.142857142857,4,2,1,30,1,0
246519,-200,4,2,1,30,0,1
247635,340.909090909091,4,2,1,30,1,1
247635,-200,4,2,1,30,0,1
249254,339.943342776204,4,2,1,30,1,1
249254,-200,4,2,1,30,0,1
263531,310.880829015544,4,2,1,30,1,1
263531,-200,4,2,1,30,0,1
268815,458.015267175573,4,2,1,30,1,0
269960,458.015267175573,4,2,1,30,1,0
272551,-200,4,2,1,30,0,0
273738,447.761194029851,4,2,1,30,1,0
274583,-200,4,2,1,30,0,0
277655,428.571428571429,4,2,1,30,1,0
279161,-200,4,2,1,30,0,0
283333,468.75,4,2,1,30,1,0
283333,-200,4,2,1,30,0,0

[Colours]
Combo1 : 150,150,150
Combo2 : 220,220,220
SliderBorder : 50,50,50

[HitObjects]
343,113,13538,5,0,0:0:0:0:
350,111,13591,1,0,0:0:0:0:
357,110,13643,2,0,L|373:106,2,15,2|0|0,0:0|0:0|0:0,0:0:0:0:
234,197,14056,2,0,P|197:177|115:175,1,120,0|0,0:0|0:0,0:0:0:0:
321,272,15194,1,0,0:0:0:0:
327,275,15246,1,0,0:0:0:0:
333,279,15298,2,0,L|348:286,2,15,2|0|0,0:0|0:0|0:0,0:0:0:0:
456,205,15735,2,0,P|408:214|390:209,1,60
406,88,16940,5,0,0:0:0:0:
399,88,16995,1,0,0:0:0:0:
392,88,17049,2,0,L|332:88,1,60
250,49,17979,1,0,0:0:0:0:
212,131,18417,1,0,0:0:0:0:
294,168,18855,1,0,0:0:0:0:
318,65,20599,5,0,0:0:0:0:
308,77,20657,1,0,0:0:0:0:
296,86,20715,1,2,0:0:0:0:
222,126,21149,2,0,P|180:140|99:141,1,120
96,268,22236,1,0,0:0:0:0:
112,270,22291,1,0,0:0:0:0:
126,273,22345,2,0,P|177:249|239:251,1,120,2|0,0:0|0:0,0:0:0:0:
320,276,23729,1,0,0:0:0:0:
391,87,24191,6,0,P|357:101|328:104,1,60,2|0,0:0|0:0,0:0:0:0:
154,157,25095,2,0,P|192:143|223:144,1,60
292,164,25999,1,0,0:0:0:0:
291,164,27808,6,0,P|235:183|223:184,1,60,2|0,0:0|0:0,0:0:0:0:
389,202,28671,2,0,P|418:193|446:169,1,60
302,271,29534,1,0,0:0:0:0:
343,75,31153,5,0,0:0:0:0:
332,86,31207,1,0,0:0:0:0:
320,96,31261,2,0,P|270:117|264:118,1,60,2|0,0:0|0:0,0:0:0:0:
399,143,32130,2,0,P|397:168|376:206,1,60
252,256,33000,1,0,0:0:0:0:
433,86,34904,5,2,0:0:0:0:
332,151,35345,1,0,0:0:0:0:
210,170,35786,1,0,0:0:0:0:
90,145,36227,1,0,0:0:0:0:
41,298,36668,2,0,P|90:274|97:273,1,60,2|0,0:0|0:0,0:0:0:0:
278,283,37551,2,0,P|301:285|344:278,1,60
442,119,38323,5,0,0:0:0:0:
426,131,38396,1,0,0:0:0:0:
406,137,38470,1,0,0:0:0:0:
387,138,38543,2,0,P|310:129|257:158,1,135,2|0,0:0|0:0,0:0:0:0:
110,210,40043,2,0,P|155:208|182:198,1,75
132,106,42581,5,2,0:0:0:0:
95,233,42799,1,0,0:0:0:0:
118,128,43018,5,2,0:0:0:0:
104,260,43237,1,0,0:0:0:0:
110,153,43456,5,2,0:0:0:0:
118,285,43675,1,0,0:0:0:0:
231,216,43894,5,2,0:0:0:0:
222,84,44113,1,0,0:0:0:0:
341,143,44332,6,0,B|360:140|379:152|401:148,2,60,2|0|0,0:0|0:0|0:0,0:0:0:0:
341,143,45865,5,0,0:0:0:0:
378,270,46084,1,2,0:0:0:0:
348,158,46298,5,0,0:0:0:0:
362,290,46512,1,2,0:0:0:0:
352,175,46726,5,0,0:0:0:0:
343,307,46941,1,2,0:0:0:0:
354,192,47155,5,0,0:0:0:0:
322,320,47369,1,2,0:0:0:0:
226,230,47584,5,0,0:0:0:0:
257,101,47798,1,0,0:0:0:0:
294,245,48361,2,0,B|316:247|325:236|345:238,2,52.5
152,220,49602,5,2,0:0:0:0:
282,155,49809,1,0,0:0:0:0:
213,283,50016,1,2,0:0:0:0:
193,139,50224,1,0,0:0:0:0:
294,245,50431,1,2,0:0:0:0:
377,289,50639,5,0,0:0:0:0:
459,328,50846,1,2,0:0:0:0:
498,246,51054,1,0,0:0:0:0:
416,208,51261,1,2,0:0:0:0:
302,67,51469,5,0,0:0:0:0:
384,28,51676,1,2,0:0:0:0:
423,110,51884,1,0,0:0:0:0:
341,148,52091,1,2,0:0:0:0:
214,281,52299,5,0,0:0:0:0:
134,238,52506,1,2,0:0:0:0:
150,150,52714,1,0,0:0:0:0:
239,138,52921,1,0,0:0:0:0:
239,138,52973,1,0,0:0:0:0:
239,138,53025,1,0,0:0:0:0:
280,220,53440,6,0,P|312:224|344:220,1,60
472,172,54356,2,0,P|440:168|408:172,1,60
316,142,56646,5,0,0:0:0:0:
235,262,56855,1,0,0:0:0:0:
230,117,57065,1,0,0:0:0:0:
319,232,57275,1,0,0:0:0:0:
180,192,57485,2,0,P|148:188|117:192,2,63.75,2|0|0,0:0|0:0|0:0,0:0:0:0:
112,88,60156,6,0,P|154:80|171:80,1,60
252,100,60830,1,0,0:0:0:0:
258,103,60886,1,0,0:0:0:0:
265,105,60942,1,0,0:0:0:0:
273,107,60998,1,0,0:0:0:0:
280,107,61054,2,0,P|320:112|344:108,2,60,2|0|0,0:0|0:0|0:0,0:0:0:0:
112,80,63751,5,4,0:0:0:0:
112,80,64183,1,0,0:0:0:0:
64,156,64615,5,4,0:0:0:0:
64,156,65047,1,0,0:0:0:0:
64,246,65480,5,4,0:0:0:0:
64,246,65912,1,0,0:0:0:0:
113,322,66344,6,0,P|165:290|197:286,1,90,4|0,0:0|0:0,0:0:0:0:
223,287,67101,2,0,L|235:288,2,7.5,0|0|6,0:0|0:0|0:0,0:0:0:0:
427,207,67641,2,0,P|394:226|370:228,1,60,0|2,0:0|0:0,0:0:0:0:
367,146,68506,2,0,P|336:153|302:149,2,60,0|6|0,0:0|0:0|0:0,0:0:0:0:
145,146,69802,2,0,P|176:153|210:149,1,60
84,195,70667,6,0,P|81:98|175:73,1,210,2|0,0:0|0:0,0:0:0:0:
176,74,71524,1,0,0:0:0:0:
468,184,71952,2,0,P|474:200|472:243,1,60
320,297,72381,2,0,P|358:285|395:218,1,120
195,221,73024,1,0,0:0:0:0:
195,221,73238,2,0,B|241:209|279:235|333:211,2,120,0|0|2,0:0|0:0|0:0,0:0:0:0:
140,78,74524,5,0,0:0:0:0:
132,91,74952,1,0,0:0:0:0:
124,104,75381,1,0,0:0:0:0:
116,117,75809,1,0,0:0:0:0:
108,130,76238,1,0,0:0:0:0:
99,142,76667,2,0,B|141:138|145:158|188:155,1,90,0|0,0:0|0:0,0:0:0:0:
246,97,77524,5,0,0:0:0:0:
246,97,77631,2,0,P|269:133|252:208,1,120,2|0,0:0|0:0,0:0:0:0:
121,325,78291,1,0,0:0:0:0:
204,293,78512,2,0,B|291:269|312:340|321:290,1,120
385,155,79172,1,0,0:0:0:0:
385,155,79282,1,0,0:0:0:0:
385,155,79393,2,0,P|363:103|384:46,1,120
393,236,80274,2,0,P|439:216|444:101,1,180
314,199,81155,6,0,P|291:181|258:171,1,60,2|0,0:0|0:0,0:0:0:0:
314,199,81595,2,0,P|269:218|183:204,1,135
5,190,82476,2,0,P|50:171|136:185,1,135
431,98,83798,6,0,P|464:104|488:124,1,60
431,98,84679,1,2,0:0:0:0:
424,179,84899,1,0,0:0:0:0:
379,247,85119,1,0,0:0:0:0:
308,289,85340,1,0,0:0:0:0:
225,300,85560,2,0,P|199:286|134:283,1,90
106,297,86001,2,0,P|147:276|166:197,1,120
63,165,86661,1,0,0:0:0:0:
63,165,86882,2,0,P|65:184|89:217,1,60
143,158,87322,6,0,B|168:140|226:175|266:151,1,120
312,89,87983,1,0,0:0:0:0:
312,89,88093,1,0,0:0:0:0:
312,89,88203,2,0,P|336:119|341:139,1,60,2|0,0:0|0:0,0:0:0:0:
420,157,88644,2,0,P|406:192|391:207,1,60
420,283,89084,2,0,P|382:288|361:283,1,60
227,255,89525,2,0,P|264:249|285:254,1,60
150,283,90445,2,0,P|129:288|92:283,1,60
424,128,91885,6,0,P|376:140|312:112,1,120,2|0,0:0|0:0,0:0:0:0:
188,186,93218,2,0,P|225:171|240:154,1,60
136,104,95329,5,0,0:0:0:0:
136,104,95440,2,0,P|138:131|114:156,1,60,2|0,0:0|0:0,0:0:0:0:
136,104,96319,2,0,P|150:142|125:188,1,90.0000034332277
136,104,97199,2,0,P|168:148|152:216,1,120,2|0,0:0|0:0,0:0:0:0:
50,118,98079,6,0,P|40:180|72:224,2,120,0|0|2,0:0|0:0|0:0,0:0:0:0:
136,104,99179,1,0,0:0:0:0:
289,136,99618,1,0,0:0:0:0:
289,136,99838,2,0,P|318:131|344:116,1,60
396,44,100278,5,0,0:0:0:0:
396,44,100498,1,0,0:0:0:0:
395,44,100718,2,0,P|336:27|286:51,1,120,2|0,0:0|0:0,0:0:0:0:
453,143,101370,1,0,0:0:0:0:
453,143,101587,2,0,P|388:147|346:117,2,120,0|0|2,0:0|0:0|0:0,0:0:0:0:
272,160,102674,6,0,P|236:144|188:136,1,60
348,212,103109,1,0,0:0:0:0:
348,212,103326,2,0,P|384:228|432:236,1,60
264,240,103761,1,0,0:0:0:0:
264,240,103978,2,0,P|228:224|180:216,1,60,0|0,0:0|0:0,0:0:0:0:
340,292,104413,1,0,0:0:0:0:
340,292,104631,2,0,P|376:308|424:316,1,60
207,304,105065,6,0,B|145:277|85:348|30:308,1,180
70,240,105935,1,0,0:0:0:0:
70,240,106007,1,0,0:0:0:0:
70,240,106080,1,2,0:0:0:0:
159,172,106508,2,0,B|124:185|96:144|43:162,2,120
161,172,107580,1,0,0:0:0:0:
219,233,107794,6,0,P|244:171|230:135,1,105,2|0,0:0|0:0,0:0:0:0:
179,93,108222,2,0,P|157:90|97:118,1,90
160,172,108651,2,0,P|232:158|254:56,1,180
384,48,109508,1,0,0:0:0:0:
384,48,109615,2,0,P|367:45|330:24,2,60,2|0|0,0:0|0:0|0:0,0:0:0:0:
475,130,110488,5,0,0:0:0:0:
511,242,110706,1,0,0:0:0:0:
398,280,110925,1,0,0:0:0:0:
359,167,111143,1,0,0:0:0:0:
315,244,111361,5,0,0:0:0:0:
319,331,111580,1,0,0:0:0:0:
229,337,111798,1,0,0:0:0:0:
223,247,112016,1,0,0:0:0:0:
177,293,112235,5,0,0:0:0:0:
163,356,112453,1,0,0:0:0:0:
96,343,112671,1,0,0:0:0:0:
109,277,112890,1,0,0:0:0:0:
170,165,113108,6,0,P|106:175|58:60,1,210,2|0,0:0|0:0,0:0:0:0:
214,97,113996,2,0,P|164:84|128:96,1,90
282,139,114441,2,0,P|331:151|367:139,1,90
437,101,114885,1,2,0:0:0:0:
442,111,115330,1,0,0:0:0:0:
447,121,115774,1,0,0:0:0:0:
452,131,116219,1,0,0:0:0:0:
449,142,116663,5,2,0:0:0:0:
446,153,117117,1,0,0:0:0:0:
443,164,117572,1,0,0:0:0:0:
440,175,118026,1,0,0:0:0:0:
436,186,118481,2,0,L|392:202,1,40,2|0,0:0|0:0,0:0:0:0:
414,276,118784,2,0,L|368:268,1,40,2|0,0:0|0:0,0:0:0:0:
351,344,119087,2,0,L|315:314,1,40,2|0,0:0|0:0,0:0:0:0:
262,372,119390,2,0,L|246:328,1,40,2|0,0:0|0:0,0:0:0:0:
250,12,119985,6,0,P|265:53|261:80,1,60,0|2,0:0|0:0,0:0:0:0:
177,135,120874,2,0,P|175:150|190:191,1,60
335,135,121763,2,0,P|336:150|321:191,1,60
256,116,123096,2,0,B|244:156|268:177|256:227,1,110
256,235,123985,1,0,0:0:0:0:
256,244,124059,1,0,0:0:0:0:
256,253,124133,1,0,0:0:0:0:
197,186,125916,2,0,B|232:176|266:207|318:191,1,120
314,106,127253,2,0,P|287:110|256:104,1,60
256,104,131488,6,0,B|192:104|200:84|128:84,2,120,2|0|0,0:0|0:0|0:0,0:0:0:0:
336,108,134077,2,0,P|374:129|387:147,2,65
316,186,135459,2,0,P|304:230|236:266,1,120
236,186,136797,1,2,0:0:0:0:
236,186,137689,6,0,P|204:190|172:186,1,60
144,107,138581,2,0,P|206:113|264:106,1,120,2|0,0:0|0:0,0:0:0:0:
347,79,139920,2,0,P|371:71|392:58,1,45
405,48,140366,2,0,P|375:125|393:166,1,120
470,154,141704,2,0,P|466:190|448:218,1,60
391,265,142596,1,0,0:0:0:0:
312,293,143042,1,0,0:0:0:0:
228,282,143488,1,0,0:0:0:0:
148,308,143934,2,0,P|113:320|84:321,1,60,2|0,0:0|0:0,0:0:0:0:
0,95,144827,6,0,P|53:123|110:115,1,120,0|0,0:0|0:0,0:0:0:0:
133,109,145830,2,0,P|175:111|193:119,1,60,2|0,0:0|0:0,0:0:0:0:
268,148,146722,2,0,P|312:160|336:156,1,60
435,51,147614,1,0,0:0:0:0:
435,51,147837,1,0,0:0:0:0:
435,51,148060,1,0,0:0:0:0:
510,151,148283,5,0,0:0:0:0:
510,151,148506,2,0,P|463:135|420:137,1,90,0|0,0:0|0:0,0:0:0:0:
362,194,149510,2,0,P|343:215|310:228,1,60
209,148,150392,2,0,P|216:178|234:201,1,60
293,148,151274,2,0,P|316:188|288:264,1,120,2|0,0:0|0:0,0:0:0:0:
160,204,152605,6,0,B|192:200|204:209|235:204,1,75,0|2,0:0|0:0,0:0:0:0:
234,204,153952,2,0,P|272:216|280:224,1,45
362,302,154737,1,0,0:0:0:0:
367,308,154849,1,0,0:0:0:0:
373,314,154961,2,0,P|404:336|424:343,1,60
444,204,155858,2,0,P|436:228|435:263,1,60
395,134,156756,2,0,P|372:146|338:151,1,60
117,134,157641,2,0,P|140:146|173:151,1,60
256,128,158527,1,2,0:0:0:0:
256,128,159412,2,0,B|239:166|273:203|256:245,1,120
189,56,163726,6,0,P|221:64|253:60,1,60,2|0,0:0|0:0,0:0:0:0:
391,82,164148,2,0,P|359:90|332:87,1,60,2|0,0:0|0:0,0:0:0:0:
215,150,164571,2,0,P|247:158|274:156,1,60,2|0,0:0|0:0,0:0:0:0:
417,176,164993,2,0,P|385:184|359:182,1,60,2|0,0:0|0:0,0:0:0:0:
151,214,165416,6,0,P|124:216|92:208,1,60,2|0,0:0|0:0,0:0:0:0:
237,240,165838,2,0,P|264:243|296:235,1,60,2|0,0:0|0:0,0:0:0:0:
174,305,166261,2,0,P|147:307|115:299,1,60,2|0,0:0|0:0,0:0:0:0:
260,332,166683,2,0,P|286:334|318:326,1,60,2|0,0:0|0:0,0:0:0:0:
401,287,167106,6,0,B|438:279|454:294|492:285,1,90
392,100,167951,1,0,0:0:0:0:
355,182,168162,1,0,0:0:0:0:
272,147,168373,1,0,0:0:0:0:
189,184,168585,1,0,0:0:0:0:
100,184,168796,1,0,0:0:0:0:
75,83,169218,6,0,B|124:84|146:54|191:54,1,120
280,42,170275,1,0,0:0:0:0:
305,130,170486,6,0,P|279:133|246:126,1,60,2|0,0:0|0:0,0:0:0:0:
376,191,170909,2,0,P|356:206|323:217,1,60,2|0,0:0|0:0,0:0:0:0:
463,213,171331,2,0,P|453:236|430:262,1,60,2|0,0:0|0:0,0:0:0:0:
437,115,171754,2,0,P|462:118|495:111,1,60,2|0,0:0|0:0,0:0:0:0:
391,290,172176,6,0,P|358:283|333:287,1,60,2|0,0:0|0:0,0:0:0:0:
189,313,172599,2,0,P|222:320|248:317,1,60,2|0,0:0|0:0,0:0:0:0:
223,230,173021,1,0,0:0:0:0:
223,230,173092,2,0,B|239:191|210:149|225:110,1,120
261,29,174159,5,0,0:0:0:0:
171,36,174373,1,0,0:0:0:0:
93,81,174586,1,0,0:0:0:0:
43,155,174800,1,0,0:0:0:0:
21,242,175013,1,0,0:0:0:0:
25,331,175227,1,0,0:0:0:0:
101,283,175440,1,0,0:0:0:0:
186,254,175654,1,0,0:0:0:0:
416,80,177433,5,2,0:0:0:0:
360,150,177643,1,0,0:0:0:0:
274,120,177854,1,0,0:0:0:0:
96,304,178064,1,0,0:0:0:0:
152,234,178275,1,0,0:0:0:0:
238,264,178485,1,0,0:0:0:0:
318,222,178696,1,0,0:0:0:0:
407,216,178906,1,0,0:0:0:0:
493,191,179117,1,0,0:0:0:0:
424,126,180894,5,0,0:0:0:0:
296,221,181096,1,2,0:0:0:0:
330,138,181298,1,0,0:0:0:0:
366,56,181500,1,0,0:0:0:0:
213,184,181702,1,0,0:0:0:0:
141,237,181904,1,0,0:0:0:0:
70,292,182106,1,0,0:0:0:0:
1,233,182308,2,0,P|6:198|0:159,1,75
398,68,184328,5,2,0:0:0:0:
421,155,184537,1,0,0:0:0:0:
508,132,184749,1,0,0:0:0:0:
485,45,184959,1,0,0:0:0:0:
345,109,185170,5,0,0:0:0:0:
353,216,185380,1,0,0:0:0:0:
461,208,185591,1,0,0:0:0:0:
452,100,185801,1,0,0:0:0:0:
275,147,186012,5,2,0:0:0:0:
262,275,186222,1,0,0:0:0:0:
392,288,186433,1,2,0:0:0:0:
404,159,186643,1,0,0:0:0:0:
186,177,186854,5,2,0:0:0:0:
144,326,187064,1,0,0:0:0:0:
294,368,187275,1,2,0:0:0:0:
336,219,187485,1,0,0:0:0:0:
246,272,187696,5,0,0:0:0:0:
246,272,187749,1,0,0:0:0:0:
246,272,187801,1,0,0:0:0:0:
82,225,188231,2,0,P|53:228|17:224,1,60
186,178,189094,2,0,P|215:181|251:177,1,60
245,178,189585,1,0,0:0:0:0:
245,178,189644,1,0,0:0:0:0:
249,194,191415,5,2,0:0:0:0:
177,66,191626,1,0,0:0:0:0:
150,166,191837,1,2,0:0:0:0:
278,96,192048,1,0,0:0:0:0:
420,65,192259,5,2,0:0:0:0:
323,173,192470,1,0,0:0:0:0:
338,29,192680,1,2,0:0:0:0:
411,155,192891,1,0,0:0:0:0:
393,299,193102,5,2,0:0:0:0:
473,235,193313,1,0,0:0:0:0:
328,221,193524,1,2,0:0:0:0:
184,221,193735,1,0,0:0:0:0:
39,235,193945,6,0,P|66:219|82:196,1,60,0|0,0:0|0:0,0:0:0:0:
0,152,194578,1,0,0:0:0:0:
132,114,194789,2,0,P|122:109|75:102,1,60
213,156,195421,5,0,0:0:0:0:
225,163,195491,1,0,0:0:0:0:
238,171,195562,1,0,0:0:0:0:
251,178,195632,1,0,0:0:0:0:
385,234,195843,2,0,P|338:227|328:222,1,60
460,184,196264,1,0,0:0:0:0:
377,139,196475,2,0,P|393:116|420:100,1,60,0|0,0:0|0:0,0:0:0:0:
310,89,196897,6,0,P|275:97|239:89,1,60
115,42,197319,2,0,P|150:50|174:47,1,60
58,112,197740,2,0,P|23:120|0:116,1,60
31,207,198162,5,2,0:0:0:0:
150,127,198377,1,0,0:0:0:0:
64,310,198593,5,2,0:0:0:0:
131,184,198809,1,0,0:0:0:0:
287,200,199025,5,2,0:0:0:0:
168,280,199241,1,0,0:0:0:0:
253,96,199456,5,2,0:0:0:0:
186,222,199672,1,0,0:0:0:0:
379,166,199888,5,2,0:0:0:0:
312,292,200104,1,0,0:0:0:0:
413,270,200320,5,2,0:0:0:0:
294,350,200536,1,0,0:0:0:0:
354,74,200751,5,2,0:0:0:0:
287,200,200967,1,0,0:0:0:0:
372,16,201183,5,2,0:0:0:0:
253,96,201399,1,0,0:0:0:0:
119,40,201615,5,0,0:0:0:0:
0,120,201831,1,0,0:0:0:0:
16,134,201938,1,0,0:0:0:0:
32,148,202046,1,0,0:0:0:0:
59,234,202262,1,0,0:0:0:0:
75,248,202370,1,0,0:0:0:0:
91,262,202478,1,0,0:0:0:0:
178,154,202694,5,0,0:0:0:0:
287,234,202910,1,0,0:0:0:0:
309,234,203018,1,0,0:0:0:0:
331,234,203126,1,0,0:0:0:0:
353,234,203233,1,0,0:0:0:0:
375,234,203341,1,0,0:0:0:0:
416,70,203775,5,0,0:0:0:0:
416,70,204210,2,0,P|386:95|334:101,1,90
120,154,205080,1,2,0:0:0:0:
238,174,205524,1,0,0:0:0:0:
238,174,205746,1,0,0:0:0:0:
238,174,205968,1,0,0:0:0:0:
329,253,206413,1,0,0:0:0:0:
360,369,206857,1,0,0:0:0:0:
42,121,208413,6,0,P|68:118|80:113,1,30
155,83,209063,1,2,0:0:0:0:
175,73,209170,1,0,0:0:0:0:
196,67,209278,1,0,0:0:0:0:
219,65,209385,1,0,0:0:0:0:
241,68,209492,1,0,0:0:0:0:
374,133,209921,2,0,P|356:133|318:117,1,60
321,205,210564,1,0,0:0:0:0:
236,258,210778,1,0,0:0:0:0:
126,274,210992,1,0,0:0:0:0:
19,256,211207,5,0,0:0:0:0:
19,256,212064,5,6,0:0:0:0:
92,93,212498,1,0,0:0:0:0:
122,234,212933,5,0,0:0:0:0:
195,71,213368,1,0,0:0:0:0:
229,205,213803,5,6,0:0:0:0:
302,42,214237,1,0,0:0:0:0:
336,171,214672,6,0,B|384:165|419:183|461:171,1,120
176,171,215542,2,0,B|128:165|93:183|51:171,1,120,6|0,0:0|0:0,0:0:0:0:
256,96,216411,1,0,0:0:0:0:
256,108,216846,1,0,0:0:0:0:
328,168,217281,1,0,0:0:0:0:
184,168,217506,1,0,0:0:0:0:
328,248,217732,1,0,0:0:0:0:
184,248,217957,1,0,0:0:0:0:
256,284,218183,2,0,B|252:268|260:244|256:224,1,60
256,212,219085,5,0,0:0:0:0:
256,200,219518,1,0,0:0:0:0:
256,187,219951,1,0,0:0:0:0:
84,128,220384,2,0,P|120:136|144:132,1,60
120,52,220817,2,0,P|56:48|14:80,1,120,2|0,0:0|0:0,0:0:0:0:
6,164,221467,1,0,0:0:0:0:
73,213,221684,2,0,P|135:199|166:156,1,120
458,84,222550,6,0,P|440:80|399:85,1,60,2|0,0:0|0:0,0:0:0:0:
448,218,222983,2,0,P|446:199|428:162,1,60
315,251,223417,2,0,P|331:243|362:215,1,60
243,136,223850,2,0,P|255:149|291:169,1,60
328,33,224283,2,0,P|318:48|310:89,1,60,6|4,0:0|0:0,0:0:0:0:
315,251,225171,2,0,P|324:235|332:194,1,60,4|0,0:0|0:0,0:0:0:0:
248,199,225838,2,0,P|213:206|190:205,1,45,0|2,0:0|0:0,0:0:0:0:
120,198,226389,5,0,0:0:0:0:
8,151,226607,1,0,0:0:0:0:
85,117,226826,1,0,0:0:0:0:
42,229,227044,2,0,P|81:276|136:282,1,120
295,174,227699,1,0,0:0:0:0:
295,174,227917,2,0,P|240:181|201:228,1,120,2|0,0:0|0:0,0:0:0:0:
279,257,228572,1,0,0:0:0:0:
359,234,228791,2,0,P|386:164|324:90,1,180
241,110,229664,6,0,P|210:124|184:124,1,60,2|0,0:0|0:0,0:0:0:0:
101,107,230101,1,0,0:0:0:0:
41,166,230319,1,0,0:0:0:0:
18,246,230537,1,0,0:0:0:0:
34,328,230756,1,0,0:0:0:0:
110,293,230974,1,0,0:0:0:0:
193,287,231192,1,0,0:0:0:0:
273,310,231411,2,0,L|310:324,1,40,2|0,0:0|0:0,0:0:0:0:
416,257,231702,2,0,L|379:271,1,40,2|0,0:0|0:0,0:0:0:0:
474,188,231993,2,0,L|511:202,1,40,2|0,0:0|0:0,0:0:0:0:
384,172,232284,2,0,P|359:173|326:162,1,60
140,144,233157,5,2,0:0:0:0:
154,149,233268,1,0,0:0:0:0:
169,151,233379,1,0,0:0:0:0:
184,152,233490,1,0,0:0:0:0:
199,150,233601,1,0,0:0:0:0:
213,146,233712,1,0,0:0:0:0:
227,140,233823,1,0,0:0:0:0:
239,131,233934,1,0,0:0:0:0:
251,122,234045,2,0,P|302:93|372:104,1,120,2|0,0:0|0:0,0:0:0:0:
381,180,234712,5,0,0:0:0:0:
350,209,234823,1,0,0:0:0:0:
309,220,234934,2,0,P|243:240|217:300,1,120
94,308,235823,5,0,0:0:0:0:
94,308,236268,1,0,0:0:0:0:
37,202,236712,1,6,0:0:0:0:
37,202,237157,1,0,0:0:0:0:
74,87,237601,1,0,0:0:0:0:
74,87,238045,1,6,0:0:0:0:
182,128,238490,5,2,0:0:0:0:
211,134,238605,1,0,0:0:0:0:
240,131,238720,1,0,0:0:0:0:
267,118,238836,1,0,0:0:0:0:
289,98,238951,2,0,L|306:72,1,20
312,110,239105,2,0,L|335:89,1,20
332,127,239259,2,0,L|359:113,1,20
346,149,239413,6,0,P|384:151|412:157,1,60
401,239,239855,2,0,P|363:237|335:231,1,60
165,149,240298,2,0,P|128:151|100:157,1,60,2|0,0:0|0:0,0:0:0:0:
111,239,240741,2,0,P|148:237|176:231,1,60
255,101,241184,6,0,B|244:140|268:176|256:220,1,120
256,232,242069,5,6,0:0:0:0:
256,244,242955,5,6,0:0:0:0:
256,256,243841,5,0,0:0:0:0:
248,262,243930,1,0,0:0:0:0:
239,267,244019,1,0,0:0:0:0:
231,272,244108,1,0,0:0:0:0:
221,276,244198,1,0,0:0:0:0:
212,278,244287,1,0,0:0:0:0:
202,280,244376,1,0,0:0:0:0:
192,280,244466,1,0,0:0:0:0:
182,280,244555,1,0,0:0:0:0:
172,278,244644,1,0,0:0:0:0:
162,276,244733,1,0,0:0:0:0:
153,272,244823,1,0,0:0:0:0:
144,267,244912,1,0,0:0:0:0:
136,262,245001,1,0,0:0:0:0:
128,255,245091,1,0,0:0:0:0:
121,248,245180,1,0,0:0:0:0:
115,240,245269,1,0,0:0:0:0:
110,232,245358,1,0,0:0:0:0:
105,223,245448,1,0,0:0:0:0:
102,214,245537,1,0,0:0:0:0:
100,204,245626,5,0,0:0:0:0:
98,194,245716,1,0,0:0:0:0:
98,184,245805,1,0,0:0:0:0:
99,174,245894,1,0,0:0:0:0:
101,164,245983,1,0,0:0:0:0:
103,155,246073,1,0,0:0:0:0:
107,145,246162,1,0,0:0:0:0:
112,137,246251,1,0,0:0:0:0:
118,129,246341,1,0,0:0:0:0:
125,121,246430,1,0,0:0:0:0:
134,116,246519,2,0,P|164:140|248:132,1,120
200,57,247635,5,0,0:0:0:0:
208,52,247720,1,0,0:0:0:0:
218,49,247805,1,0,0:0:0:0:
228,46,247890,1,0,0:0:0:0:
238,46,247975,1,0,0:0:0:0:
248,46,248061,1,0,0:0:0:0:
257,48,248146,1,0,0:0:0:0:
267,51,248231,1,0,0:0:0:0:
276,55,248316,1,0,0:0:0:0:
284,60,248402,1,0,0:0:0:0:
292,66,248487,1,0,0:0:0:0:
299,74,248572,1,0,0:0:0:0:
326,154,248742,6,0,L|279:154,1,45,0|4,0:0|0:0,0:0:0:0:
396,209,249169,1,2,0:0:0:0:
396,209,249254,2,0,L|442:209,1,45,4|0,0:0|0:0,0:0:0:0:
319,240,249678,2,0,L|271:240,1,45,0|0,0:0|0:0,0:0:0:0:
387,294,250103,2,0,L|433:294,1,45,4|0,0:0|0:0,0:0:0:0:
311,321,250528,2,0,L|263:321,1,45,0|0,0:0|0:0,0:0:0:0:
256,318,250868,1,4,0:0:0:0:
246,317,250953,5,0,0:0:0:0:
236,317,251039,1,0,0:0:0:0:
226,318,251124,1,0,0:0:0:0:
216,321,251209,1,0,0:0:0:0:
206,324,251293,1,0,0:0:0:0:
197,327,251378,1,0,0:0:0:0:
188,330,251463,1,0,0:0:0:0:
178,333,251548,1,0,0:0:0:0:
168,336,251633,1,0,0:0:0:0:
159,338,251718,1,0,0:0:0:0:
149,339,251803,1,0,0:0:0:0:
139,339,251888,1,0,0:0:0:0:
129,335,251973,1,0,0:0:0:0:
119,333,252058,1,0,0:0:0:0:
109,330,252143,1,0,0:0:0:0:
100,325,252228,1,0,0:0:0:0:
92,320,252313,1,0,0:0:0:0:
84,314,252398,1,0,0:0:0:0:
78,306,252483,1,0,0:0:0:0:
72,297,252568,1,0,0:0:0:0:
65,288,252653,6,0,P|60:278|57:259,1,30
156,228,252908,2,0,P|149:237|134:249,1,30
59,181,253163,2,0,P|70:181|88:188,1,30
14,79,253503,6,0,P|65:109|102:104,1,90
188,35,254183,2,0,P|174:40|162:50,1,30
216,109,254523,5,0,0:0:0:0:
221,117,254608,1,0,0:0:0:0:
228,124,254693,1,0,0:0:0:0:
236,130,254778,1,0,0:0:0:0:
244,135,254863,1,0,0:0:0:0:
254,139,254948,1,0,0:0:0:0:
263,141,255033,1,0,0:0:0:0:
273,142,255118,1,0,0:0:0:0:
283,141,255203,1,0,0:0:0:0:
298,138,255287,6,0,L|330:138,1,30.0000011444092
314,211,255542,1,0,0:0:0:0:
301,284,255627,2,0,L|337:284,1,30.0000011444092
393,236,255882,2,0,B|420:231|440:251|467:245,2,75
399,88,257157,2,0,P|347:117|288:113,1,120
211,80,258091,5,0,0:0:0:0:
201,75,258177,1,0,0:0:0:0:
192,72,258262,1,0,0:0:0:0:
182,71,258347,1,0,0:0:0:0:
172,70,258432,1,0,0:0:0:0:
162,71,258517,1,0,0:0:0:0:
152,73,258602,1,0,0:0:0:0:
143,77,258687,1,0,0:0:0:0:
134,81,258772,1,0,0:0:0:0:
126,87,258857,1,0,0:0:0:0:
119,94,258942,1,0,0:0:0:0:
114,101,259027,6,0,L|102:128,1,30.0000011444092
176,157,259282,1,0,0:0:0:0:
115,206,259367,2,0,L|89:227,1,30.0000011444092
82,304,259622,1,0,0:0:0:0:
155,274,259707,2,0,L|194:258,1,30
257,304,259962,2,0,P|305:295|349:306,1,90
491,245,260812,2,0,P|447:254|403:244,1,90
331,205,261746,5,0,0:0:0:0:
322,201,261831,1,0,0:0:0:0:
313,198,261916,1,0,0:0:0:0:
303,195,262001,1,0,0:0:0:0:
294,192,262086,1,0,0:0:0:0:
283,191,262171,1,0,0:0:0:0:
273,189,262256,1,0,0:0:0:0:
263,188,262341,1,0,0:0:0:0:
253,189,262426,1,0,0:0:0:0:
243,190,262511,1,0,0:0:0:0:
234,193,262596,1,0,0:0:0:0:
224,195,262681,1,0,0:0:0:0:
215,198,262766,1,0,0:0:0:0:
206,203,262851,1,0,0:0:0:0:
196,208,262936,1,0,0:0:0:0:
186,212,263021,2,0,P|162:223|128:224,1,60
63,86,263531,5,6,0:0:0:0:
63,86,263997,1,4,0:0:0:0:
45,204,264463,5,4,0:0:0:0:
45,204,264929,1,4,0:0:0:0:
125,293,265396,5,0,0:0:0:0:
130,285,265474,1,0,0:0:0:0:
136,276,265551,1,0,0:0:0:0:
142,269,265629,1,0,0:0:0:0:
149,262,265707,1,0,0:0:0:0:
157,255,265784,1,0,0:0:0:0:
165,250,265862,1,0,0:0:0:0:
174,246,265940,1,0,0:0:0:0:
184,242,266018,1,0,0:0:0:0:
194,240,266095,1,0,0:0:0:0:
203,239,266173,1,0,0:0:0:0:
213,239,266251,1,0,0:0:0:0:
223,240,266328,1,0,0:0:0:0:
233,242,266406,1,0,0:0:0:0:
243,245,266484,1,0,0:0:0:0:
252,249,266562,1,0,0:0:0:0:
260,255,266639,1,0,0:0:0:0:
268,261,266717,1,0,0:0:0:0:
277,266,266795,2,0,P|311:285|364:278,1,90
370,277,267339,1,0,0:0:0:0:
378,272,267417,1,0,0:0:0:0:
91,65,268815,5,0,0:0:0:0:
91,65,269731,5,0,0:0:0:0:
94,71,269788,1,0,0:0:0:0:
97,77,269845,1,0,0:0:0:0:
101,83,269902,1,0,0:0:0:0:
104,89,269960,1,2,0:0:0:0:
152,173,270189,2,0,P|168:173|184:177,1,30
207,191,270418,2,0,P|243:206|264:204,2,60
376,104,271219,1,2,0:0:0:0:
450,197,271564,1,0,0:0:0:0:
454,203,271620,1,0,0:0:0:0:
458,209,271676,1,0,0:0:0:0:
462,215,271734,1,0,0:0:0:0:
466,221,271792,1,0,0:0:0:0:
314,318,272708,2,0,P|282:334|185:333,1,135,0|2,0:0|0:0,0:0:0:0:
125,292,273961,1,0,0:0:0:0:
86,230,274185,1,0,0:0:0:0:
84,158,274409,1,0,0:0:0:0:
121,96,274633,2,0,P|172:116|192:114,2,75
121,96,276648,5,0,0:0:0:0:
121,96,277432,5,0,0:0:0:0:
124,102,277488,1,0,0:0:0:0:
127,108,277543,1,0,0:0:0:0:
131,114,277599,1,0,0:0:0:0:
134,120,277655,1,2,0:0:0:0:
170,202,277976,2,0,B|214:197|242:216|289:201,1,120
267,172,278512,2,0,B|311:167|339:186|386:171,1,120
338,302,279262,1,0,0:0:0:0:
332,307,279315,1,0,0:0:0:0:
326,312,279369,1,0,0:0:0:0:
320,315,279422,1,0,0:0:0:0:
314,318,279476,2,0,P|282:334|191:336,2,127.5,2|0|2,0:0|0:0|0:0,0:0:0:0:
370,273,281512,1,0,0:0:0:0:
402,203,281726,2,0,P|384:200|348:176,1,60
329,155,282262,2,0,P|298:165|255:162,2,75
176,104,285090,5,0,0:0:0:0:
176,104,285149,1,0,0:0:0:0:
176,104,285208,1,0,0:0:0:0:
176,104,285266,1,2,0:0:0:0:
176,104,285325,1,0,0:0:0:0:
336,280,287434,1,0,0:0:0:0:
336,280,287493,1,0,0:0:0:0:
336,280,287551,1,2,0:0:0:0:
336,280,287610,1,0,0:0:0:0:
336,280,287668,1,0,0:0:0:0:
380,190,290833,2,0,B|330:246|215:245|228:104|157:152,1,255,0|0,0:0|0:0,0:0:0:0:
