osu file format v12

[General]
AudioFilename: Terry Lin - The Fireworks Of Transience.mp3
AudioLeadIn: 0
PreviewTime: 95387
Countdown: 0
SampleSet: Soft
StackLeniency: 0.7
Mode: 0
LetterboxInBreaks: 0
WidescreenStoryboard: 0

[Editor]
DistanceSpacing: 1.2
BeatDivisor: 8
GridSize: 4
TimelineZoom: 2.5

[Metadata]
Title:The Fireworks of Transience
TitleUnicode:烟花易冷
Artist:Terry Lin
ArtistUnicode:林志炫
Creator:cmn_891127
Version:Fireworks
Source:I am a Singer
Tags:Jay Chou Vincent Fang Yanhua Yileng
BeatmapID:268432
BeatmapSetID:101125

[Difficulty]
HPDrainRate:6
CircleSize:3
OverallDifficulty:4
ApproachRate:7
SliderMultiplier:0.8
SliderTickRate:2

[Events]
//Background and Video events
0,0,"BG.jpg",0,0
//Break Periods
//Storyboard Layer 0 (Background)
//Storyboard Layer 1 (Fail)
//Storyboard Layer 2 (Pass)
//Storyboard Layer 3 (Foreground)
//Storyboard Sound Samples
//Background Colour Transformations
3,100,163,162,255

[TimingPoints]
13643,413.793103448276,4,2,1,30,1,0
15298,437.956204379562,4,2,1,30,1,0
17104,437.956204379562,4,2,1,30,1,8
18855,465.116279069767,4,2,1,30,1,0
20715,434.782608695652,4,2,1,30,1,0
22345,461.538461538462,4,2,1,30,1,0
24191,452.147701582517,4,2,1,30,1,0
27808,431.654676258993,4,2,1,30,1,0
31261,434.782608695652,4,2,1,30,1,0
33000,476.190476190476,4,2,1,30,1,0
34904,441.176470588235,4,2,1,30,1,0
38543,461.538461538462,4,2,1,30,1,0
42581,437.956204379562,4,2,1,30,1,0
46084,428.571428571429,4,2,1,30,1,0
47798,451.127819548872,4,2,1,30,1,0
49602,414.9377593361,4,2,1,30,1,0
53440,458.015267175573,4,2,1,30,1,0
56646,419.58041958042,4,2,1,30,1,0
60156,449.438202247191,4,2,1,30,1,8
63751,432.276657060519,4,2,1,30,1,0
64507,-100,4,2,1,32,0,0
65372,-100,4,2,1,34,0,0
66236,-100,4,2,1,36,0,0
67209,-100,4,2,1,38,0,0
68938,-100,4,2,1,40,0,0
70667,428.571428571429,4,2,1,30,1,1
70701,-100,4,2,1,30,0,0
77631,440.528634361234,4,2,1,30,1,0
89965,480,4,2,1,30,1,0
91885,444.444444444444,4,2,1,30,1,0
95440,439.882697947214,4,2,1,30,1,0
100718,434.782608695652,4,2,1,30,1,0
106080,428.571428571429,4,2,1,30,1,0
109615,436.681222707424,4,2,1,30,1,0
113108,444.444444444444,4,2,1,30,1,0
116663,454.545454545455,4,2,1,30,1,0
119541,444.444444444444,4,2,1,30,1,0
124133,445.765230312036,4,2,1,30,1,0
131488,431.654676258993,4,2,1,30,1,0
135013,446.096654275093,4,2,1,30,1,0
145830,446.096654275093,4,2,1,30,1,0
149510,441.176470588235,4,2,1,30,1,0
152157,448.765893792072,4,2,1,30,1,0
154961,448.765893792072,4,2,1,30,1,0
156756,442.80442804428,4,2,1,30,1,0
160298,428.571428571429,4,2,1,30,1,0
163726,422.535211267606,4,2,1,30,1,0
173092,427.046263345196,4,2,1,30,1,0
177433,421.052631578947,4,2,1,30,1,0
179117,444.444444444444,4,2,1,30,1,0
180894,404.040404040404,4,2,1,30,1,0
184328,421.052631578947,4,2,1,30,1,0
187800,431.654676258993,4,2,1,30,1,0
189526,472.44094488189,4,2,1,30,1,0
191416,421.644413211525,4,2,1,30,1,0
198162,431.654676258993,4,2,1,30,1,0
203341,434.782608695652,4,2,1,30,1,0
205080,444.444444444444,4,2,1,30,1,0
208635,428.724544480172,4,2,1,30,1,0
212064,434.782608695652,4,2,1,30,1,0
217281,451.127819548872,4,2,1,30,1,0
219085,433.212996389892,4,2,1,30,1,0
224283,444.444444444444,4,2,1,30,1,0
226171,436.681222707424,4,2,1,30,1,0
233157,444.444444444444,4,2,1,30,1,0
238490,461.538461538462,4,2,1,30,1,0
239413,442.80442804428,4,2,1,30,1,0
243841,357.142857142857,4,2,1,30,1,0
247635,340.909090909091,4,2,1,30,1,1
249254,339.943342776204,4,2,1,30,1,1
263531,310.880829015544,4,2,1,30,1,1
268815,458.015267175573,4,2,1,30,1,0
269960,458.015267175573,4,2,1,30,1,0
273738,447.761194029851,4,2,1,30,1,0
277655,428.571428571429,4,2,1,30,1,0
283333,468.75,4,2,1,30,1,0

[Colours]
Combo1 : 150,150,150
Combo2 : 220,220,220
SliderBorder : 50,50,50

[HitObjects]
171,145,13643,6,0,P|242:159|308:110,1,160,2|0,0:0|0:0,0:0:0:0:
401,240,15298,2,0,P|330:255|264:206,1,160,2|0,0:0|0:0,0:0:0:0:
423,152,17104,6,0,P|388:151|347:166,1,80,0|0,0:0|0:0,0:0:0:0:
264,214,17979,2,0,P|199:239|118:187,1,160,0|0,0:0|0:0,0:0:0:0:
233,88,20715,6,0,P|321:76|393:88,1,160,0|0,0:0|0:0,0:0:0:0:
232,183,22345,2,0,P|320:195|392:183,1,160,2|0,0:0|0:0,0:0:0:0:
185,267,24191,6,0,P|142:272|105:267,2,80,2|0|0,0:0|0:0|0:0,0:0:0:0:
256,328,25547,2,0,P|298:333|335:328,1,80,0|0,0:0|0:0,0:0:0:0:
413,90,27808,6,0,P|369:90|335:102,1,80,2|0,0:0|0:0,0:0:0:0:
258,159,28671,2,0,P|221:162|177:146,1,80,0|0,0:0|0:0,0:0:0:0:
98,98,29534,1,0,0:0:0:0:
99,294,31261,6,0,P|143:294|176:281,1,80,2|0,0:0|0:0,0:0:0:0:
254,225,32130,2,0,P|291:222|335:238,1,80,0|0,0:0|0:0,0:0:0:0:
414,286,33000,1,0,0:0:0:0:
340,96,34904,6,0,P|290:126|176:110,1,170,2|0,0:0|0:0,0:0:0:0:
122,176,36227,1,0,0:0:0:0:
100,269,36668,2,0,P|145:269|178:256,1,80,2|0,0:0|0:0,0:0:0:0:
263,215,37551,2,0,P|296:202|341:202,1,80,0|0,0:0|0:0,0:0:0:0:
318,89,38543,2,0,P|276:120|160:115,1,170,2|0,0:0|0:0,0:0:0:0:
126,208,39985,2,0,P|182:205|235:224,1,110,0|0,0:0|0:0,0:0:0:0:
118,89,42581,5,0,0:0:0:0:
118,89,43018,2,0,L|156:106,1,40,2|0,0:0|0:0,0:0:0:0:
200,91,43456,2,0,P|237:78|279:80,1,80,2|2,0:0|0:0,0:0:0:0:
323,91,44113,2,0,L|366:91,1,40,0|2,0:0|0:0,0:0:0:0:
433,156,44770,2,0,L|503:156,1,70,0|0,0:0|0:0,0:0:0:0:
347,192,45865,6,0,L|307:192,1,40,0|2,0:0|0:0,0:0:0:0:
284,285,46512,2,0,L|243:268,1,40,2|0,0:0|0:0,0:0:0:0:
198,267,46941,2,0,P|156:268|117:252,1,80,2|2,0:0|0:0,0:0:0:0:
123,206,47584,2,0,L|85:219,1,40,0|0,0:0|0:0,0:0:0:0:
472,74,49602,6,0,P|439:85|390:83,1,80,2|2,0:0|0:0,0:0:0:0:
363,121,50224,2,0,L|401:132,1,40,0|2,0:0|0:0,0:0:0:0:
370,168,50639,2,0,L|324:180,2,40,0|2|0,0:0|0:0|0:0,0:0:0:0:
362,215,51261,2,0,P|330:229|285:227,1,80,2|2,0:0|0:0,0:0:0:0:
238,216,51884,1,0,0:0:0:0:
196,191,52091,2,0,P|164:177|119:179,1,80,2|2,0:0|0:0,0:0:0:0:
146,271,52921,6,0,B|183:300|253:293|254:254|331:264,1,190,0|0,0:0|0:0,0:0:0:0:
300,169,54356,2,0,P|344:169|385:182,1,80,0|0,0:0|0:0,0:0:0:0:
263,80,56646,5,0,0:0:0:0:
263,80,56855,2,0,P|222:103|183:106,1,80,0|0,0:0|0:0,0:0:0:0:
175,152,57485,2,0,P|127:151|92:134,2,80,2|0|0,0:0|0:0|0:0,0:0:0:0:
236,231,60156,5,0,0:0:0:0:
370,181,60830,2,0,L|365:191,4,10,0|0|0|0|2,0:0|0:0|0:0|0:0|0:0,0:0:0:0:
304,110,61504,2,0,P|267:133|231:140,1,80,0|0,0:0|0:0,0:0:0:0:
236,42,63751,5,6,0:0:0:0:
236,42,64183,1,0,0:0:0:0:
155,94,64615,1,0,0:0:0:0:
155,94,65047,1,0,0:0:0:0:
111,179,65480,1,6,0:0:0:0:
111,179,65912,1,0,0:0:0:0:
107,275,66344,2,0,P|168:254|225:264,1,120,0|0,0:0|0:0,0:0:0:0:
263,286,67209,6,0,P|305:299|340:295,1,80,6|0,0:0|0:0,0:0:0:0:
415,236,68073,2,0,P|428:194|424:158,1,80,0|0,0:0|0:0,0:0:0:0:
343,106,68938,2,0,P|313:138|280:153,1,80,6|0,0:0|0:0,0:0:0:0:
189,182,69802,2,0,P|153:185|111:172,1,80,0|0,0:0|0:0,0:0:0:0:
26,130,70667,6,0,P|70:84|161:90,1,160,2|0,0:0|0:0,0:0:0:0:
248,131,71952,2,0,L|288:150,1,40,0|0,0:0|0:0,0:0:0:0:
320,115,72381,2,0,P|362:101|397:102,1,80,0|0,0:0|0:0,0:0:0:0:
452,181,73238,2,0,P|410:195|374:193,1,80,0|0,0:0|0:0,0:0:0:0:
284,226,74095,1,2,0:0:0:0:
191,204,74524,1,0,0:0:0:0:
182,109,74952,1,0,0:0:0:0:
271,71,75381,1,0,0:0:0:0:
334,144,75809,2,0,B|310:139|282:154|252:151,1,80,0|0,0:0|0:0,0:0:0:0:
167,191,76667,6,0,B|108:202|63:168|63:168|74:199,1,140,0|0,0:0|0:0,0:0:0:0:
87,242,77631,2,0,P|94:280|77:318,1,80,2|0,0:0|0:0,0:0:0:0:
49,355,78291,2,0,L|93:346,1,40,0|0,0:0|0:0,0:0:0:0:
176,384,78952,2,0,L|208:357,1,40,0|0,0:0|0:0,0:0:0:0:
199,310,79393,2,0,P|247:323|285:318,1,80,0|0,0:0|0:0,0:0:0:0:
248,228,80274,2,0,P|314:232|355:265,1,120,0|0,0:0|0:0,0:0:0:0:
386,300,81155,6,0,L|429:304,1,40,2|0,0:0|0:0,0:0:0:0:
386,300,81595,2,0,P|427:320|466:322,1,80,0|0,0:0|0:0,0:0:0:0:
487,230,82476,2,0,P|446:210|407:208,1,80,0|0,0:0|0:0,0:0:0:0:
137,94,84679,5,2,0:0:0:0:
180,74,84899,1,0,0:0:0:0:
217,103,85119,1,0,0:0:0:0:
264,98,85340,1,0,0:0:0:0:
311,93,85560,1,0,0:0:0:0:
294,187,86001,2,0,P|337:186|371:172,1,80,0|0,0:0|0:0,0:0:0:0:
414,152,86661,2,0,P|440:143|452:140,1,40,0|0,0:0|0:0,0:0:0:0:
503,222,87322,5,0,0:0:0:0:
503,222,87763,2,0,P|477:231|464:233,1,40,0|0,0:0|0:0,0:0:0:0:
429,266,88203,2,0,P|403:257|390:254,1,40,2|0,0:0|0:0,0:0:0:0:
343,247,88644,2,0,P|315:245|303:245,1,40,0|0,0:0|0:0,0:0:0:0:
255,248,89084,2,0,P|178:238|166:229,2,80,0|0|0,0:0|0:0|0:0,0:0:0:0:
299,122,91885,5,2,0:0:0:0:
351,201,92329,2,0,P|285:216|264:210,2,80,0|0|0,0:0|0:0|0:0,0:0:0:0:
394,180,93440,2,0,L|420:162,2,20,0|0|0,0:0|0:0|0:0,0:0:0:0:
222,93,94551,2,0,P|228:142|155:217,1,160,0|2,0:0|0:0,0:0:0:0:
131,124,95879,5,0,0:0:0:0:
222,93,96319,1,0,0:0:0:0:
317,99,96759,1,0,0:0:0:0:
402,143,97199,1,2,0:0:0:0:
450,225,97639,1,0,0:0:0:0:
452,320,98079,2,0,P|396:302|358:308,1,80,0|0,0:0|0:0,0:0:0:0:
280,320,98959,6,0,P|237:329|168:300,1,120,2|0,0:0|0:0,0:0:0:0:
168,300,99838,1,2,0:0:0:0:
237,233,100278,2,0,L|277:226,1,40,0|0,0:0|0:0,0:0:0:0:
249,186,100718,2,0,P|293:189|332:174,1,80,2|0,0:0|0:0,0:0:0:0:
274,96,101587,2,0,P|240:84|196:87,1,80,0|0,0:0|0:0,0:0:0:0:
124,150,102457,5,2,0:0:0:0:
154,240,102891,1,0,0:0:0:0:
249,239,103326,1,0,0:0:0:0:
279,149,103761,1,0,0:0:0:0:
201,93,104196,2,0,B|208:116|195:145|201:175,1,80,0|0,0:0|0:0,0:0:0:0:
129,237,105065,6,0,B|192:218|243:255|243:255|268:246,1,146.666666666667,0|0,0:0|0:0,0:0:0:0:
307,217,106080,2,0,P|349:200|384:201,1,80,2|0,0:0|0:0,0:0:0:0:
478,212,106937,1,0,0:0:0:0:
478,212,107365,2,0,L|441:168,1,40,0|0,0:0|0:0,0:0:0:0:
453,134,107794,2,0,P|403:151|376:150,1,80,2|0,0:0|0:0,0:0:0:0:
288,112,108651,2,0,P|322:141|325:217,1,120,0|0,0:0|0:0,0:0:0:0:
302,249,109615,2,0,P|281:278|274:324,1,80,2|0,0:0|0:0,0:0:0:0:
377,316,110488,6,0,L|425:316,1,40,0|0,0:0|0:0,0:0:0:0:
396,272,110925,2,0,L|442:259,1,40,0|0,0:0|0:0,0:0:0:0:
407,221,111361,2,0,L|448:197,1,40,0|0,0:0|0:0,0:0:0:0:
401,174,111798,2,0,L|434:140,1,40,0|0,0:0|0:0,0:0:0:0:
385,124,112235,2,0,P|330:145|301:141,1,80,0|0,0:0|0:0,0:0:0:0:
218,124,113108,6,0,L|177:114,1,40,2|0,0:0|0:0,0:0:0:0:
131,106,113552,2,0,L|89:110,1,40,0|0,0:0|0:0,0:0:0:0:
45,124,113996,2,0,L|7:142,1,40,0|0,0:0|0:0,0:0:0:0:
45,172,114441,2,0,P|17:199|1:251,1,80,0|2,0:0|0:0,0:0:0:0:
97,251,115330,1,0,0:0:0:0:
152,329,115774,2,0,P|180:302|196:250,1,80,0|0,0:0|0:0,0:0:0:0:
206,169,116663,5,2,0:0:0:0:
206,169,117117,1,0,0:0:0:0:
275,102,117572,1,0,0:0:0:0:
275,102,118026,1,0,0:0:0:0:
298,195,118481,2,0,B|357:181|381:247|488:226,1,186.666666666667,2|0,0:0|0:0,0:0:0:0:
472,132,119985,6,0,P|430:133|393:114,1,80,0|2,0:0|0:0,0:0:0:0:
309,76,120874,2,0,P|264:78|231:89,1,80,0|0,0:0|0:0,0:0:0:0:
142,127,121763,2,0,P|104:133|61:127,1,80,0|0,0:0|0:0,0:0:0:0:
256,192,123207,2,0,B|201:184|199:226|137:232|90:209,1,173.333333333333,0|0,0:0|0:0,0:0:0:0:
52,209,125916,6,0,P|132:183|214:203,1,160,0|0,0:0|0:0,0:0:0:0:
294,231,127253,2,0,P|334:238|377:230,1,80,0|0,0:0|0:0,0:0:0:0:
249,119,131488,6,0,P|199:77|106:95,2,160,2|0|0,0:0|0:0|0:0,0:0:0:0:
90,182,134077,2,0,P|119:185|166:167,1,80,0|0,0:0|0:0,0:0:0:0:
259,142,135013,2,0,P|194:172|175:256,1,160,0|0,0:0|0:0,0:0:0:0:
268,236,136351,2,0,B|305:228|321:248|348:237,1,80,0|2,0:0|0:0,0:0:0:0:
464,85,137689,6,0,P|425:102|374:101,1,80,0|0,0:0|0:0,0:0:0:0:
292,95,138581,2,0,P|305:160|401:198,1,160,2|0,0:0|0:0,0:0:0:0:
287,191,139920,2,0,P|264:180|209:174,1,80,0|0,0:0|0:0,0:0:0:0:
348,263,141258,2,0,P|375:231|384:193,1,80,0|0,0:0|0:0,0:0:0:0:
375,98,142150,2,0,B|308:113|281:69|209:78,2,160,0|0|2,0:0|0:0|0:0,0:0:0:0:
417,278,144827,2,0,P|387:255|319:247,1,100
400,178,145830,2,0,P|325:186|241:177,1,160,0|0,0:0|0:0,0:0:0:0:
146,163,147168,2,0,P|100:158|66:161,1,80,0|0,0:0|0:0,0:0:0:0:
256,246,148506,6,0,P|296:252|350:231,1,100,0|0,0:0|0:0,0:0:0:0:
304,147,149510,2,0,P|359:137|382:141,2,80,0|0|0,0:0|0:0|0:0,0:0:0:0:
215,184,150833,2,0,P|160:194|136:189,1,80,0|2,0:0|0:0,0:0:0:0:
329,114,152231,6,0,P|369:158|387:165,1,80,0|0,0:0|0:0,0:0:0:0:
415,73,153054,2,0,P|478:135|463:212,2,160,0|0|0,0:0|0:0|0:0,0:0:0:0:
211,201,155859,2,0,P|166:196|135:181,1,80,0|0,0:0|0:0,0:0:0:0:
140,277,156756,2,0,P|219:255|306:276,2,160,0|0|2,0:0|0:0|0:0,0:0:0:0:
217,113,159412,2,0,P|293:129|372:107,1,160,0|0,0:0|0:0,0:0:0:0:
394,126,163726,5,2,0:0:0:0:
303,156,164148,2,0,L|261:191,1,40,2|0,0:0|0:0,0:0:0:0:
236,149,164571,2,0,L|196:157,1,40,2|0,0:0|0:0,0:0:0:0:
169,117,164993,2,0,P|102:109|83:113,1,80,2|2,0:0|0:0,0:0:0:0:
24,181,165838,2,0,L|64:193,1,40,2|0,0:0|0:0,0:0:0:0:
47,238,166261,2,0,L|103:235,1,40,2|0,0:0|0:0,0:0:0:0:
90,283,166683,2,0,L|135:273,1,40,2|0,0:0|0:0,0:0:0:0:
136,321,167106,2,0,P|188:303|231:306,1,80,0|0,0:0|0:0,0:0:0:0:
259,311,167740,1,0,0:0:0:0:
325,241,168162,5,0,0:0:0:0:
369,222,168373,1,0,0:0:0:0:
411,244,168585,1,0,0:0:0:0:
431,200,168796,1,0,0:0:0:0:
469,112,169218,1,0,0:0:0:0:
373,125,169641,2,0,L|324:131,1,40,0|0,0:0|0:0,0:0:0:0:
285,125,170064,2,0,L|247:112,2,40,0|0|2,0:0|0:0|0:0,0:0:0:0:
256,216,170909,6,0,L|218:203,1,40,2|0,0:0|0:0,0:0:0:0:
170,198,171331,2,0,L|114:203,1,40,0|0,0:0|0:0,0:0:0:0:
85,219,171754,2,0,L|40:246,1,40,0|0,0:0|0:0,0:0:0:0:
77,279,172176,2,0,P|48:268|0:268,2,80
89,288,173092,2,0,P|150:331|232:323,1,160,0|0,0:0|0:0,0:0:0:0:
274,301,174159,1,0,0:0:0:0:
304,264,174373,1,0,0:0:0:0:
323,219,174586,1,0,0:0:0:0:
321,172,174800,2,0,P|270:187|236:184,1,80,0|0,0:0|0:0,0:0:0:0:
198,169,175440,2,0,L|152:169,1,40
423,115,177433,5,2,0:0:0:0:
377,131,177643,2,0,P|343:139|297:127,1,80,0|0,0:0|0:0,0:0:0:0:
260,101,178275,2,0,L|210:93,1,40,0|0,0:0|0:0,0:0:0:0:
194,135,178696,2,0,P|150:135|105:149,1,80,0|0,0:0|0:0,0:0:0:0:
486,241,180894,6,0,L|432:259,1,40,0|2,0:0|0:0,0:0:0:0:
400,260,181298,2,0,L|348:254,1,40,0|0,0:0|0:0,0:0:0:0:
313,267,181702,1,0,0:0:0:0:
267,282,181904,2,0,P|219:268|184:269,2,85,0|0|0,0:0|0:0|0:0,0:0:0:0:
60,77,184328,6,0,L|100:94,1,40,0|0,0:0|0:0,0:0:0:0:
98,140,184749,2,0,P|150:124|177:125,1,80,0|0,0:0|0:0,0:0:0:0:
222,130,185380,1,0,0:0:0:0:
268,143,185591,1,0,0:0:0:0:
307,169,185801,1,0,0:0:0:0:
340,202,186012,2,0,P|382:226|417:233,1,80,2|2,0:0|0:0,0:0:0:0:
473,307,186828,2,0,P|445:322|393:324,1,80,2|2,0:0|0:0,0:0:0:0:
305,296,187661,2,0,L|289:290,2,13.3333333333333,0|0|0,0:0|0:0|0:0,0:0:0:0:
211,319,188231,2,0,P|170:332|126:328,2,80,0|0|0,0:0|0:0|0:0,0:0:0:0:
157,239,189526,1,0,0:0:0:0:
166,103,191415,5,0,0:0:0:0:
133,126,191626,1,0,0:0:0:0:
109,157,191837,1,2,0:0:0:0:
94,194,192048,1,0,0:0:0:0:
99,233,192259,2,0,P|149:228|181:236,1,80,2|2,0:0|0:0,0:0:0:0:
215,246,192891,1,0,0:0:0:0:
251,261,193102,2,0,P|285:281|334:285,1,80,2|2,0:0|0:0,0:0:0:0:
372,284,193735,1,0,0:0:0:0:
417,269,193945,1,0,0:0:0:0:
417,269,194578,5,0,0:0:0:0:
456,241,194789,2,0,P|479:193|479:166,1,80,0|0,0:0|0:0,0:0:0:0:
471,119,195421,2,0,L|467:104,3,13.3333333333333
427,79,195843,2,0,L|383:70,1,40
340,77,196264,2,0,L|298:106,1,40
278,138,196686,1,0,0:0:0:0:
272,185,196897,1,0,0:0:0:0:
285,231,197108,1,0,0:0:0:0:
310,271,197319,2,0,P|271:262|223:266,1,80,0|0,0:0|0:0,0:0:0:0:
215,171,198162,5,2,0:0:0:0:
175,198,198377,1,0,0:0:0:0:
131,177,198593,1,2,0:0:0:0:
83,186,198809,1,0,0:0:0:0:
34,184,199025,2,0,P|55:235|50:273,1,80,2|2,0:0|0:0,0:0:0:0:
38,304,199672,1,0,0:0:0:0:
16,346,199888,2,0,P|46:326|98:324,1,80,2|2,0:0|0:0,0:0:0:0:
137,325,200536,1,0,0:0:0:0:
184,329,200751,2,0,P|231:317|258:296,1,80,2|2,0:0|0:0,0:0:0:0:
319,226,201615,5,0,0:0:0:0:
365,213,201831,2,0,L|392:207,2,20,0|0|0,0:0|0:0|0:0,0:0:0:0:
335,175,202262,2,0,L|343:148,2,20,0|0|0,0:0|0:0|0:0,0:0:0:0:
287,181,202694,1,0,0:0:0:0:
239,189,202910,2,0,L|203:194,4,20,0|0|0|0|0,0:0|0:0|0:0|0:0|0:0,0:0:0:0:
281,78,205080,5,2,0:0:0:0:
215,146,205524,1,0,0:0:0:0:
209,151,205746,1,0,0:0:0:0:
202,156,205968,2,0,P|149:181|112:181,1,80,0|0,0:0|0:0,0:0:0:0:
73,261,206857,2,0,P|131:268|149:277,1,80,0|0,0:0|0:0,0:0:0:0:
230,328,207746,2,0,P|288:350|349:343,1,120,0|0,0:0|0:0,0:0:0:0:
392,329,208635,1,0,0:0:0:0:
469,271,209063,6,0,L|498:282,4,20,2|0|0|0|0,0:0|0:0|0:0|0:0|0:0,0:0:0:0:
381,232,209921,2,0,P|365:195|367:151,1,80,0|0,0:0|0:0,0:0:0:0:
374,108,210564,1,0,0:0:0:0:
402,69,210778,1,0,0:0:0:0:
446,52,210992,1,0,0:0:0:0:
492,62,211207,2,0,P|519:87|532:133,1,80,0|0,0:0|0:0,0:0:0:0:
438,140,212064,6,0,L|345:140,1,80,6|0,0:0|0:0,0:0:0:0:
328,231,212933,2,0,L|246:232,1,80,0|0,0:0|0:0,0:0:0:0:
218,140,213803,6,0,L|125:140,1,80,6|0,0:0|0:0,0:0:0:0:
108,231,214672,2,0,L|26:232,1,80,0|0,0:0|0:0,0:0:0:0:
0,324,215542,5,6,0:0:0:0:
94,341,215977,1,0,0:0:0:0:
188,321,216411,1,0,0:0:0:0:
263,262,216846,1,0,0:0:0:0:
333,197,217281,2,0,L|373:188,1,40,6|0,0:0|0:0,0:0:0:0:
402,225,217732,2,0,L|425:190,1,40,0|0,0:0|0:0,0:0:0:0:
470,204,218183,2,0,P|477:162|467:126,2,80,0|0|0,0:0|0:0|0:0,0:0:0:0:
384,165,219518,6,0,P|351:149|308:148,1,80,0|0,0:0|0:0,0:0:0:0:
327,242,220384,1,0,0:0:0:0:
281,226,220601,1,0,0:0:0:0:
239,249,220817,2,0,P|203:264|160:261,1,80,2|0,0:0|0:0,0:0:0:0:
185,168,221684,2,0,P|144:165|108:180,1,80,0|0,0:0|0:0,0:0:0:0:
35,241,222550,5,2,0:0:0:0:
125,277,222983,1,0,0:0:0:0:
183,200,223417,1,0,0:0:0:0:
279,202,223850,1,0,0:0:0:0:
360,156,224283,1,6,0:0:0:0:
452,130,224727,1,4,0:0:0:0:
428,223,225171,6,0,P|394:213|345:215,1,80,4|0,0:0|0:0,0:0:0:0:
308,239,225838,2,0,P|278:255|246:262,1,60,0|2,0:0|0:0,0:0:0:0:
205,258,226389,1,0,0:0:0:0:
166,229,226607,2,0,P|120:207|91:204,1,80,0|0,0:0|0:0,0:0:0:0:
60,113,227481,1,0,0:0:0:0:
106,124,227699,1,0,0:0:0:0:
145,97,227917,2,0,P|184:76|222:71,1,80,2|0,0:0|0:0,0:0:0:0:
212,167,228791,2,0,P|271:179|328:167,1,120,0|0,0:0|0:0,0:0:0:0:
374,151,229664,5,2,0:0:0:0:
416,129,229882,1,0,0:0:0:0:
449,94,230101,1,0,0:0:0:0:
462,47,230319,1,0,0:0:0:0:
489,86,230537,1,0,0:0:0:0:
504,131,230756,1,0,0:0:0:0:
501,178,230974,1,0,0:0:0:0:
488,224,231192,1,0,0:0:0:0:
456,261,231411,2,0,P|415:289|381:293,2,80,2|0|0,0:0|0:0|0:0,0:0:0:0:
382,198,232721,6,0,P|329:208|302:207,1,80,0|2,0:0|0:0,0:0:0:0:
255,197,233379,1,0,0:0:0:0:
210,180,233601,1,0,0:0:0:0:
174,148,233823,1,0,0:0:0:0:
157,102,234045,2,0,P|121:128|82:133,1,80,2|0,0:0|0:0,0:0:0:0:
38,130,234712,2,0,L|8:125,2,20,0|0|0,0:0|0:0|0:0,0:0:0:0:
50,225,235379,1,0,0:0:0:0:
106,302,235823,1,0,0:0:0:0:
195,336,236268,1,0,0:0:0:0:
290,333,236712,6,0,P|331:320|372:322,1,80,6|0,0:0|0:0,0:0:0:0:
418,239,237601,2,0,P|377:226|336:228,1,80,0|6,0:0|0:0,0:0:0:0:
256,187,238490,2,0,L|270:168,3,20,2|0|0|0,0:0|0:0|0:0|0:0,0:0:0:0:
216,172,238951,2,0,L|219:155,4,13.3333333333333,0|0|0|0|0,0:0|0:0|0:0|0:0|0:0,0:0:0:0:
183,181,239413,2,0,P|141:188|104:180,1,80,0|0,0:0|0:0,0:0:0:0:
16,144,240298,5,2,0:0:0:0:
93,85,240741,2,0,B|122:89|152:71|171:74,1,80,0|0,0:0|0:0,0:0:0:0:
241,140,241627,2,0,B|260:136|290:154|319:150,1,80,0|6,0:0|0:0,0:0:0:0:
319,150,242955,1,6,0:0:0:0:
319,150,243841,5,0,0:0:0:0:
425,184,244287,1,0,0:0:0:0:
389,289,244733,1,0,0:0:0:0:
282,253,245180,1,0,0:0:0:0:
238,148,245626,2,0,P|181:160|120:147,1,120,0|0,0:0|0:0,0:0:0:0:
30,115,246519,2,0,P|116:146|145:204,1,160,0|0,0:0|0:0,0:0:0:0:
35,231,247635,6,0,P|109:308|220:289,1,220,0|0,0:0|0:0,0:0:0:0:
250,264,248742,2,0,P|231:226|234:149,1,120,0|2,0:0|0:0,0:0:0:0:
308,88,249593,2,0,P|349:90|414:132,1,120,0|2,0:0|0:0,0:0:0:0:
432,226,250443,2,0,P|409:260|340:295,1,120,0|2,0:0|0:0,0:0:0:0:
250,264,251293,1,0,0:0:0:0:
273,170,251633,2,0,L|277:150,4,20,0|0|0|0|0,0:0|0:0|0:0|0:0|0:0,0:0:0:0:
295,160,252058,2,0,L|299:140,4,20,0|0|0|0|0,0:0|0:0|0:0|0:0|0:0,0:0:0:0:
345,241,252738,1,0,0:0:0:0:
157,98,253503,6,0,P|205:132|269:129,1,120,0|0,0:0|0:0,0:0:0:0:
305,105,254183,2,0,P|347:86|385:89,1,80
346,121,254693,2,0,P|405:126|438:157,1,100,0|0,0:0|0:0,0:0:0:0:
387,235,255457,2,0,P|433:247|483:236,2,100
281,291,256732,2,0,P|223:303|160:289,2,120
223,213,258092,2,0,L|241:203,4,20,0|0|0|0|0,0:0|0:0|0:0|0:0|0:0,0:0:0:0:
201,190,258517,2,0,L|219:170,4,20,0|0|0|0|0,0:0|0:0|0:0|0:0|0:0,0:0:0:0:
171,181,258942,2,0,L|175:162,4,20,0|0|0|0|0,0:0|0:0|0:0|0:0|0:0,0:0:0:0:
139,179,259367,2,0,L|131:161,4,20,0|0|0|0|0,0:0|0:0|0:0|0:0|0:0,0:0:0:0:
108,184,259855,1,0,0:0:0:0:
374,205,260812,6,0,P|327:205|271:252,1,120,0|0,0:0|0:0,0:0:0:0:
359,297,261662,2,0,P|463:237|366:110,1,320,2|0,0:0|0:0,0:0:0:0:
374,205,263531,5,0,0:0:0:0:
263,239,263997,1,4,0:0:0:0:
226,129,264463,1,4,0:0:0:0:
336,95,264929,1,4,0:0:0:0:
374,205,265396,1,0,0:0:0:0:
320,307,265901,1,0,0:0:0:0:
206,289,266406,1,0,0:0:0:0:
183,175,266872,1,0,0:0:0:0:
285,121,267378,1,0,0:0:0:0:
93,286,269731,6,0,L|80:293,4,10,0|0|0|0|2,0:0|0:0|0:0|0:0|0:0,0:0:0:0:
310,170,271219,1,2,0:0:0:0:
394,124,271677,2,0,L|404:116,4,10,0|0|0|0|0,0:0|0:0|0:0|0:0|0:0,0:0:0:0:
243,257,272708,2,0,B|174:273|140:237|64:249,1,180,0|2,0:0|0:0,0:0:0:0:
93,286,277432,6,0,L|80:293,4,10,0|0|0|0|2,0:0|0:0|0:0|0:0|0:0,0:0:0:0:
181,247,278083,2,0,P|225:240|255:224,1,80,0|0,0:0|0:0,0:0:0:0:
394,124,279262,2,0,L|404:116,4,10,0|0|0|0|2,0:0|0:0|0:0|0:0|0:0,0:0:0:0:
243,257,280333,2,0,B|174:273|140:237|64:249,1,180,0|0,0:0|0:0,0:0:0:0:
203,124,285090,6,0,L|193:113,4,10,0|0|0|0|2,0:0|0:0|0:0|0:0|0:0,0:0:0:0:
276,186,285793,2,0,P|320:204|379:198,2,100,0|0|0,0:0|0:0|0:0,0:0:0:0:
171,244,287434,6,0,L|160:250,4,10
128,174,290833,2,0,B|182:67|365:96|269:283|390:236,1,340
