osu file format v14

[General]
AudioFilename: BlankDream.mp3
AudioLeadIn: 0
PreviewTime: 0
Countdown: 0
SampleSet: None
StackLeniency: 0.7
Mode: 1
LetterboxInBreaks: 0
WidescreenStoryboard: 0

[Editor]
DistanceSpacing: 0.8
BeatDivisor: 2
GridSize: 4
TimelineZoom: 1

[Metadata]
Title:Blank Dream
TitleUnicode:Blank Dream
Artist:Teriyaki Tomato
ArtistUnicode:Teriyaki Tomato
Creator:-FireThunder-
Version:Oni
Source:虚白ノ夢
Tags:Kohaku no Yume Kanawo Mishiro
BeatmapID:782164
BeatmapSetID:353903

[Difficulty]
HPDrainRate:6
CircleSize:4
OverallDifficulty:6
ApproachRate:3
SliderMultiplier:1.2
SliderTickRate:1

[Events]
//Background and Video events
0,0,"BlankDream.png",0,0
//Break Periods
//Storyboard Layer 0 (Background)
//Storyboard Layer 1 (Fail)
//Storyboard Layer 2 (Pass)
//Storyboard Layer 3 (Foreground)
//Storyboard Sound Samples

[TimingPoints]
0,333.333333333333,4,1,0,40,1,0
66666,-100,4,1,0,60,0,1
85333,-100,4,1,0,60,0,0
88000,-100,4,1,0,60,0,1
96333,-100,4,1,0,35,0,0

[HitObjects]
256,192,0,5,0,0:0:0:0:
256,192,333,1,0,0:0:0:0:
256,192,499,1,0,0:0:0:0:
256,192,832,1,0,0:0:0:0:
256,192,999,1,8,0:0:0:0:
256,192,1667,1,0,0:0:0:0:
256,192,2000,1,0,0:0:0:0:
256,192,2333,1,8,0:0:0:0:
256,192,2666,1,0,0:0:0:0:
252,184,3000,1,0,0:0:0:0:
256,192,3166,1,0,0:0:0:0:
256,192,3500,1,0,0:0:0:0:
256,192,3666,1,8,0:0:0:0:
256,192,4333,1,0,0:0:0:0:
256,192,4666,1,8,0:0:0:0:
256,192,4999,1,8,0:0:0:0:
260,188,5167,1,8,0:0:0:0:
256,188,5333,1,8,0:0:0:0:
256,192,5833,1,0,0:0:0:0:
252,192,6333,1,0,0:0:0:0:
252,192,7000,1,0,0:0:0:0:
256,192,7333,1,8,0:0:0:0:
252,192,7666,1,0,0:0:0:0:
252,192,8000,1,0,0:0:0:0:
252,192,8166,1,0,0:0:0:0:
252,192,8333,1,8,0:0:0:0:
252,192,8500,1,0,0:0:0:0:
252,192,8666,1,0,0:0:0:0:
256,192,9833,1,4,0:0:0:0:
256,192,10666,1,0,0:0:0:0:
256,192,11000,1,0,0:0:0:0:
256,192,11166,1,0,0:0:0:0:
256,192,11333,1,8,0:0:0:0:
256,192,11666,1,0,0:0:0:0:
256,192,12000,1,0,0:0:0:0:
256,192,12333,1,0,0:0:0:0:
256,192,12500,1,8,0:0:0:0:
260,192,12666,1,8,0:0:0:0:
244,192,13000,1,0,0:0:0:0:
256,192,13333,1,0,0:0:0:0:
256,192,13666,1,0,0:0:0:0:
256,192,13833,1,0,0:0:0:0:
252,188,14000,1,8,0:0:0:0:
256,192,14333,1,0,0:0:0:0:
256,192,14500,1,8,0:0:0:0:
256,192,14833,1,8,0:0:0:0:
256,192,14999,1,0,0:0:0:0:
248,196,15333,1,0,0:0:0:0:
256,192,15666,1,0,0:0:0:0:
256,192,16000,1,0,0:0:0:0:
244,192,16333,1,0,0:0:0:0:
244,196,16499,1,0,0:0:0:0:
264,196,16666,1,8,0:0:0:0:
248,196,16999,1,0,0:0:0:0:
244,200,17333,1,0,0:0:0:0:
248,192,17666,1,0,0:0:0:0:
256,192,17833,1,8,0:0:0:0:
256,192,17999,1,8,0:0:0:0:
256,192,18333,1,0,0:0:0:0:
256,192,18666,12,0,20666,0:0:0:0:
256,192,21333,5,0,0:0:0:0:
256,192,21666,1,0,0:0:0:0:
256,192,21833,1,8,0:0:0:0:
256,192,22166,1,8,0:0:0:0:
256,192,22333,1,0,0:0:0:0:
256,192,23083,1,0,0:0:0:0:
256,192,23666,1,0,0:0:0:0:
256,192,23833,1,0,0:0:0:0:
256,192,24000,1,8,0:0:0:0:
256,192,24333,1,8,0:0:0:0:
256,192,24500,1,0,0:0:0:0:
256,192,24833,1,8,0:0:0:0:
256,192,25000,1,8,0:0:0:0:
256,192,25916,1,0,0:0:0:0:
256,192,26249,1,0,0:0:0:0:
256,192,26416,1,0,0:0:0:0:
256,192,26583,1,8,0:0:0:0:
256,192,26916,1,0,0:0:0:0:
256,192,27083,1,8,0:0:0:0:
256,192,27416,1,8,0:0:0:0:
256,192,27583,1,8,0:0:0:0:
256,192,28000,1,0,0:0:0:0:
256,192,28166,1,8,0:0:0:0:
256,192,28333,1,0,0:0:0:0:
256,192,29000,1,8,0:0:0:0:
256,192,29166,1,8,0:0:0:0:
256,192,29333,1,0,0:0:0:0:
256,192,29666,1,0,0:0:0:0:
256,192,29833,1,8,0:0:0:0:
256,192,30166,1,8,0:0:0:0:
256,192,30333,1,8,0:0:0:0:
256,192,31166,1,12,0:0:0:0:
256,192,31666,1,0,0:0:0:0:
256,192,31832,1,8,0:0:0:0:
256,192,31999,1,0,0:0:0:0:
256,192,32333,1,0,0:0:0:0:
256,192,32499,1,8,0:0:0:0:
256,192,32833,1,8,0:0:0:0:
256,192,33000,1,0,0:0:0:0:
256,192,33666,1,0,0:0:0:0:
256,192,34000,1,8,0:0:0:0:
256,192,34333,1,0,0:0:0:0:
256,192,34500,1,8,0:0:0:0:
256,192,34666,1,0,0:0:0:0:
256,192,35000,1,0,0:0:0:0:
256,192,35166,1,0,0:0:0:0:
256,192,35500,1,0,0:0:0:0:
256,192,35666,1,8,0:0:0:0:
256,192,36249,1,0,0:0:0:0:
256,192,36666,1,0,0:0:0:0:
256,192,37000,1,0,0:0:0:0:
256,192,37166,1,0,0:0:0:0:
256,192,37333,1,8,0:0:0:0:
256,192,37666,1,0,0:0:0:0:
256,192,37833,1,8,0:0:0:0:
256,192,38000,1,0,0:0:0:0:
256,192,38333,1,0,0:0:0:0:
256,192,38999,1,0,0:0:0:0:
256,192,39332,1,0,0:0:0:0:
256,192,39499,1,0,0:0:0:0:
256,192,39666,1,8,0:0:0:0:
256,192,39999,1,8,0:0:0:0:
256,192,40332,1,8,0:0:0:0:
256,192,40499,1,0,0:0:0:0:
256,192,40833,1,0,0:0:0:0:
256,192,41000,1,8,0:0:0:0:
256,192,41666,1,8,0:0:0:0:
256,192,42000,1,0,0:0:0:0:
256,192,42333,1,0,0:0:0:0:
256,192,42500,1,0,0:0:0:0:
256,192,42666,1,0,0:0:0:0:
256,192,43000,1,8,0:0:0:0:
256,192,43166,1,0,0:0:0:0:
256,192,43333,1,0,0:0:0:0:
256,192,43666,1,0,0:0:0:0:
256,192,43833,1,8,0:0:0:0:
256,192,44000,1,0,0:0:0:0:
256,192,44333,1,8,0:0:0:0:
256,192,44500,1,0,0:0:0:0:
256,192,44666,1,0,0:0:0:0:
256,192,44999,1,0,0:0:0:0:
256,192,45166,1,0,0:0:0:0:
256,192,45333,1,8,0:0:0:0:
256,192,46000,1,0,0:0:0:0:
256,192,46333,1,0,0:0:0:0:
256,192,46499,1,0,0:0:0:0:
256,192,46666,1,8,0:0:0:0:
256,192,46999,1,0,0:0:0:0:
256,192,47166,1,0,0:0:0:0:
256,192,47499,1,0,0:0:0:0:
256,192,47666,1,0,0:0:0:0:
256,192,47833,1,8,0:0:0:0:
256,192,48000,1,0,0:0:0:0:
256,192,48333,1,8,0:0:0:0:
256,192,48499,1,0,0:0:0:0:
256,192,48666,1,0,0:0:0:0:
256,192,48999,1,0,0:0:0:0:
256,192,49166,1,8,0:0:0:0:
256,192,49333,1,0,0:0:0:0:
256,192,49666,1,8,0:0:0:0:
256,192,49832,1,0,0:0:0:0:
256,192,49999,1,8,0:0:0:0:
256,192,50332,1,8,0:0:0:0:
256,192,50499,1,8,0:0:0:0:
256,192,50666,1,0,0:0:0:0:
256,192,51333,1,0,0:0:0:0:
256,192,51499,1,0,0:0:0:0:
256,192,51666,1,0,0:0:0:0:
256,192,51833,1,0,0:0:0:0:
256,192,52000,1,8,0:0:0:0:
256,192,52333,1,8,0:0:0:0:
256,192,52500,1,0,0:0:0:0:
256,192,52833,1,0,0:0:0:0:
256,192,52999,1,8,0:0:0:0:
256,192,53166,1,0,0:0:0:0:
256,192,53333,1,0,0:0:0:0:
256,192,53666,1,0,0:0:0:0:
256,192,53833,1,0,0:0:0:0:
256,192,54000,1,8,0:0:0:0:
256,192,54333,1,8,0:0:0:0:
256,192,54666,1,0,0:0:0:0:
256,192,55000,1,8,0:0:0:0:
256,192,55166,1,0,0:0:0:0:
256,192,55333,1,0,0:0:0:0:
256,192,55666,1,0,0:0:0:0:
256,192,56000,1,8,0:0:0:0:
256,192,56499,1,0,0:0:0:0:
256,192,56833,1,0,0:0:0:0:
256,192,57000,1,0,0:0:0:0:
256,192,57166,1,8,0:0:0:0:
256,192,57500,1,0,0:0:0:0:
256,192,57666,1,8,0:0:0:0:
256,192,57833,1,0,0:0:0:0:
256,192,58166,1,0,0:0:0:0:
256,192,58333,1,0,0:0:0:0:
256,192,58666,1,0,0:0:0:0:
252,172,59000,1,0,0:0:0:0:
252,172,59333,1,8,0:0:0:0:
256,192,59666,1,8,0:0:0:0:
256,184,60332,1,0,0:0:0:0:
256,192,60499,1,0,0:0:0:0:
256,192,60666,1,8,0:0:0:0:
256,184,60833,1,0,0:0:0:0:
256,188,60999,1,8,0:0:0:0:
268,188,61166,1,0,0:0:0:0:
256,184,61333,1,8,0:0:0:0:
256,192,61833,1,0,0:0:0:0:
256,192,62333,1,0,0:0:0:0:
256,192,62500,1,0,0:0:0:0:
256,192,62666,1,8,0:0:0:0:
252,192,63000,1,0,0:0:0:0:
256,192,63166,1,8,0:0:0:0:
256,192,63500,1,0,0:0:0:0:
256,192,63833,1,0,0:0:0:0:
256,192,64000,1,8,0:0:0:0:
256,192,65333,1,12,0:0:0:0:
256,192,65999,1,0,0:0:0:0:
256,184,66333,1,0,0:0:0:0:
256,192,66500,1,0,0:0:0:0:
256,192,66666,1,8,0:0:0:0:
256,192,67000,1,0,0:0:0:0:
256,192,67166,1,0,0:0:0:0:
256,192,67500,1,0,0:0:0:0:
256,192,67666,1,4,0:0:0:0:
256,192,68333,1,0,0:0:0:0:
256,192,68666,1,8,0:0:0:0:
256,192,69000,1,8,0:0:0:0:
256,192,69333,1,4,0:0:0:0:
256,192,69666,1,0,0:0:0:0:
256,192,69833,1,0,0:0:0:0:
256,192,70166,1,0,0:0:0:0:
256,192,70333,1,8,0:0:0:0:
256,192,71333,1,0,0:0:0:0:
256,192,71500,1,8,0:0:0:0:
256,192,71666,1,0,0:0:0:0:
256,192,72000,1,0,0:0:0:0:
256,192,72333,1,0,0:0:0:0:
256,192,72499,1,0,0:0:0:0:
256,192,72666,1,8,0:0:0:0:
256,192,73000,1,0,0:0:0:0:
256,192,73333,1,8,0:0:0:0:
256,192,73666,1,8,0:0:0:0:
256,192,73833,1,0,0:0:0:0:
256,192,74166,1,8,0:0:0:0:
256,192,74333,1,0,0:0:0:0:
256,192,74500,1,8,0:0:0:0:
256,192,74666,1,12,0:0:0:0:
256,192,74999,1,0,0:0:0:0:
256,192,75166,1,8,0:0:0:0:
252,200,75499,1,0,0:0:0:0:
256,192,75666,1,0,0:0:0:0:
248,204,76333,1,0,0:0:0:0:
256,192,76666,1,0,0:0:0:0:
256,192,76999,1,8,0:0:0:0:
260,196,77333,1,0,0:0:0:0:
256,192,77667,1,0,0:0:0:0:
256,192,77833,1,0,0:0:0:0:
256,192,78167,1,0,0:0:0:0:
256,192,78333,1,4,0:0:0:0:
256,192,79000,1,0,0:0:0:0:
256,192,79167,1,0,0:0:0:0:
256,192,79333,1,8,0:0:0:0:
256,192,79666,1,8,0:0:0:0:
256,192,79833,1,0,0:0:0:0:
256,192,80000,1,0,0:0:0:0:
256,192,80333,1,0,0:0:0:0:
256,192,80500,1,0,0:0:0:0:
256,192,80833,1,0,0:0:0:0:
256,192,81000,1,12,0:0:0:0:
256,192,81999,1,8,0:0:0:0:
256,192,82166,1,0,0:0:0:0:
256,192,82332,1,8,0:0:0:0:
256,192,82666,1,0,0:0:0:0:
256,192,82999,1,0,0:0:0:0:
256,192,83332,1,8,0:0:0:0:
256,192,83666,1,8,0:0:0:0:
248,188,84166,1,0,0:0:0:0:
256,192,84333,1,8,0:0:0:0:
248,188,84500,1,0,0:0:0:0:
256,192,84666,1,8,0:0:0:0:
248,188,85000,1,0,0:0:0:0:
256,192,85333,1,0,0:0:0:0:
256,192,85499,1,0,0:0:0:0:
252,192,85666,1,0,0:0:0:0:
256,192,86000,1,0,0:0:0:0:
256,192,86166,1,8,0:0:0:0:
256,192,86333,1,0,0:0:0:0:
256,192,86833,1,8,0:0:0:0:
252,192,87166,1,8,0:0:0:0:
256,192,87500,1,0,0:0:0:0:
256,192,88000,1,0,0:0:0:0:
248,192,88333,1,0,0:0:0:0:
256,192,88666,1,8,0:0:0:0:
252,192,88999,1,0,0:0:0:0:
256,192,89333,1,0,0:0:0:0:
256,192,89666,1,0,0:0:0:0:
248,192,90000,1,8,0:0:0:0:
256,192,90333,1,0,0:0:0:0:
256,192,90666,1,0,0:0:0:0:
248,192,91000,1,0,0:0:0:0:
256,192,91333,1,8,0:0:0:0:
248,192,91666,1,0,0:0:0:0:
256,192,92000,1,8,0:0:0:0:
256,192,92333,1,8,0:0:0:0:
248,192,92666,1,0,0:0:0:0:
252,196,92999,1,0,0:0:0:0:
256,192,93333,1,0,0:0:0:0:
256,192,93666,1,0,0:0:0:0:
256,192,93999,1,8,0:0:0:0:
248,192,94333,1,0,0:0:0:0:
260,188,94666,1,0,0:0:0:0:
260,188,94999,1,0,0:0:0:0:
256,192,95444,1,8,0:0:0:0:
256,192,95888,1,0,0:0:0:0:
256,192,96333,1,8,0:0:0:0:
256,192,100833,1,12,0:0:0:0:
