osu file format v14

[General]
AudioFilename: Tenpei Sato - Lord Laharl's...Hymn-.mp3
AudioLeadIn: 0
PreviewTime: 244
Countdown: 0
SampleSet: Soft
StackLeniency: 0.7
Mode: 0
LetterboxInBreaks: 0
WidescreenStoryboard: 0

[Editor]
Bookmarks: 4694
DistanceSpacing: 1.3
BeatDivisor: 4
GridSize: 4
TimelineZoom: 1.2

[Metadata]
Title:Laharl-sama no Sanbi Ka?
TitleUnicode:ハラール様の賛美か?
Artist:Tenpei Sato
ArtistUnicode:佐藤天平
Creator:tomhet65
Version:Normal
Source:魔界戦記ディスガイア2
Tags:Disgaea 2 Cursed Memories Lord Laharl's Hymn Is It Admiration for Overlord Satou chiptune ost
BeatmapID:671429
BeatmapSetID:298969

[Difficulty]
HPDrainRate:4
CircleSize:3.5
OverallDifficulty:3.5
ApproachRate:5
SliderMultiplier:1.6
SliderTickRate:1

[Events]
//Background and Video events
0,0,"xgrqn9h6.jpg",0,0
//Break Periods
2,42643,47851
//Storyboard Layer 0 (Background)
//Storyboard Layer 1 (Fail)
//Storyboard Layer 2 (Pass)
//Storyboard Layer 3 (Foreground)
//Storyboard Sound Samples

[TimingPoints]
244,659.340659340659,4,2,1,24,1,0
21178,-125,4,2,1,24,0,0
26287,-100,4,2,1,24,0,0
37002,-111.111111111111,4,2,1,24,0,0
37661,-100,4,2,1,24,0,0
38320,-90.9090909090909,4,2,1,24,0,0
38980,-200,4,2,1,24,0,0
42443,659.340659340659,4,2,1,24,1,0
48704,-100,4,2,1,24,0,0
49051,659.340659340659,4,2,1,24,1,0
72441,-111.111111111111,4,2,1,24,0,0

[Colours]
Combo1 : 238,77,108
Combo2 : 236,213,151
Combo3 : 112,112,218

[HitObjects]
136,152,244,6,0,P|176:160|252:160,1,80,4|8,0:0|0:0,0:0:0:0:
320,168,903,2,0,B|328:216|328:216|316:256|316:256|332:340,1,160,2|4,0:0|0:0,0:0:0:0:
424,284,1892,2,0,L|444:380,2,80,8|2|8,0:0|0:0|0:0,0:0:0:0:
460,188,2881,6,0,P|448:132|416:84,1,80,4|8,0:0|0:0,0:0:0:0:
336,104,3540,1,2,0:0:0:0:
336,104,3870,1,8,0:0:0:0:
248,160,4200,2,0,P|204:172|160:168,1,80,4|8,0:0|0:0,0:0:0:0:
92,108,4859,1,2,0:0:0:0:
92,108,5189,1,8,0:0:0:0:
56,204,5518,6,0,L|76:292,2,80,4|8|2,0:0|0:0|0:0,0:0:0:0:
92,108,6507,1,8,0:0:0:0:
180,52,6837,2,0,L|232:68,1,40,4|0,0:0|0:0,0:0:0:0:
272,68,7167,2,0,L|328:56,1,40,8|0,0:0|0:0,0:0:0:0:
364,68,7496,2,0,B|380:108|380:108|384:164,1,80,2|8,0:0|0:0,0:0:0:0:
324,232,8156,5,4,0:0:0:0:
424,252,8485,1,8,0:0:0:0:
392,352,8815,2,0,B|356:336|356:336|320:348|320:348|280:332|280:332|220:352,1,160,2|4,0:0|0:0,0:0:0:0:
180,264,9804,1,8,0:0:0:0:
180,264,10134,2,0,P|172:196|176:164,1,80,2|8,0:0|0:0,0:0:0:0:
68,196,10793,6,0,P|64:256|68:292,1,80,4|8,0:0|0:0,0:0:0:0:
112,368,11452,2,0,B|168:356|168:356|216:368|216:368|276:356,1,160,2|4,0:0|0:0,0:0:0:0:
372,336,12441,2,0,B|372:296|372:296|352:252,1,80,8|2,0:0|0:0,0:0:0:0:
416,172,13101,1,8,0:0:0:0:
312,172,13430,6,0,P|276:160|244:124,1,80,4|8,0:0|0:0,0:0:0:0:
340,80,14090,2,0,P|326:44|333:-3,1,80,2|8,0:0|0:0,0:0:0:0:
232,40,14749,2,0,P|204:68|167:81,1,80,4|8,0:0|0:0,0:0:0:0:
248,148,15408,2,0,P|243:187|257:224,1,80,2|8,0:0|0:0,0:0:0:0:
176,288,16068,6,0,B|128:276|80:296|80:296|76:260|36:220|36:220,2,160,4|2|4,0:0|0:0|0:0,0:0:0:0:
272,244,17716,1,8,0:0:0:0:
376,256,18046,2,0,P|392:212|388:164,1,80,2|8,0:0|0:0,0:0:0:0:
304,124,18705,6,0,L|204:140,1,80,4|8,0:0|0:0,0:0:0:0:
224,32,19364,2,0,L|302:19,1,80,2|8,0:0|0:0,0:0:0:0:
404,48,20024,1,4,0:0:0:0:
364,144,20353,2,0,L|376:196,1,40,8|8,0:0|0:0,0:0:0:0:
380,236,20683,2,0,P|348:260|284:280,1,80,2|8,0:0|0:0,0:0:0:0:
204,232,21342,6,0,B|144:208|144:208|76:228,1,128,4|4,0:0|0:0,0:0:0:0:
232,86,22661,2,0,B|292:103|292:103|352:79,1,128,4|2,0:0|0:0,0:0:0:0:
431,242,23980,5,4,0:0:0:0:
431,242,24309,1,8,0:0:0:0:
336,220,24639,1,4,0:0:0:0:
336,220,24969,1,8,0:0:0:0:
244,244,25298,2,0,L|228:328,1,64,4|8,0:0|0:0,0:0:0:0:
136,328,25958,1,2,0:0:0:0:
96,124,26617,6,0,B|56:128|56:128|8:108,2,80,4|8|2,0:0|0:0|0:0,0:0:0:0:
192,84,27606,2,0,B|232:72|232:72|296:80,1,80,8|4,0:0|0:0,0:0:0:0:
352,140,28265,2,0,B|389:144|389:144|429:132,1,80,8|2,0:0|0:0,0:0:0:0:
484,220,28925,6,0,P|492:260|488:320,2,80,8|4|8,0:0|0:0|0:0,0:0:0:0:
384,244,29914,1,2,0:0:0:0:
408,144,30243,1,8,0:0:0:0:
312,180,30573,2,0,P|284:232|248:268,1,80,4|8,0:0|0:0,0:0:0:0:
284,352,31233,1,2,0:0:0:0:
184,320,31562,2,0,L|120:336,1,40,8|0,0:0|0:0,0:0:0:0:
92,340,31892,6,0,P|72:288|72:156,1,160,4|2,0:0|0:0,0:0:0:0:
144,116,32881,1,8,0:0:0:0:
236,164,33211,2,0,L|340:136,2,80,4|8|2,0:0|0:0|0:0,0:0:0:0:
188,256,34200,1,8,0:0:0:0:
188,256,34529,6,0,P|196:304|240:348,1,80,4|8,0:0|0:0,0:0:0:0:
308,288,35188,2,0,P|304:224|288:200,1,80,2|8,0:0|0:0,0:0:0:0:
320,112,35848,1,4,0:0:0:0:
408,168,36178,2,0,L|404:216,1,40,8|0,0:0|0:0,0:0:0:0:
388,256,36507,2,0,L|416:360,1,80,2|8,0:0|0:0,0:0:0:0:
304,356,37167,6,0,L|284:284,1,71.9999978027344,4|8,0:0|0:0,0:0:0:0:
176,260,37826,2,0,L|192:160,1,80,2|8,0:0|0:0,0:0:0:0:
96,136,38485,2,0,L|144:52,1,88.000002685547,4|8,0:0|0:0,0:0:0:0:
244,88,39145,1,2,0:0:0:0:
256,192,39309,12,4,42443,0:0:0:0:
148,88,49051,5,0,0:0:0:0:
256,76,49380,2,0,P|296:64|340:40,2,80,8|2|8,0:0|0:0|0:0,0:0:0:0:
300,168,50369,1,4,0:0:0:0:
196,160,50699,2,0,P|136:152|100:152,2,80,8|2|8,0:0|0:0|0:0,0:0:0:0:
224,260,51688,5,4,0:0:0:0:
312,312,52018,2,0,P|364:320|420:320,2,80,8|2|8,0:0|0:0|0:0,0:0:0:0:
212,336,53007,2,0,L|184:256,1,80,4|8,0:0|0:0,0:0:0:0:
272,204,53666,2,0,B|312:216|312:216|380:204,1,80,2|8,0:0|0:0,0:0:0:0:
424,136,54325,5,4,0:0:0:0:
324,108,54655,2,0,P|256:88|232:72,2,80,8|2|8,0:0|0:0|0:0,0:0:0:0:
360,208,55644,1,4,0:0:0:0:
260,184,55974,2,0,P|196:200|164:196,1,80,8|2,0:0|0:0,0:0:0:0:
96,144,56633,2,0,L|108:104,1,40,8|0,0:0|0:0,0:0:0:0:
156,88,56963,6,0,P|220:76|252:80,1,80,4|8,0:0|0:0,0:0:0:0:
336,96,57622,2,0,B|341:140|320:176|320:176|336:212|336:212|326:231|324:260,1,160,2|4,0:0|0:0,0:0:0:0:
252,320,58611,2,0,L|204:328,1,40,0|0,0:0|0:0,0:0:0:0:
160,320,58941,2,0,P|152:280|160:216,1,80,2|0,0:0|0:0,0:0:0:0:
180,140,59600,5,4,0:0:0:0:
284,136,59930,2,0,P|292:80|288:48,2,80,8|2|8,0:0|0:0|0:0,0:0:0:0:
316,236,60919,1,4,0:0:0:0:
212,224,61248,2,0,P|168:208|116:204,2,80,8|2|8,0:0|0:0|0:0,0:0:0:0:
248,324,62237,5,4,0:0:0:0:
344,280,62567,2,0,P|368:316|400:348,2,80,8|2|8,0:0|0:0|0:0,0:0:0:0:
384,184,63556,2,0,B|424:188|424:188|462:167,1,80,4|8,0:0|0:0,0:0:0:0:
396,88,64215,2,0,B|356:84|356:84|317:104,1,80,2|8,0:0|0:0,0:0:0:0:
216,76,64875,5,4,0:0:0:0:
136,144,65204,2,0,P|152:192|156:244,1,80,8|2,0:0|0:0,0:0:0:0:
256,248,65864,1,8,0:0:0:0:
308,156,66193,2,0,P|376:136|444:208,1,160,4|2,0:0|0:0,0:0:0:0:
260,292,67512,5,4,0:0:0:0:
364,300,67842,2,0,P|392:248|392:208,1,80,8|2,0:0|0:0,0:0:0:0:
352,132,68501,1,8,0:0:0:0:
256,168,68831,2,0,P|192:172|160:68,1,160,4|2,0:0|0:0,0:0:0:0:
356,76,70149,5,4,0:0:0:0:
264,28,70479,2,0,L|176:44,1,80,8|2,0:0|0:0,0:0:0:0:
84,60,71138,1,8,0:0:0:0:
76,164,71468,2,0,B|72:204|72:204|88:240|88:240|80:276|80:276|100:324,1,160,4|2,0:0|0:0,0:0:0:0:
272,252,72787,5,4,0:0:0:0:
272,252,73116,1,8,0:0:0:0:
356,208,73446,2,0,L|340:128,1,71.9999978027344,2|8,0:0|0:0,0:0:0:0:
412,76,74105,1,4,0:0:0:0:
412,76,74435,1,8,0:0:0:0:
432,168,74765,2,0,L|446:238,1,71.9999978027344,2|8,0:0|0:0,0:0:0:0:
380,304,75424,5,4,0:0:0:0:
380,304,75754,1,8,0:0:0:0:
304,252,76083,2,0,B|272:240|272:240|208:244,1,71.9999978027344,2|8,0:0|0:0,0:0:0:0:
188,160,76743,1,4,0:0:0:0:
228,76,77072,1,8,0:0:0:0:
144,36,77402,1,2,0:0:0:0:
256,192,78061,5,4,0:0:0:0:
