osu file format v5

[General]
AudioFilename: Disgaea 3 Opening.mp3
AudioLeadIn: 0
PreviewTime: -1
Countdown: 1
SampleSet: Normal
StackLeniency: 0.7
Mode: 0
LetterboxInBreaks: 1

[Metadata]
Title:Disgaea 3 Opening
Artist:Tenpei Sato
Creator:ShadyOSU
Version:Insane
Source:Disgaea 3
Tags:laharl etna flonne disgaea mao

[Difficulty]
HPDrainRate:8
CircleSize:6
OverallDifficulty:9
SliderMultiplier:1.4
SliderTickRate:1

[Events]
//Background and Video events
1,0,"Disgaea 3 Opening nosound.avi"
//Break Periods
2,52170,59177
2,70390,74507
//Storyboard Layer 0 (Background)
//Storyboard Layer 1 (Failing)
//Storyboard Layer 2 (Passing)
//Storyboard Layer 3 (Foreground)
//Storyboard Sound Samples
//Background Colour Transformations
3,100,163,162,255

[TimingPoints]
10234,642.1025,4,1,0,100,1

[HitObjects]
192,256,23557,1,0
192,192,23878,1,0
192,128,24199,1,0
256,128,24520,1,0
320,192,24841,1,0
256,256,25162,1,0
192,128,26126,5,0
256,96,26447,1,0
320,128,26768,1,0
256,192,27089,1,0
320,256,27410,1,0
256,288,27731,1,0
192,256,28052,1,0
160,192,28453,5,0
352,192,29095,1,0
448,320,30058,5,0
448,256,30379,1,0
448,192,30701,1,0
352,192,31022,1,0
352,256,31343,1,0
352,320,31664,1,0
192,320,32306,1,0
192,256,32627,1,0
192,192,32948,1,0
64,64,33991,5,0
128,96,34312,1,0
192,128,34633,1,0
256,160,34954,1,0
352,96,35275,5,0
352,128,35436,1,0
352,160,35597,1,0
352,192,35757,1,0
352,224,35918,1,0
352,256,36078,1,0
352,288,36239,1,0
416,320,36640,5,0
352,288,36881,1,0
288,256,37202,1,0
224,224,37523,1,0
160,192,37844,1,0
96,160,38165,1,0
128,96,38486,1,0
256,64,38887,5,0
256,192,39529,1,0
416,64,40493,5,0
352,128,40814,1,0
288,192,41135,1,0
224,256,41456,1,0
160,320,41777,1,0
96,256,42098,1,0
160,192,42740,5,0
192,160,42900,1,0
224,128,43061,1,0
256,96,43222,1,0
288,64,43382,1,0
352,64,43783,1,0
256,192,44104,5,0
320,192,44425,1,0
384,192,44747,1,0
256,192,45389,5,0
192,192,45710,1,0
128,192,46031,1,0
256,192,46673,5,0
256,128,46994,1,0
256,64,47315,1,0
128,96,48037,5,0
160,96,48198,1,0
192,96,48358,1,0
224,96,48519,1,0
256,96,48679,1,0
288,96,48840,1,0
320,96,49000,1,0
352,96,49161,1,0
256,192,49402,12,0,51970
256,64,60077,5,0
256,128,60398,1,0
256,192,60719,1,0
256,256,61040,1,0
320,256,61361,1,0
320,192,61682,1,0
320,128,62003,1,0
224,128,62404,1,0
224,192,62725,1,0
224,256,63046,1,0
128,96,64571,5,0
192,96,64892,1,0
256,96,65214,1,0
320,96,65535,1,0
384,96,65936,1,0
320,160,66257,1,0
256,224,66578,1,0
192,160,66899,1,0
128,96,67541,5,0
192,96,67862,1,0
256,96,68183,1,0
320,160,68504,1,0
320,192,68665,1,0
320,224,68825,1,0
256,288,69227,1,0
192,256,69548,1,0
128,192,69869,1,0
192,128,70190,1,0
64,64,75327,5,0
64,160,75648,1,0
160,64,75969,1,0
160,160,76290,1,0
256,192,76611,5,0
320,288,77333,1,0
384,224,77654,1,0
448,160,77975,1,0
448,64,78296,1,0
352,160,78617,1,0
64,160,79260,5,0
64,64,79581,1,0
160,160,79902,1,0
256,64,80945,5,0
256,128,81266,1,0
256,192,81587,1,0
256,256,81908,1,0
256,192,82550,1,0
320,256,82871,1,0
256,320,83192,1,0
192,192,86162,5,0
224,128,86483,1,0
288,128,86804,1,0
320,192,87125,1,0
256,320,87767,5,0
256,256,88088,1,0
256,192,88409,1,0
256,128,88731,1,0
256,64,89052,1,0
192,160,89774,1,0
256,192,90095,1,0
320,160,90416,1,0
256,64,91379,5,0
256,128,91700,1,0
256,192,92021,1,0
256,256,92342,1,0
192,224,92984,1,0
256,192,93306,1,0
320,224,93627,1,0
384,128,93948,5,0
384,160,94108,1,0
384,192,94269,1,0
384,224,94429,1,0
384,256,94590,1,0
320,128,94911,5,0
320,160,95071,1,0
320,192,95232,1,0
320,224,95392,1,0
320,256,95553,1,0
448,160,96275,5,0
448,224,96596,1,0
416,288,96917,1,0
352,320,97238,1,0
288,320,97559,1,0
256,320,97720,1,0
224,320,97880,1,0
192,320,98041,1,0
160,320,98202,1,0
96,288,98523,1,0
64,224,98844,1,0
64,160,99165,1,0
128,128,99486,1,0
256,96,100128,5,0
160,128,100449,1,0
64,160,100770,1,0
64,224,101412,2,0,B|256:288|480:224,1,402.5
448,224,104382,5,0
416,160,104703,1,0
384,96,105024,1,0
320,64,105345,1,0
256,64,105666,1,0
192,64,106067,1,0
128,96,106388,1,0
96,160,106709,1,0
64,224,107030,1,0
160,224,107352,1,0
256,288,107673,1,0
352,224,107994,1,0
