osu file format v5

[General]
AudioFilename: 101 Demon Academy.mp3
AudioLeadIn: 0
PreviewTime: -1
Countdown: 1
SampleSet: Normal
StackLeniency: 0.7
Mode: 0
LetterboxInBreaks: 1

[Metadata]
Title:Demon Academy
Artist:Tenpei Sato
Creator:DarkCenobyte
Version:Hard
Source:Disgaea 3
Tags:tenpei sato disgaea 3 absence of justice opening demon academy

[Difficulty]
HPDrainRate:8
CircleSize:6
OverallDifficulty:5
SliderMultiplier:1.4
SliderTickRate:3

[Events]
//Background and Video events
0,0,"disgaea3_ss_016_m[1].jpg"
1,0,"disgaea3openhq.avi"
//Break Periods
2,50916,63623
2,109285,118852
//Storyboard Layer 0 (Background)
//Storyboard Layer 1 (Failing)
//Storyboard Layer 2 (Passing)
//Storyboard Layer 3 (Foreground)
//Storyboard Sound Samples
//Background Colour Transformations
3,100,163,162,255

[TimingPoints]
5390,326.086956521739,4,1,0,100,1

[HitObjects]
128,256,18433,1,0
160,192,18759,1,0
192,128,19085,1,0
384,256,19737,5,0
352,192,20063,1,0
320,128,20389,1,0
256,64,21042,6,0,L|256:256,6,140
192,64,23976,5,0
160,64,24303,1,0
96,64,24955,5,0
96,96,25281,1,0
96,128,25607,1,0
352,64,26585,5,0
352,96,26911,1,0
352,128,27237,1,0
352,160,27563,1,0
352,192,27889,1,0
352,224,28216,1,8
96,288,28868,6,0,L|416:288|416:288,2,280
96,224,31476,5,0
96,192,31803,1,0
96,192,32129,1,8
128,160,32781,5,0
160,160,33107,1,0
160,160,33433,1,8
352,192,34411,5,0
352,160,34737,1,0
352,128,35063,1,0
352,96,35389,1,0
288,96,35716,6,0,L|288:224,6,70
384,256,37346,5,0
384,224,37672,1,0
384,192,37998,1,0
352,192,38324,5,0
320,192,38650,1,0
288,192,38976,1,8
320,128,39303,6,0,L|32:128|32:128,2,280
384,128,40933,5,0
384,96,41259,1,0
384,64,41585,1,0
416,64,41911,1,0
416,96,42237,1,0
416,128,42563,1,8
416,160,43216,6,0,L|320:160,5,70
320,128,44520,5,0
288,128,44846,1,0
256,128,45172,1,8
256,192,45824,5,0
288,192,46150,1,0
320,192,46476,1,8
384,192,47129,5,0
384,160,47455,1,0
384,128,47781,1,8
256,192,48596,12,0,50716
96,64,65063,6,0,L|416:64,3,280
416,64,67346,1,0
416,96,67672,1,0
416,160,67998,5,0
352,160,68324,1,0
288,160,68650,1,0
288,160,68813,1,0
256,224,69303,5,0
256,224,69629,1,0
256,224,69955,1,0
256,224,70281,1,0
256,224,70607,1,0
256,224,70933,1,0
256,224,71259,1,0
256,192,71585,12,0,74520
384,96,75824,5,0
384,96,75987,1,0
384,192,76476,1,0
384,256,76803,1,0
320,256,77129,2,0,L|320:32,2,210
320,256,78270,6,0,L|160:256,1,140
256,192,78759,12,0,79737
256,192,79737,12,0,80716
352,192,81042,5,0
352,160,81368,1,0
352,128,81694,1,0
352,64,82346,1,0
224,64,82998,2,0,L|128:64,4,70
256,192,84139,12,0,85933
128,96,86259,5,0
128,96,86422,1,0
128,192,86911,1,0
128,256,87238,1,0
192,256,87564,2,0,L|192:32,2,210
192,256,88705,6,0,L|352:256,1,140
256,192,89194,12,0,90172
256,192,90172,12,0,91151
160,192,91477,5,0
160,160,91803,1,0
160,128,92129,1,0
160,64,92781,1,0
288,64,93433,2,0,L|384:64,4,70
256,192,94574,12,0,96368
256,192,96694,5,0
256,192,96857,1,0
320,192,97020,1,0
320,192,97183,1,0
320,128,97346,1,0
320,128,97509,1,0
256,128,97672,1,0
256,128,97835,1,0
288,160,97998,1,0
288,160,98161,5,0
288,160,98324,1,0
288,160,98487,1,0
288,160,98650,1,0
288,160,98813,1,0
288,160,98976,1,0
256,192,99303,12,0,99955
256,192,100607,12,0,101259
256,192,101911,12,0,104520
256,192,104846,5,0
256,160,105172,1,0
256,128,105498,1,0
288,128,105824,1,0
320,128,106150,1,0
320,160,106476,1,0
320,192,106803,1,0
320,224,107129,2,4,L|96:224|96:32|352:32,1,630
352,32,108922,1,4
352,32,109085,1,4
352,96,120172,5,0
352,96,120335,1,0
288,96,120661,5,0
288,96,120824,1,0
224,96,121150,5,0
224,96,121313,1,0
224,160,121639,5,0
224,160,121803,1,0
288,160,122129,5,0
288,160,122292,1,0
352,160,122618,5,0
352,160,122781,1,0
256,192,125063,5,0
256,192,125226,1,0
256,192,125389,1,0
256,192,125553,1,4
